osu file format v14

[General]
AudioFilename: audio.mp3
AudioLeadIn: 0
PreviewTime: 98005
Countdown: 0
SampleSet: Soft
StackLeniency: 0.3
Mode: 0
LetterboxInBreaks: 0
WidescreenStoryboard: 1

[Editor]
DistanceSpacing: 0.4
BeatDivisor: 4
GridSize: 32
TimelineZoom: 0.9000001

[Metadata]
Title:Spiral
TitleUnicode:Spiral
Artist:Yunosuke
ArtistUnicode:雄之助
Creator:Axaptice
Version:Hard
Source:
Tags:wring yellojello hatsune miku black or white gyuniku osamu vocaloid electronic japanese
BeatmapID:2708536
BeatmapSetID:1287115

[Difficulty]
HPDrainRate:4.2
CircleSize:4
OverallDifficulty:7
ApproachRate:8
SliderMultiplier:2
SliderTickRate:1

[Events]
//Background and Video events
0,0,"84074877_p0.jpg",0,0
//Break Periods
2,15734,18535
2,94485,95878
//Storyboard Layer 0 (Background)
//Storyboard Layer 1 (Fail)
//Storyboard Layer 2 (Pass)
//Storyboard Layer 3 (Foreground)
//Storyboard Layer 4 (Overlay)
//Storyboard Sound Samples

[TimingPoints]
535,468.75,4,2,0,68,1,0
535,-125,4,2,0,68,0,0
8035,-166.666666666667,4,2,1,18,0,0
8503,-100,4,2,0,68,0,0
15535,-100,4,2,0,48,0,0
19285,-250,4,2,0,48,0,0
34285,-100,4,2,0,48,0,0
38503,-100,4,2,0,68,0,0
49285,-166.666666666667,4,2,0,68,0,0
57722,-166.666666666667,4,2,0,73,0,0
58660,-166.666666666667,4,2,0,78,0,0
59597,-166.666666666667,4,2,0,83,0,0
60535,-166.666666666667,4,2,0,88,0,0
61472,-166.666666666667,4,2,0,93,0,0
62409,-166.666666666667,4,2,0,68,0,0
64285,-100,4,2,0,100,0,1
77878,-100,4,2,0,68,0,1
78347,-100,4,2,0,100,0,1
79753,-100,4,2,0,100,0,1
92878,-100,4,2,0,68,0,1
94285,-100,4,2,0,68,0,0
98035,-277.777777777778,4,2,1,18,0,0
98152,-277.777777777778,4,2,1,5,0,0
98738,-277.777777777778,4,2,1,18,0,0
98855,-277.777777777778,4,2,1,5,0,0
99910,-277.777777777778,4,2,1,18,0,0
100027,-277.777777777778,4,2,1,5,0,0
100613,-277.777777777778,4,2,1,35,0,0
100730,-277.777777777778,4,2,1,5,0,0
101785,-277.777777777778,4,2,1,18,0,0
101902,-277.777777777778,4,2,1,5,0,0
102488,-277.777777777778,4,2,1,18,0,0
102605,-277.777777777778,4,2,1,5,0,0
103660,-277.777777777778,4,2,1,18,0,0
103777,-277.777777777778,4,2,1,5,0,0
104363,-277.777777777778,4,2,1,18,0,0
104480,-277.777777777778,4,2,1,5,0,0
105066,-277.777777777778,4,2,1,18,0,0
105183,-277.777777777778,4,2,1,5,0,0
105535,-277.777777777778,4,2,1,18,0,0
105652,-277.777777777778,4,2,1,5,0,0
106238,-277.777777777778,4,2,1,18,0,0
106355,-277.777777777778,4,2,1,5,0,0
107410,-277.777777777778,4,2,1,18,0,0
107527,-277.777777777778,4,2,1,5,0,0
108113,-277.777777777778,4,2,1,18,0,0
108230,-277.777777777778,4,2,1,5,0,0
109285,-277.777777777778,4,2,1,18,0,0
109402,-277.777777777778,4,2,1,5,0,0
109988,-277.777777777778,4,2,1,18,0,0
110105,-277.777777777778,4,2,1,5,0,0
111160,-277.777777777778,4,2,1,18,0,0
111277,-277.777777777778,4,2,1,5,0,0
111863,-277.777777777778,4,2,1,18,0,0
111980,-277.777777777778,4,2,1,5,0,0
112566,-277.777777777778,4,2,1,26,0,0
112683,-277.777777777778,4,2,1,5,0,0
113035,-100,4,2,0,68,0,0
128035,-125,4,2,0,68,0,0
143035,-100,4,2,0,68,0,0
173035,-166.666666666667,4,2,0,68,0,0
181472,-166.666666666667,4,2,0,73,0,0
182410,-133.333333333333,4,2,0,78,0,0
183347,-133.333333333333,4,2,0,83,0,0
184285,-111.111111111111,4,2,0,88,0,0
185222,-111.111111111111,4,2,0,93,0,0
186160,-95.2380952380952,4,2,0,98,0,0
187097,-95.2380952380952,4,2,0,100,0,0
188035,-166.666666666667,4,2,0,48,0,0
189910,-100,4,2,0,100,0,1
203503,-100,4,2,0,68,0,1
203972,-100,4,2,0,100,0,1
218503,-100,4,2,0,68,0,1
219910,-100,4,2,0,68,0,0
222253,-100,4,2,0,68,0,0
223660,-100,4,2,0,68,0,1
227410,-100,4,2,0,68,0,0
230222,-100,4,2,0,68,0,1
232917,-100,4,2,0,68,0,0
233503,-100,4,2,0,28,0,0

[Colours]
Combo1 : 191,63,0
Combo2 : 185,220,255
Combo3 : 0,64,128
Combo4 : 255,238,185
Combo5 : 255,192,0
Combo6 : 208,208,232
Combo7 : 49,49,100
Combo8 : 255,207,185

[HitObjects]
114,190,535,6,0,L|134:104,1,80,4|0,3:2|0:0,0:0:0:0:
224,92,1003,1,2,3:2:0:0:
224,92,1120,1,0,0:0:0:0:
224,92,1238,1,0,0:0:0:0:
224,92,1355,1,0,0:0:0:0:
224,92,1472,2,0,L|289:32,1,80,2|2,3:2|0:0,0:0:0:0:
299,44,1824,1,2,0:0:0:0:
397,83,2058,1,0,0:0:0:0:
397,83,2176,1,2,0:0:0:0:
397,83,2293,1,0,0:0:0:0:
397,83,2410,6,0,L|484:72,1,80,2|0,3:2|0:0,0:0:0:0:
512,176,2878,1,2,3:2:0:0:
512,176,2996,1,0,0:0:0:0:
512,176,3113,1,0,0:0:0:0:
512,176,3230,1,0,0:0:0:0:
512,176,3347,2,0,L|438:225,1,80,2|2,3:2|0:0,0:0:0:0:
416,209,3698,1,2,0:0:0:0:
368,306,3932,1,0,0:0:0:0:
368,306,4050,1,2,0:0:0:0:
368,306,4167,1,0,0:0:0:0:
368,306,4284,6,0,L|279:304,1,80,2|0,3:2|0:0,0:0:0:0:
190,360,4753,1,2,3:2:0:0:
190,360,4871,1,0,0:0:0:0:
190,360,4988,1,0,0:0:0:0:
190,360,5105,1,0,0:0:0:0:
190,360,5222,2,0,L|118:308,1,80,2|2,3:2|0:0,0:0:0:0:
131,297,5574,1,2,0:0:0:0:
91,384,5808,1,0,0:0:0:0:
91,384,5925,1,2,0:0:0:0:
91,384,6042,1,0,0:0:0:0:
91,384,6160,6,0,L|108:214,1,160,6|0,3:2|3:0,0:0:0:0:
95,220,6745,1,0,0:0:0:0:
83,215,6863,1,0,0:0:0:0:
71,211,6980,1,0,0:0:0:0:
60,205,7097,6,0,L|49:94,1,80,6|0,3:2|0:0,0:0:0:0:
97,0,7566,5,0,3:0:0:0:
98,7,7683,1,0,3:0:0:0:
99,14,7800,1,8,3:0:0:0:
101,21,7917,1,8,3:0:0:0:
102,26,8035,6,2,P|140:19|138:63,1,89.9999972534181,0|0,0:0|0:0,0:1:0:0:
159,69,8503,6,0,L|145:219,1,150,6|0,3:2|0:0,0:0:0:0:
201,270,8972,2,0,B|184:290|184:290|98:308,1,100,2|2,3:2|0:0,0:0:0:0:
287,170,9441,6,0,L|273:320,1,150,6|0,3:2|0:0,0:0:0:0:
292,312,9910,2,0,B|309:332|309:332|395:350,1,100,2|2,3:2|0:0,0:0:0:0:
509,308,10378,1,2,3:2:0:0:
510,317,10495,1,0,0:0:0:0:
511,326,10613,1,0,0:0:0:0:
512,335,10730,1,0,0:0:0:0:
512,344,10847,6,0,P|527:279|447:231,1,150,6|0,3:2|0:0,0:0:0:0:
442,157,11316,2,0,P|426:92|506:44,1,150,6|0,3:2|0:0,0:0:0:0:
477,61,11785,6,0,B|458:76|458:76|322:67,1,150,4|0,0:0|0:0,0:0:0:0:
323,50,12253,1,2,3:2:0:0:
221,105,12488,1,2,0:0:0:0:
217,119,12605,1,2,0:0:0:0:
212,133,12722,2,0,L|131:148,1,50,2|0,3:2|0:0,0:0:0:0:
138,122,12956,2,0,L|123:41,1,50,2|0,3:2|0:0,0:0:0:0:
58,93,13191,1,2,3:2:0:0:
58,93,13308,1,0,0:0:0:0:
58,93,13425,1,0,0:0:0:0:
58,93,13542,1,0,0:0:0:0:
58,93,13660,6,0,L|93:271,1,150,6|0,3:2|0:0,0:0:0:0:
110,239,14128,2,0,P|115:288|84:325,1,100,8|0,3:0|0:0,0:0:0:0:
212,230,14597,6,0,P|223:208|246:199,1,50,6|0,3:2|0:0,0:0:0:0:
343,300,14949,2,0,P|332:322|309:331,1,50,2|0,0:0|0:0,0:0:0:0:
206,214,15300,2,0,P|258:187|304:225,1,100,2|6,0:0|3:2,0:0:0:0:
14,367,19285,6,0,P|66:334|73:305,1,80,4|0,0:0|0:0,0:0:0:0:
144,326,19988,1,0,0:0:0:0:
217,337,20222,2,0,L|272:341,1,40,2|2,0:0|0:0,0:0:0:0:
337,258,20691,2,0,L|264:263,2,60
399,371,21863,1,2,0:0:0:0:
411,380,22097,2,0,P|431:364|442:344,1,40
497,272,22566,6,0,L|494:221,1,40,2|0,0:0|0:0,0:0:0:0:
425,152,23035,2,0,L|432:93,2,60
389,24,24206,2,0,L|469:15,1,80,2|2,0:0|0:0,0:0:0:0:
283,141,25144,1,0,0:0:0:0:
216,68,25378,1,0,0:0:0:0:
272,114,25613,2,0,L|219:103,1,40,2|0,0:0|0:0,0:0:0:0:
128,176,26081,2,0,L|167:167,2,40,0|2|0,0:0|0:0|0:0,0:0:0:0:
23,117,26785,6,0,P|22:81|64:47,1,80,2|0,0:0|0:0,0:0:0:0:
131,50,27488,1,0,0:0:0:0:
53,39,27722,2,0,L|39:-4,1,40,2|0,0:0|0:0,0:0:0:0:
128,65,28191,2,0,L|197:77,2,60,2|0|0,0:0|0:0|0:0,0:0:0:0:
24,165,29363,1,0,0:0:0:0:
32,171,29597,2,0,P|58:160|78:142,1,40
133,189,30066,2,0,L|139:229,1,40,2|0,0:0|0:0,0:0:0:0:
91,306,30535,6,0,P|131:306|179:374,1,120
253,343,31472,2,0,L|304:357,2,40,0|0|2,0:0|0:0|0:0,0:0:0:0:
169,376,32175,5,0,0:0:0:0:
263,358,32644,5,2,0:0:0:0:
356,337,33113,5,2,0:0:0:0:
424,373,33347,2,0,P|443:348|441:305,1,60,8|8,3:0|3:0,0:0:0:0:
463,306,33816,2,0,P|444:281|446:238,1,60,8|8,3:0|3:0,0:0:0:0:
491,192,34285,6,0,B|479:162|479:162|342:137,1,150,6|0,3:2|0:0,0:0:0:0:
326,208,34753,2,0,L|211:226,1,100,2|0,1:2|0:0,0:0:0:0:
226,203,35105,2,0,P|189:171|143:183,1,100
108,247,35456,1,0,0:0:0:0:
108,247,35574,1,0,0:0:0:0:
108,247,35691,2,0,P|61:258|25:227,1,100,2|0,1:2|0:0,0:0:0:0:
35,207,36042,2,0,L|30:95,1,100,2|0,0:0|0:0,0:0:0:0:
31,35,36394,1,0,0:0:0:0:
31,35,36511,1,0,0:0:0:0:
31,35,36628,5,2,1:2:0:0:
129,53,36863,1,0,0:0:0:0:
242,80,37097,1,2,3:2:0:0:
242,80,37214,1,0,0:0:0:0:
242,80,37331,1,2,0:0:0:0:
242,80,37449,1,2,0:0:0:0:
242,80,37566,2,0,P|298:51|293:-16,1,100,0|0,1:2|0:0,0:0:0:0:
436,4,38035,6,0,B|463:24|463:24|487:154,2,150,6|0|0,3:2|0:0|0:0,0:0:0:0:
423,243,38972,2,0,B|396:223|396:223|372:93,1,150,6|0,3:2|0:0,0:0:0:0:
359,98,39441,2,0,P|311:136|318:184,1,100,2|2,1:2|0:0,0:0:0:0:
464,177,39910,2,0,B|491:197|491:197|515:327,1,150,6|0,3:2|0:0,0:0:0:0:
495,312,40378,1,0,1:0:0:0:
398,340,40613,1,0,0:0:0:0:
300,362,40847,2,0,P|271:301|293:265,1,100,6|0,3:2|0:0,0:0:0:0:
150,297,41316,2,0,P|179:337|168:384,1,100,6|0,1:2|0:0,0:0:0:0:
0,211,41785,6,0,B|115:195|115:195|168:219,1,150,6|0,3:2|0:0,0:0:0:0:
123,224,42253,2,0,B|94:208|94:208|78:132,1,100,0|0,1:0|0:0,0:0:0:0:
18,11,42722,1,0,3:0:0:0:
14,30,42839,1,0,0:0:0:0:
11,49,42956,1,0,0:0:0:0:
9,69,43074,1,0,0:0:0:0:
19,85,43191,1,0,1:0:0:0:
116,64,43425,1,0,0:0:0:0:
212,36,43660,5,2,3:2:0:0:
221,47,43777,1,0,0:0:0:0:
228,60,43894,1,2,0:0:0:0:
232,74,44011,1,2,0:0:0:0:
235,88,44128,2,0,L|342:105,1,100,0|0,1:0|0:0,0:0:0:0:
416,0,44597,6,0,P|458:50|417:129,1,150,6|0,3:2|0:0,0:0:0:0:
352,127,45066,2,0,B|336:148|336:148|316:262,1,100,6|0,1:2|0:0,0:0:0:0:
512,268,45535,6,0,P|449:283|434:377,1,150,6|0,3:2|0:0,0:0:0:0:
411,344,46003,2,0,L|287:325,1,100,2|2,1:2|0:0,1:0:0:0:
285,314,46355,1,2,0:0:0:0:
258,299,46472,2,0,P|201:336|145:312,2,100,0|0|0,3:0|0:0|1:0,0:0:0:0:
56,268,47175,6,0,L|91:72,1,200
28,6,47878,1,0,1:0:0:0:
324,57,48347,2,0,L|289:253,1,200,4|6,0:0|1:2,0:0:0:0:
289,253,49285,5,0,3:0:0:0:
320,334,49753,1,0,0:0:0:0:
343,344,49988,1,0,0:0:0:0:
339,322,50222,2,0,P|288:302|211:296,1,119.999996337891,0|0,1:0|0:0,0:0:0:0:
136,368,51160,2,0,P|188:338|246:323,2,119.999996337891,0|0|0,0:0|3:0|1:0,0:0:0:0:
60,313,52566,1,0,0:0:0:0:
0,384,53035,5,0,3:0:0:0:
79,313,53503,2,0,P|96:278|100:187,2,119.999996337891,0|0|0,0:0|1:0|0:0,0:0:0:0:
176,176,54910,2,0,P|169:137|120:60,1,119.999996337891,0|0,0:0|3:0,0:0:0:0:
320,0,55847,2,0,P|287:48|273:107,1,119.999996337891,0|0,1:0|0:0,0:0:0:0:
364,188,56785,5,6,3:2:0:0:
463,212,57253,1,2,3:2:0:0:
226,283,57722,1,2,3:2:0:0:
325,259,58190,1,0,3:0:0:0:
163,170,58660,5,6,3:2:0:0:
64,146,59128,1,2,3:2:0:0:
235,121,59597,1,2,3:2:0:0:
334,97,60065,1,2,3:2:0:0:
48,32,60535,5,6,3:2:0:0:
147,56,61003,1,2,3:2:0:0:
381,5,61472,1,2,3:2:0:0:
282,29,61940,1,2,3:2:0:0:
219,168,62410,6,0,L|121:222,2,89.9999972534181,0|0|0,3:0|0:0|0:0,0:0:0:0:
288,208,63347,2,0,L|315:155,1,59.9999981689454,8|0,3:0|1:0,0:0:0:0:
308,138,63699,1,0,3:0:0:0:
330,117,63816,2,0,L|320:57,1,59.9999981689454,8|8,3:0|3:0,0:0:0:0:
305,49,64167,1,0,3:0:0:0:
305,23,64285,6,0,P|238:3|180:82,1,150,4|0,3:2|0:0,0:0:0:0:
125,99,64753,2,0,B|110:113|110:113|15:97,1,100,2|2,1:2|0:0,0:0:0:0:
110,24,65222,1,2,3:2:0:0:
207,133,65456,1,2,0:0:0:0:
207,133,65574,2,0,L|353:163,1,150,2|2,0:0|0:0,0:0:0:0:
403,263,66160,1,2,3:2:0:0:
315,330,66394,1,2,0:0:0:0:
315,330,66512,2,0,L|168:299,1,150,2|2,0:0|0:0,0:0:0:0:
46,384,67097,6,0,L|61:310,1,50,2|2,3:2|0:0,0:0:0:0:
38,314,67331,2,0,L|22:240,1,50,2|2,0:0|0:0,0:0:0:0:
44,250,67566,2,0,P|85:203|150:224,1,100,2|2,1:2|0:0,0:0:0:0:
374,248,68035,6,0,B|405:232|405:232|451:59,1,200,6|2,3:2|1:2,0:0:0:0:
215,31,68855,5,2,0:0:0:0:
215,31,68972,2,0,B|246:47|246:47|292:220,1,200,6|2,3:2|1:2,0:0:0:0:
42,256,69792,5,2,0:0:0:0:
42,256,69910,2,0,B|73:240|73:240|119:67,1,200,6|2,3:2|1:2,0:0:0:0:
59,265,70847,6,0,P|120:233|121:189,1,100,6|0,3:2|0:0,0:0:0:0:
65,139,71316,2,0,P|4:171|3:215,1,100,6|0,1:2|0:0,0:0:0:0:
0,335,71785,6,0,B|27:363|27:363|166:372,1,150,6|0,3:2|0:0,0:0:0:0:
209,333,72253,2,0,P|251:292|311:301,1,100,2|2,1:2|0:0,0:0:0:0:
396,319,72722,1,2,0:0:0:0:
501,348,72956,1,2,0:0:0:0:
501,348,73074,2,0,B|478:330|478:330|468:196,1,150,2|2,0:0|0:0,0:0:0:0:
512,93,73660,6,0,P|470:52|410:61,1,100,2|0,3:2|0:0,0:0:0:0:
321,6,74128,1,0,1:0:0:0:
305,25,74245,1,0,0:0:0:0:
284,39,74363,1,2,0:0:0:0:
260,48,74480,1,0,0:0:0:0:
235,50,74597,2,0,B|157:42|157:42|124:65,1,100,6|0,3:2|0:0,0:0:0:0:
174,127,74949,1,0,0:0:0:0:
174,127,75066,2,0,B|143:148|143:148|6:134,1,150,6|0,1:2|0:0,0:0:0:0:
22,125,75535,6,0,P|-10:182|40:257,1,150,6|0,3:2|0:0,0:0:0:0:
79,306,76003,2,0,B|93:287|93:287|180:277,1,100,2|0,1:2|0:0,0:0:0:0:
236,331,76355,1,0,0:0:0:0:
236,331,76472,6,0,P|273:269|241:204,2,150,6|2|2,3:2|0:0|0:0,0:0:0:0:
387,384,77410,2,0,L|493:374,1,100,6|0,3:2|0:0,0:0:0:0:
390,370,77878,6,0,B|367:337|367:337|394:214,1,150,2|0,1:2|0:0,0:0:0:0:
445,176,78347,2,0,L|409:8,2,150,6|2|2,3:2|0:0|0:0,0:0:0:0:
307,219,79285,5,8,3:0:0:0:
305,233,79402,1,8,3:0:0:0:
303,247,79519,1,8,3:0:0:0:
301,261,79636,1,8,3:0:0:0:
298,275,79753,6,0,P|242:253|236:212,1,100,2|2,1:2|0:0,0:0:0:0:
139,165,80222,1,2,3:2:0:0:
5,257,80456,1,2,0:0:0:0:
5,257,80574,2,0,L|171:239,1,150,2|2,0:0|0:0,0:0:0:0:
221,138,81160,5,0,3:0:0:0:
353,46,81393,1,2,0:0:0:0:
353,46,81511,2,0,L|186:63,1,150,2|2,0:0|0:0,0:0:0:0:
357,185,82097,2,0,P|400:141|400:98,1,100,2|2,3:2|0:0,0:0:0:0:
432,227,82566,2,0,P|439:275|477:307,1,100,2|2,1:2|0:0,0:0:0:0:
478,321,82917,1,2,0:0:0:0:
480,335,83035,6,0,B|442:362|442:362|283:352,1,200,6|2,3:2|1:2,0:0:0:0:
44,292,83855,5,2,0:0:0:0:
44,292,83972,2,0,B|81:264|81:264|240:274,1,200,6|2,3:2|1:2,0:0:0:0:
450,165,84792,5,2,0:0:0:0:
450,165,84910,2,0,B|412:192|412:192|253:182,1,200,6|2,3:2|1:2,0:0:0:0:
44,16,85847,6,0,P|7:67|19:116,1,100,6|2,3:2|0:0,0:0:0:0:
106,129,86316,2,0,P|143:78|131:29,1,100,6|2,1:2|0:0,0:0:0:0:
0,219,86785,6,0,L|174:204,1,150,6|0,3:2|0:0,0:0:0:0:
202,265,87253,2,0,P|239:316|227:365,1,100,2|2,1:2|0:0,0:0:0:0:
272,214,87722,2,0,L|259:148,1,50,2|2,0:0|0:0,0:0:0:0:
232,146,87956,2,0,L|245:80,1,50,2|0,0:0|0:0,0:0:0:0:
264,78,88191,2,0,B|271:56|271:56|360:37,1,100,2|2,1:2|0:0,0:0:0:0:
468,4,88660,5,2,3:2:0:0:
452,23,88777,1,2,0:0:0:0:
441,45,88894,1,2,0:0:0:0:
436,69,89011,1,2,0:0:0:0:
436,93,89128,2,0,P|463:136|467:194,1,100,2|2,1:2|0:0,0:0:0:0:
491,319,89597,6,0,P|426:290|387:310,1,100,6|0,3:2|0:0,0:0:0:0:
334,333,89949,2,0,P|269:362|230:342,1,100,2|0,3:2|0:0,0:0:0:0:
213,281,90300,2,0,P|171:262|146:275,1,50,2|0,3:2|0:0,0:0:0:0:
116,323,90535,6,0,L|-23:342,1,100,6|0,3:2|0:0,0:0:0:0:
108,210,91003,2,0,B|127:186|127:186|120:84,1,100,0|2,1:0|0:0,0:0:0:0:
98,107,91355,1,2,0:0:0:0:
74,98,91472,1,0,3:0:0:0:
221,0,91706,2,0,P|185:49|200:97,2,100,2|2|2,0:0|1:2|0:0,0:0:0:0:
290,39,92292,1,2,0:0:0:0:
290,39,92410,6,0,L|397:49,1,100,6|0,3:2|0:0,0:0:0:0:
512,0,92878,2,0,B|482:20|482:20|493:152,1,150,2|0,1:2|0:0,0:0:0:0:
440,193,93347,2,0,P|476:238|454:337,2,150,6|2|2,3:2|0:0|0:0,0:0:0:0:
353,167,94285,5,8,3:0:0:0:
201,192,96628,5,2,0:0:0:0:
283,144,97096,1,2,0:0:0:0:
283,239,97448,1,0,0:0:0:0:
270,214,97800,1,0,0:0:0:0:
257,192,98035,6,0,B|265:180|328:208|281:252,1,90.0000021972657,8|0,0:3|0:0,0:0:0:0:
284,248,98738,2,0,B|256:259|243:256|228:222,1,72.0000017578125,4|0,0:3|0:0,0:0:0:0:
228,222,99910,6,0,B|220:207|220:189|236:168|282:154,1,90.0000021972657,8|0,0:3|0:0,0:0:0:0:
272,157,100613,2,0,B|320:169|331:176|339:199,1,72.0000017578125,4|0,0:3|0:0,0:0:0:0:
334,188,101785,2,0,B|360:204|360:227|354:243|326:260,1,90.0000021972657,8|0,0:3|0:0,0:0:0:0:
327,259,102488,2,0,B|302:275|291:277|256:282,1,72.0000017578125,4|0,0:3|0:0,0:0:0:0:
259,281,103660,6,0,B|212:266|203:256|193:217,1,90.0000021972657,8|0,0:3|0:0,0:0:0:0:
195,224,104363,2,0,B|192:174|195:159|205:136,1,90.0000021972657,4|0,0:3|0:0,0:0:0:0:
204,136,105066,2,0,B|232:120|238:120|262:143,1,54.0000013183594,2|0,0:0|0:0,0:0:0:0:
253,135,105535,6,0,B|222:150|211:162|196:205,1,90.0000021972657,8|0,0:3|0:0,0:0:0:0:
197,201,106238,2,0,B|194:237|226:251|239:260,1,72.0000017578125,4|0,0:3|0:0,0:0:0:0:
235,257,107410,6,0,B|226:262|230:272|297:281|336:256|293:264,1,90.0000021972657,8|0,0:3|0:0,0:0:0:0:
304,262,108113,2,0,B|330:240|326:235|323:190,1,72.0000017578125,4|0,0:3|0:0,0:0:0:0:
323,197,109285,6,0,B|308:175|296:165|239:158,1,90.0000021972657,8|0,0:3|0:0,0:0:0:0:
245,158,109988,2,0,B|223:170|218:183|217:206,1,54.0000013183594,4|0,0:3|0:0,0:0:0:0:
217,201,111160,6,0,B|232:220|248:226|298:164,1,90.0000021972657,8|0,0:3|0:0,0:0:0:0:
288,175,111863,2,0,B|270:160|250:171|225:234,1,90.0000021972657,4|0,0:3|0:0,0:0:0:0:
229,224,112566,2,0,B|246:220|256:212|253:184,1,36.0000008789063,2|0,0:0|0:0,0:0:0:0:
302,293,113035,5,6,3:2:0:0:
302,293,113152,2,0,L|408:281,1,100,2|2,0:0|0:0,0:0:0:0:
420,296,113503,2,0,B|448:277|448:277|460:189,1,100,0|2,0:0|0:0,0:0:0:0:
512,110,113972,1,2,3:2:0:0:
512,110,114089,2,0,L|406:98,1,100,2|2,0:0|0:0,0:0:0:0:
394,113,114441,2,0,B|366:94|366:94|354:6,1,100,0|2,0:0|0:0,0:0:0:0:
215,0,114910,5,2,3:2:0:0:
215,0,115027,2,0,P|159:37|163:81,1,100,2|2,0:0|0:0,0:0:0:0:
172,81,115378,2,0,L|272:93,1,100,0|2,0:0|0:0,0:0:0:0:
342,187,115847,1,2,3:2:0:0:
242,199,116081,1,2,0:0:0:0:
142,210,116316,1,2,3:2:0:0:
43,224,116550,1,2,0:0:0:0:
0,118,116785,5,2,3:2:0:0:
0,118,116902,2,0,B|17:107|17:107|120:123,1,100,2|2,0:0|0:0,0:0:0:0:
95,98,117253,2,0,P|117:50|75:5,1,100,0|2,0:0|0:0,0:0:0:0:
256,0,117722,1,2,3:2:0:0:
256,0,117839,2,0,P|233:42|255:85,1,100,2|2,0:0|0:0,0:0:0:0:
277,79,118191,2,0,B|294:90|294:90|397:74,1,100,0|2,0:0|0:0,0:0:0:0:
499,134,118660,6,0,L|515:14,2,100,2|0|2,3:2|0:0|3:2,0:0:0:0:
391,207,119363,1,2,0:0:0:0:
471,308,119597,2,0,P|422:341|366:299,1,100,2|2,3:2|0:0,0:0:0:0:
377,313,119949,1,0,0:0:0:0:
367,295,120066,2,0,P|318:261|262:303,1,100,2|2,3:2|0:0,0:0:0:0:
221,369,120535,5,2,3:2:0:0:
221,369,120652,2,0,L|101:380,1,100,2|2,0:0|0:0,0:0:0:0:
127,354,121003,2,0,L|7:365,1,100,0|2,0:0|0:0,0:0:0:0:
0,220,121472,1,2,3:2:0:0:
0,220,121589,2,0,L|120:231,1,100,2|2,0:0|0:0,0:0:0:0:
96,209,121941,2,0,B|114:198|114:198|226:207,1,100,0|2,0:0|0:0,0:0:0:0:
313,208,122410,5,2,3:2:0:0:
313,208,122527,2,0,B|331:219|331:219|443:210,1,100,2|2,0:0|0:0,0:0:0:0:
401,185,122878,2,0,L|521:174,1,100,0|2,0:0|0:0,0:0:0:0:
341,123,123347,1,2,3:2:0:0:
341,123,123464,2,0,L|350:23,1,100,2|2,0:0|0:0,0:0:0:0:
330,32,123816,2,0,P|280:-5|229:12,1,100,0|2,0:0|0:0,0:0:0:0:
143,89,124285,6,0,L|26:97,1,100,2|0,3:2|0:0,0:0:0:0:
30,117,124636,1,0,0:0:0:0:
16,137,124753,2,0,L|115:130,1,100,2|0,3:2|0:0,0:0:0:0:
195,215,125222,1,2,3:2:0:0:
294,226,125456,1,0,0:0:0:0:
393,238,125691,1,2,3:2:0:0:
492,246,125925,1,2,0:0:0:0:
494,255,126042,1,0,0:0:0:0:
497,264,126160,6,0,P|439:217|490:115,1,200,2|2,3:2|3:2,0:0:0:0:
506,19,126863,1,0,0:0:0:0:
465,103,127097,2,0,L|341:111,1,100,2|2,3:2|0:0,0:0:0:0:
226,39,127566,2,0,B|216:25|216:25|108:14,1,100,6|2,1:2|0:0,0:0:0:0:
13,63,128035,6,0,P|-1:124|37:152,1,80,2|0,3:2|0:0,0:0:0:0:
94,185,128503,2,0,L|194:178,1,80,2|0,3:2|0:0,0:0:0:0:
185,195,128855,1,0,0:0:0:0:
196,211,128972,2,0,L|296:218,1,80,2|2,3:2|0:0,0:0:0:0:
289,201,129324,1,2,0:0:0:0:
173,306,129558,1,0,0:0:0:0:
173,306,129675,1,2,0:0:0:0:
173,306,129792,1,0,0:0:0:0:
173,306,129910,6,0,L|273:313,1,80,2|0,3:2|0:0,0:0:0:0:
339,373,130378,2,0,L|432:337,1,80,2|0,3:2|0:0,0:0:0:0:
415,324,130730,1,0,0:0:0:0:
416,304,130847,2,0,L|509:268,1,80,2|2,3:2|0:0,0:0:0:0:
492,255,131199,1,2,0:0:0:0:
512,140,131433,1,0,0:0:0:0:
512,140,131550,1,2,0:0:0:0:
512,140,131667,1,0,0:0:0:0:
512,140,131785,6,0,L|437:168,1,80,2|0,3:2|0:0,0:0:0:0:
346,132,132253,2,0,P|347:73|384:52,1,80,2|0,3:2|0:0,0:0:0:0:
345,46,132605,1,0,0:0:0:0:
328,34,132722,2,0,L|221:15,1,80,2|2,3:2|0:0,0:0:0:0:
235,34,133074,1,2,0:0:0:0:
71,32,133308,1,0,0:0:0:0:
71,32,133425,1,2,0:0:0:0:
71,32,133542,1,0,0:0:0:0:
71,32,133660,6,0,L|84:207,1,160,6|2,3:2|3:2,0:0:0:0:
101,197,134245,1,0,0:0:0:0:
119,203,134363,1,0,0:0:0:0:
138,208,134480,1,0,0:0:0:0:
156,215,134597,2,0,L|149:302,1,80,6|0,3:2|0:0,0:0:0:0:
22,384,135066,1,8,3:0:0:0:
22,384,135183,1,0,3:0:0:0:
22,384,135300,1,8,3:0:0:0:
22,384,135417,1,8,3:0:0:0:
22,384,135535,6,0,B|31:372|31:372|190:364,1,160,6|0,1:2|1:0,0:0:0:0:
359,326,136472,2,0,B|368:338|368:338|527:346,1,160,0|0,1:0|1:0,0:0:0:0:
512,174,137410,2,0,B|503:162|503:162|344:154,1,160,0|0,1:0|1:0,0:0:0:0:
169,229,138347,2,0,B|156:243|156:243|75:249,1,80,6|0,1:2|0:0,0:0:0:0:
29,163,138816,2,0,B|42:149|42:149|123:143,1,80,6|0,1:2|0:0,0:0:0:0:
173,57,139285,5,6,1:2:0:0:
238,133,139519,1,0,1:0:0:0:
345,72,139753,1,0,1:0:0:0:
269,137,139987,1,0,1:0:0:0:
328,250,140222,1,0,1:0:0:0:
263,174,140456,1,0,1:0:0:0:
156,235,140690,1,0,1:0:0:0:
232,170,140924,1,0,1:0:0:0:
319,268,141160,6,0,L|410:281,1,80,6|0,1:2|1:0,0:0:0:0:
502,259,141628,2,0,P|514:230|507:211,1,40
476,187,141863,2,0,P|476:167|486:150,1,40
462,119,142097,6,0,L|382:130,1,80,6|0,1:2|1:0,0:0:0:0:
269,32,142566,1,0,0:0:0:0:
288,37,142683,1,8,3:0:0:0:
307,42,142800,1,8,3:0:0:0:
307,42,143035,6,0,B|296:73|296:73|160:93,1,150,4|0,3:0|0:0,0:0:0:0:
129,33,143503,1,0,1:0:0:0:
58,172,143855,1,0,3:0:0:0:
79,50,144206,2,0,L|113:161,2,100,0|2|0,3:0|1:2|0:0,0:0:0:0:
192,192,144910,5,2,3:2:0:0:
192,192,145027,1,0,0:0:0:0:
192,192,145144,1,2,0:0:0:0:
192,192,145261,1,2,0:0:0:0:
192,192,145378,2,0,P|244:159|297:159,1,100,0|2,1:0|0:0,0:0:0:0:
338,205,145730,2,0,P|376:259|460:281,1,150,2|2,3:2|3:2,0:0:0:0:
434,141,146316,2,0,P|485:174|508:222,1,100,0|2,1:0|3:2,0:0:0:0:
416,146,146785,6,0,B|401:121|401:121|424:32,1,100,2|2,3:2|0:0,0:0:0:0:
418,52,147136,1,2,0:0:0:0:
418,52,147253,1,0,1:0:0:0:
294,9,147488,1,2,0:0:0:0:
294,9,147605,2,0,B|308:138|308:138|280:168,1,150,2|2,3:2|3:2,0:0:0:0:
166,162,148191,2,0,L|102:147,1,50,2|0,1:2|0:0,0:0:0:0:
97,168,148425,2,0,L|33:183,1,50,2|2,0:0|0:0,0:0:0:0:
23,160,148660,6,0,B|5:169|5:169|29:308,1,150,2|0,3:2|0:0,0:0:0:0:
12,324,149128,1,0,1:0:0:0:
144,350,149363,1,0,3:0:0:0:
278,366,149597,2,0,P|313:310|277:223,2,150,2|2|2,1:2|1:2|1:2,0:0:0:0:
153,330,150535,6,0,L|-2:338,1,150,4|0,3:0|0:0,0:0:0:0:
16,358,151003,1,0,1:0:0:0:
69,206,151355,1,0,3:0:0:0:
242,245,151706,2,0,L|111:251,2,100,0|0|2,3:0|1:0|0:0,0:0:0:0:
322,149,152410,5,2,3:2:0:0:
322,149,152527,1,0,0:0:0:0:
322,149,152644,1,2,0:0:0:0:
322,149,152761,2,0,P|287:101|330:2,1,150,2|2,0:0|0:0,0:0:0:0:
387,12,153230,2,0,P|422:60|379:159,1,150,2|2,3:2|3:2,0:0:0:0:
512,249,153816,2,0,B|504:230|504:230|407:215,1,100,0|0,1:0|3:0,0:0:0:0:
297,336,154285,6,0,B|289:355|289:355|192:370,1,100,0|2,3:0|0:0,0:0:0:0:
208,362,154636,1,2,0:0:0:0:
205,357,154753,1,0,1:0:0:0:
92,296,154988,1,2,0:0:0:0:
92,296,155105,2,0,L|107:138,1,150,4|2,3:0|3:2,0:0:0:0:
8,42,155691,2,0,L|73:56,1,50,2|0,1:2|0:0,0:0:0:0:
75,71,155925,2,0,L|140:57,1,50,2|2,0:0|0:0,0:0:0:0:
141,35,156160,6,0,B|269:56|269:56|302:29,1,150,4|0,3:0|0:0,0:0:0:0:
288,16,156628,1,0,1:0:0:0:
322,121,156863,1,2,3:2:0:0:
358,224,157097,2,0,P|418:175|527:198,2,150,2|2|2,1:2|1:2|1:2,0:0:0:0:
253,366,158035,6,0,B|255:341|255:341|170:305|170:305|140:329,1,150,4|0,3:0|0:0,0:0:0:0:
86,377,158503,2,0,B|62:363|62:363|72:282,1,100,2|2,1:2|0:0,0:0:0:0:
91,272,158855,2,0,L|68:109,1,150,2|2,3:2|3:2,0:0:0:0:
200,0,159441,2,0,P|161:33|167:101,1,100,2|2,1:2|0:0,0:0:0:0:
278,146,159910,5,0,3:0:0:0:
367,218,160144,2,0,L|416:223,1,50,2|2,0:0|0:0,0:0:0:0:
440,205,160378,2,0,P|479:172|473:104,1,100,2|2,1:2|0:0,0:0:0:0:
512,53,160730,2,0,B|494:32|494:32|352:56,1,150,2|2,3:2|3:2,0:0:0:0:
271,23,161316,1,2,1:2:0:0:
255,121,161550,1,2,3:2:0:0:
236,219,161785,5,2,3:2:0:0:
164,289,162019,2,0,L|51:311,2,100,2|2|2,0:0|1:2|0:0,0:0:0:0:
182,277,162605,2,0,P|217:336|187:370,1,100,0|0,3:0|0:0,0:0:0:0:
225,373,162956,2,0,L|324:354,2,100,0|2|2,3:0|1:2|0:0,0:0:0:0:
32,344,163660,6,0,B|1:322|1:322|10:221|10:221|52:199,1,150,2|0,3:2|0:0,0:0:0:0:
28,221,164128,1,2,1:2:0:0:
34,228,164245,1,0,0:0:0:0:
41,235,164363,1,0,0:0:0:0:
133,160,164597,1,2,1:2:0:0:
261,200,164831,1,2,3:2:0:0:
261,200,164949,1,0,1:0:0:0:
369,127,165183,1,0,3:0:0:0:
369,127,165300,1,2,1:2:0:0:
480,194,165535,6,0,B|497:183|497:183|514:37,1,150,4|0,3:0|0:0,0:0:0:0:
457,0,166003,2,0,P|399:2|371:43,1,100,2|2,1:2|0:0,0:0:0:0:
349,31,166355,2,0,P|303:77|221:47,1,150,2|2,3:2|3:2,0:0:0:0:
103,8,166941,2,0,L|-9:-2,1,100,2|2,1:2|0:0,0:0:0:0:
59,182,167410,5,0,3:0:0:0:
171,221,167644,2,0,L|220:216,1,50,2|2,0:0|0:0,0:0:0:0:
251,237,167878,2,0,P|288:185|266:143,1,100,2|2,1:2|0:0,0:0:0:0:
349,118,168230,2,0,B|353:141|353:141|488:173,1,150,2|2,3:2|3:2,0:0:0:0:
512,310,168816,2,0,L|396:282,1,100,2|2,1:2|3:2,0:0:0:0:
262,338,169285,6,0,B|254:359|254:359|150:375,1,100,2|0,3:2|0:0,0:0:0:0:
14,384,169753,2,0,P|1:309|81:248,1,150,2|2,1:2|3:2,0:0:0:0:
124,240,170222,2,0,P|151:200|141:152,1,100,2|2,0:0|3:2,0:0:0:0:
111,156,170574,2,0,P|98:81|178:20,1,150,2|2,0:0|0:0,0:0:0:0:
329,36,171160,6,0,B|319:30|319:30|266:52,1,50,6|0,3:2|0:0,0:0:0:0:
283,174,171628,6,0,B|293:180|293:180|346:158,1,50,4|0,3:0|0:0,0:0:0:0:
324,20,172097,6,0,B|312:20|312:20|281:69,1,50,4|0,3:0|0:0,0:0:0:0:
401,245,172566,6,0,B|412:244|412:244|443:195,1,50,4|0,1:2|0:0,0:0:0:0:
400,361,173035,5,4,0:0:0:0:
400,361,173972,2,0,L|268:371,1,119.999996337891,2|0,0:0|0:0,0:0:0:0:
205,311,174910,2,0,L|73:302,2,119.999996337891,2|2|2,0:0|0:0|0:0,0:0:0:0:
284,243,176316,1,2,0:0:0:0:
270,384,176785,1,0,0:0:0:0:
347,184,177253,6,0,B|360:170|360:170|471:151,2,119.999996337891,2|2|2,0:0|0:0|0:0,0:0:0:0:
225,155,178660,2,0,B|132:127|132:127|122:100,2,119.999996337891,2|2|2,0:0|0:0|0:0,0:0:0:0:
280,261,180066,1,0,0:0:0:0:
196,356,180535,6,0,L|129:392,1,59.9999981689454,4|0,3:2|0:0,0:0:0:0:
143,327,181003,2,0,L|195:355,1,59.9999981689454,2|0,3:2|0:0,0:0:0:0:
196,299,181472,2,0,L|129:335,1,59.9999981689454,2|0,3:2|0:0,0:0:0:0:
143,270,181940,2,0,L|195:298,1,59.9999981689454,2|0,3:2|0:0,0:0:0:0:
375,217,182410,6,0,L|353:289,1,75.0000028610231,6|0,3:2|0:0,0:0:0:0:
303,238,182878,2,0,L|375:216,1,75.0000028610231,2|0,3:2|0:0,0:0:0:0:
324,166,183347,2,0,L|302:238,1,75.0000028610231,2|0,3:2|0:0,0:0:0:0:
253,188,183815,2,0,L|325:166,1,75.0000028610231,2|0,3:2|0:0,0:0:0:0:
110,227,184285,6,0,L|16:215,1,89.9999972534181,6|0,3:2|0:0,0:0:0:0:
69,147,184753,2,0,L|111:231,1,89.9999972534181,2|0,3:2|0:0,0:0:0:0:
158,157,185222,2,0,L|68:146,1,89.9999972534181,2|0,3:2|0:0,0:0:0:0:
117,77,185690,2,0,L|157:157,1,89.9999972534181,2|0,3:2|0:0,0:0:0:0:
454,57,186160,6,0,L|440:169,1,104.999996795654,6|0,3:2|0:0,0:0:0:0:
359,104,186628,2,0,L|459:53,1,104.999996795654,2|0,3:2|0:0,0:0:0:0:
371,0,187097,2,0,L|357:112,1,104.999996795654,2|0,3:2|0:0,0:0:0:0:
277,47,187565,2,0,L|377:-3,1,104.999996795654,0|0,1:0|0:0,0:0:0:0:
297,216,188035,5,2,3:2:0:0:
281,135,188738,5,2,0:0:0:0:
260,48,189441,5,8,3:0:0:0:
254,31,189910,6,0,B|232:34|232:34|198:169,1,150,4|0,3:2|0:0,0:0:0:0:
263,203,190378,2,0,P|279:265|235:295,2,100,2|2|2,1:2|0:0|3:2,0:0:0:0:
313,372,191081,1,2,0:0:0:0:
313,372,191199,2,0,L|145:386,1,150,2|2,0:0|0:0,0:0:0:0:
14,303,191785,5,2,3:2:0:0:
121,286,192018,1,2,0:0:0:0:
121,286,192136,2,0,L|289:300,1,150,2|2,0:0|0:0,0:0:0:0:
402,255,192722,2,0,P|415:201|363:169,1,100,2|2,3:2|0:0,0:0:0:0:
246,206,193191,2,0,P|233:260|285:292,1,100,2|2,1:2|0:0,0:0:0:0:
401,152,193660,6,0,B|382:109|382:109|254:91|254:91|226:119,1,200,4|2,3:2|1:2,0:0:0:0:
148,211,194480,5,2,0:0:0:0:
148,211,194597,2,0,B|167:168|167:168|295:150|295:150|323:178,1,200,4|2,3:2|1:2,0:0:0:0:
385,332,195417,5,2,0:0:0:0:
385,332,195535,2,0,B|366:289|366:289|238:271|238:271|210:299,1,200,4|2,3:2|1:2,0:0:0:0:
1,366,196472,6,0,P|15:298|-17:269,1,100,6|2,3:2|0:0,0:0:0:0:
164,218,196941,2,0,P|113:264|123:307,1,100,6|2,1:2|0:0,0:0:0:0:
276,384,197410,6,0,B|253:363|253:363|239:218,1,150,6|0,3:2|0:0,0:0:0:0:
300,193,197878,2,0,L|321:80,2,100,2|2|2,1:2|0:0|0:0,0:0:0:0:
382,295,198581,1,2,0:0:0:0:
382,295,198699,2,0,B|406:275|406:275|430:131,1,150,2|2,0:0|0:0,0:0:0:0:
512,60,199285,6,0,L|399:44,1,100,2|2,3:2|0:0,0:0:0:0:
295,0,199753,1,0,1:0:0:0:
270,4,199870,1,0,0:0:0:0:
245,8,199988,1,2,0:0:0:0:
220,12,200105,1,0,0:0:0:0:
195,16,200222,2,0,P|164:65|187:117,1,100,6|0,3:2|0:0,0:0:0:0:
254,128,200574,1,0,0:0:0:0:
254,128,200691,2,0,L|79:152,1,150,6|0,1:2|0:0,0:0:0:0:
52,211,201160,6,0,P|20:268|70:343,1,150,6|0,3:2|0:0,0:0:0:0:
62,355,201628,2,0,L|161:369,1,100,2|0,1:2|0:0,0:0:0:0:
226,320,201980,1,0,0:0:0:0:
226,320,202097,2,0,B|350:311|350:311|373:341,2,150,6|2|2,3:2|0:0|0:0,0:0:0:0:
300,220,203035,6,0,P|325:175|285:116,1,100,6|0,3:2|0:0,0:0:0:0:
299,263,203503,2,0,P|261:201|293:136,1,150,2|0,1:2|0:0,0:0:0:0:
363,104,203972,2,0,L|548:92,2,150,6|2|2,3:2|0:0|0:0,0:0:0:0:
305,221,204910,5,8,3:0:0:0:
303,235,205027,1,8,3:0:0:0:
301,249,205144,1,8,3:0:0:0:
299,263,205261,1,8,3:0:0:0:
297,277,205378,6,0,B|281:293|281:293|192:280,1,100,2|2,1:2|0:0,0:0:0:0:
94,344,205847,1,2,3:2:0:0:
21,241,206082,1,2,0:0:0:0:
21,241,206199,2,0,P|104:232|143:171,1,150,2|2,0:0|0:0,0:0:0:0:
227,135,206785,5,2,3:2:0:0:
258,42,207019,1,2,0:0:0:0:
258,42,207136,2,0,P|341:51|380:112,1,150,2|2,0:0|0:0,0:0:0:0:
347,201,207722,2,0,B|369:194|369:194|401:93,1,100,2|2,3:2|0:0,0:0:0:0:
291,293,208191,2,0,B|269:286|269:286|237:185,1,100,2|2,1:2|0:0,0:0:0:0:
260,210,208542,1,0,0:0:0:0:
275,208,208660,6,0,B|256:240|256:240|78:225,1,200,6|2,3:2|1:2,0:0:0:0:
295,327,209480,5,2,0:0:0:0:
295,327,209597,2,0,B|314:295|314:295|492:310,1,200,4|2,3:2|1:2,0:0:0:0:
218,129,210417,5,2,0:0:0:0:
218,129,210535,2,0,B|199:97|199:97|21:112,1,200,6|2,3:2|1:2,0:0:0:0:
300,139,211472,6,0,P|327:85|292:36,1,100,6|2,3:2|0:0,0:0:0:0:
455,188,211941,2,0,P|395:181|360:230,1,100,6|2,1:2|0:0,0:0:0:0:
459,361,212410,6,0,P|403:372|339:273,1,150,6|0,3:2|0:0,0:0:0:0:
274,269,212878,2,0,B|190:279|190:279|174:310,1,100,2|2,1:2|0:0,0:0:0:0:
67,376,213347,2,0,L|54:310,1,50,2|2,0:0|0:0,0:0:0:0:
27,308,213581,2,0,L|40:242,1,50,2|0,0:0|0:0,0:0:0:0:
58,232,213816,2,0,L|36:120,1,100,2|2,1:2|0:0,0:0:0:0:
166,16,214285,5,6,3:2:0:0:
154,38,214402,1,0,0:0:0:0:
151,62,214519,1,2,0:0:0:0:
159,85,214636,1,0,0:0:0:0:
175,103,214753,2,0,P|237:88|292:84,1,100,0|2,1:2|0:0,0:0:0:0:
399,0,215222,6,0,P|370:65|390:104,1,100,6|0,3:2|0:0,0:0:0:0:
451,118,215574,2,0,P|480:183|460:222,1,100,6|0,0:0|0:0,0:0:0:0:
491,280,215925,2,0,P|468:329|484:359,1,50,6|0,0:0|0:0,0:0:0:0:
482,348,216160,6,0,B|471:337|471:337|344:349,1,100,6|0,3:2|0:0,0:0:0:0:
309,213,216628,2,0,B|298:202|298:202|171:214,1,100,0|2,1:0|0:0,0:0:0:0:
209,234,216980,1,2,0:0:0:0:
202,257,217097,1,0,3:0:0:0:
84,374,217331,2,0,P|35:377|0:344,2,100,2|2|2,0:0|1:2|0:0,0:0:0:0:
97,352,217917,1,2,0:0:0:0:
111,331,218035,6,0,L|221:345,1,100,4|0,3:2|0:0,0:0:0:0:
421,367,218503,6,0,P|384:298|425:215,1,150,2|0,1:2|0:0,0:0:0:0:
484,229,218972,2,0,B|501:214|501:214|509:109,1,100,6|0,3:2|0:0,0:0:0:0:
479,137,219324,2,0,B|447:26|447:26|474:-2,1,150,2|2,0:0|0:0,0:0:0:0:
390,145,219910,6,0,P|346:122|299:135,1,100,6|0,3:2|0:0,0:0:0:0:
273,252,220378,1,2,1:2:0:0:
267,238,220495,1,0,0:0:0:0:
260,224,220613,1,2,0:0:0:0:
253,210,220730,1,2,0:0:0:0:
246,196,220847,2,0,P|197:202|166:240,1,100,0|0,3:0|0:0,0:0:0:0:
168,334,221316,1,2,1:2:0:0:
155,325,221433,1,0,0:0:0:0:
141,318,221551,1,2,0:0:0:0:
127,311,221668,1,2,0:0:0:0:
113,303,221785,2,0,P|77:336|73:384,1,100,0|0,3:0|0:0,0:0:0:0:
15,260,222253,6,0,B|40:246|40:246|56:109,1,150,2|0,1:2|0:0,0:0:0:0:
24,51,222722,2,0,P|85:26|130:46,1,100,2|2,3:2|0:0,0:0:0:0:
128,56,223074,1,2,0:0:0:0:
141,77,223191,2,0,P|183:101|232:93,1,100,2|2,1:2|0:0,0:0:0:0:
362,17,223660,6,0,L|478:8,1,100,6|0,3:2|0:0,0:0:0:0:
325,124,224128,2,0,B|337:103|337:103|481:91,1,150,0|0,1:0|0:0,0:0:0:0:
449,118,224597,6,0,L|333:109,1,100,6|0,3:2|0:0,0:0:0:0:
486,225,225065,2,0,B|474:204|474:204|330:192,1,150,2|2,1:2|0:0,0:0:0:0:
367,221,225535,6,0,L|467:214,1,100,6|0,3:2|0:0,0:0:0:0:
312,371,226003,2,0,P|294:312|322:283,1,100,2|0,1:2|0:0,0:0:0:0:
202,160,226472,2,0,P|230:227|195:291,2,150,6|2|2,3:2|3:2|3:2,0:0:0:0:
20,339,227410,6,0,L|144:332,1,100,6|0,3:2|0:0,0:0:0:0:
250,364,227878,2,0,B|255:380|255:380|350:385,1,100,2|2,1:2|0:0,0:0:0:0:
435,359,228347,2,0,L|424:296,1,50,2|2,0:0|0:0,0:0:0:0:
398,295,228581,2,0,L|409:232,1,50,2|0,0:0|0:0,0:0:0:0:
431,218,228816,2,0,B|426:202|426:202|331:197,1,100,2|2,1:2|0:0,0:0:0:0:
217,235,229285,5,2,3:2:0:0:
192,240,229402,1,0,0:0:0:0:
167,245,229519,1,2,0:0:0:0:
142,249,229636,1,2,0:0:0:0:
117,254,229753,2,0,P|89:184|114:155,1,100,2|2,1:2|0:0,0:0:0:0:
194,12,230222,2,0,P|231:104|197:142,2,150,6|2|2,3:2|3:2|3:2,0:0:0:0:
16,35,231160,6,0,L|115:54,1,100,6|0,3:2|0:0,0:0:0:0:
275,34,231628,2,0,B|286:16|286:16|371:9,1,100,2|2,1:2|0:0,0:0:0:0:
380,29,231980,1,2,0:0:0:0:
394,49,232097,2,0,L|505:71,1,100,6|0,3:2|0:0,0:0:0:0:
445,216,232566,1,2,1:2:0:0:
460,196,232683,1,0,0:0:0:0:
463,171,232800,1,2,0:0:0:0:
456,146,232917,1,2,0:0:0:0:
333,159,233503,5,2,0:0:0:0:
152,189,233972,1,2,0:0:0:0:
237,130,234324,5,2,0:0:0:0:
252,221,234675,1,2,0:0:0:0:
