osu file format v14

[General]
AudioFilename: audio.mp3
AudioLeadIn: 0
PreviewTime: 59226
Countdown: 0
SampleSet: Soft
StackLeniency: 0.4
Mode: 0
LetterboxInBreaks: 0
WidescreenStoryboard: 0

[Editor]
Bookmarks: 8766,25608,42450,59292,76134,92976,97187,114029,130871,147713,164555,172450,181397,198239,215081,231923,248765
DistanceSpacing: 0.8
BeatDivisor: 12
GridSize: 16
TimelineZoom: 2.799999

[Metadata]
Title:Loop (feat. WaMi)
TitleUnicode:Loop (feat. WaMi)
Artist:Yunosuke
ArtistUnicode:雄之助
Creator:Kotoha
Version:Expert
Source:
Tags:keywee vebox ayucchi rtyzen mocaotic featured artist fa wami japanese electronic sinsekai studio city project 深脊界 thinkr mappers' guild mpg
BeatmapID:3589478
BeatmapSetID:1753970

[Difficulty]
HPDrainRate:5
CircleSize:4
OverallDifficulty:8.7
ApproachRate:9.3
SliderMultiplier:2.7
SliderTickRate:1

[Events]
//Background and Video events
0,0,"EullhpZVkAMXggL.jpg",0,0
//Break Periods
2,93176,96633
2,164755,171896
//Storyboard Layer 0 (Background)
//Storyboard Layer 1 (Fail)
//Storyboard Layer 2 (Pass)
//Storyboard Layer 3 (Foreground)
//Storyboard Layer 4 (Overlay)
//Storyboard Sound Samples

[TimingPoints]
345,526.315789473684,4,2,1,40,1,0
1266,-166.666666666667,4,2,1,40,0,0
1331,-166.666666666667,4,2,1,5,0,0
1660,-166.666666666667,4,2,1,40,0,0
1725,-166.666666666667,4,2,1,5,0,0
2055,-166.666666666667,4,2,1,40,0,0
2120,-166.666666666667,4,2,1,5,0,0
2450,-166.666666666667,4,2,1,40,0,0
3436,-166.666666666667,4,2,1,5,0,0
3766,-166.666666666667,4,2,1,40,0,0
3831,-166.666666666667,4,2,1,5,0,0
4160,-166.666666666667,4,2,1,40,0,0
4225,-166.666666666667,4,2,1,5,0,0
4555,-166.666666666667,4,2,1,40,0,0
5541,-166.666666666667,4,2,1,5,0,0
5871,-166.666666666667,4,2,1,40,0,0
5936,-166.666666666667,4,2,1,5,0,0
6266,-166.666666666667,4,2,1,40,0,0
6331,-166.666666666667,4,2,1,5,0,0
6660,-166.666666666667,4,2,1,40,0,0
7646,-166.666666666667,4,2,1,5,0,0
7976,-166.666666666667,4,2,1,40,0,0
8041,-166.666666666667,4,2,1,5,0,0
8371,-166.666666666667,4,2,1,40,0,0
8436,-166.666666666667,4,2,1,5,0,0
8766,-111.111111111111,4,2,1,50,0,0
15608,-90.9090909090909,4,2,1,50,0,0
16134,-76.9230769230769,4,2,1,50,0,0
16660,-111.111111111111,4,2,1,50,0,0
24029,-90.9090909090908,4,2,1,50,0,0
24555,-76.9230769230769,4,2,1,50,0,0
25081,-111.111111111111,4,2,1,50,0,0
25608,-90.9090909090909,4,2,1,60,0,0
25936,-90.9090909090909,4,2,2,60,0,0
31923,-76.9230769230769,4,2,2,60,0,0
32450,-90.9090909090909,4,2,2,60,0,0
40871,-76.9230769230769,4,2,2,60,0,0
41397,-66.6666666666667,4,2,2,60,0,0
42450,-66.6666666666667,4,2,1,40,0,0
58239,-333.333333333333,4,2,1,40,0,0
58766,-83.3333333333333,4,2,2,55,0,0
59292,-45.4545454545455,4,2,2,70,0,0
59818,-55.5555555555556,4,2,2,70,0,0
60608,-45.4545454545455,4,2,2,70,0,0
60871,-55.5555555555556,4,2,2,70,0,0
61134,-142.857142857143,4,2,2,70,0,0
61397,-45.4545454545455,4,2,2,70,0,0
61923,-55.5555555555556,4,2,2,70,0,0
62713,-45.4545454545455,4,2,2,70,0,0
62976,-55.5555555555556,4,2,2,70,0,0
63239,-142.857142857143,4,2,2,70,0,0
63502,-45.4545454545455,4,2,2,70,0,0
64029,-55.5555555555556,4,2,2,70,0,0
64818,-45.4545454545455,4,2,2,70,0,0
65081,-55.5555555555556,4,2,2,70,0,0
65344,-142.857142857143,4,2,2,70,0,0
65608,-45.4545454545455,4,2,2,70,0,0
66134,-55.5555555555556,4,2,2,70,0,0
66923,-45.4545454545455,4,2,2,70,0,0
67187,-50,4,2,2,70,0,0
67450,-55.5555555555556,4,2,2,70,0,0
67713,-45.4545454545455,4,2,2,70,0,0
68239,-55.5555555555556,4,2,2,70,0,0
69029,-45.4545454545455,4,2,2,70,0,0
69292,-55.5555555555556,4,2,2,70,0,0
69555,-142.857142857143,4,2,2,70,0,0
69818,-45.4545454545455,4,2,2,70,0,0
70344,-55.5555555555556,4,2,2,70,0,0
71134,-45.4545454545455,4,2,2,70,0,0
71397,-55.5555555555556,4,2,2,70,0,0
71660,-142.857142857143,4,2,2,70,0,0
71923,-45.4545454545455,4,2,2,70,0,0
72450,-55.5555555555556,4,2,2,70,0,0
73502,-45.4545454545455,4,2,2,70,0,0
73766,-142.857142857143,4,2,2,70,0,0
74029,-45.4545454545455,4,2,2,70,0,0
74555,-55.5555555555556,4,2,2,70,0,0
75344,-45.4545454545455,4,2,2,70,0,0
75608,-50,4,2,2,70,0,0
75871,-55.5555555555556,4,2,2,70,0,0
77713,-142.857142857143,4,2,2,70,0,0
78239,-55.5555555555556,4,2,2,70,0,0
79818,-142.857142857143,4,2,2,70,0,0
80344,-55.5555555555556,4,2,2,70,0,0
86134,-142.857142857143,4,2,2,70,0,0
86660,-55.5555555555556,4,2,2,70,0,0
88239,-142.857142857143,4,2,2,70,0,0
88766,-55.5555555555556,4,2,2,70,0,0
90608,-142.857142857143,4,2,2,70,0,0
90871,-50,4,2,2,70,0,0
91397,-66.6666666666667,4,2,2,70,0,0
91923,-100,4,2,2,70,0,0
92450,-55.5555555555556,4,2,2,70,0,0
92976,-55.5555555555556,4,2,1,40,0,0
97187,526.315789473684,4,2,1,40,1,0
97187,-111.111111111111,4,2,1,40,0,0
98239,-111.111111111111,4,2,3,40,0,0
104029,-90.9090909090908,4,2,3,40,0,0
104555,-76.9230769230769,4,2,3,40,0,0
105081,-111.111111111111,4,2,3,40,0,0
105608,-111.111111111111,4,2,3,50,0,0
106134,-111.111111111111,4,2,1,50,0,0
110871,-111.111111111111,4,2,1,55,0,0
112450,-90.9090909090908,4,2,1,55,0,0
112976,-76.9230769230769,4,2,1,55,0,0
113502,-111.111111111111,4,2,1,55,0,0
114029,-90.9090909090909,4,2,1,60,0,0
114357,-90.9090909090909,4,2,2,60,0,0
120344,-76.9230769230769,4,2,2,60,0,0
120871,-90.9090909090909,4,2,2,60,0,0
129423,-55.5555555555556,4,2,2,60,0,0
129818,-71.4285714285714,4,2,2,60,0,0
130344,-40,4,2,2,60,0,0
130608,-250,4,2,2,60,0,0
130871,-45.4545454545455,4,2,2,70,0,0
131397,-55.5555555555556,4,2,2,70,0,0
132187,-45.4545454545455,4,2,2,70,0,0
132450,-55.5555555555556,4,2,2,70,0,0
132713,-142.857142857143,4,2,2,70,0,0
132976,-45.4545454545455,4,2,2,70,0,0
133502,-55.5555555555556,4,2,2,70,0,0
134292,-45.4545454545455,4,2,2,70,0,0
134555,-55.5555555555556,4,2,2,70,0,0
134818,-142.857142857143,4,2,2,70,0,0
135081,-45.4545454545455,4,2,2,70,0,0
135608,-55.5555555555556,4,2,2,70,0,0
136397,-45.4545454545455,4,2,2,70,0,0
136660,-55.5555555555556,4,2,2,70,0,0
136923,-142.857142857143,4,2,2,70,0,0
137187,-45.4545454545455,4,2,2,70,0,0
137713,-55.5555555555556,4,2,2,70,0,0
138502,-45.4545454545455,4,2,2,70,0,0
138765,-50,4,2,2,70,0,0
139029,-55.5555555555556,4,2,2,70,0,0
139292,-45.4545454545455,4,2,2,70,0,0
139818,-55.5555555555556,4,2,2,70,0,0
140608,-45.4545454545455,4,2,2,70,0,0
140871,-55.5555555555556,4,2,2,70,0,0
141134,-142.857142857143,4,2,2,70,0,0
141397,-45.4545454545455,4,2,2,70,0,0
141923,-55.5555555555556,4,2,2,70,0,0
142713,-45.4545454545455,4,2,2,70,0,0
142976,-55.5555555555556,4,2,2,70,0,0
143239,-142.857142857143,4,2,2,70,0,0
143502,-45.4545454545455,4,2,2,70,0,0
144029,-55.5555555555556,4,2,2,70,0,0
145081,-45.4545454545455,4,2,2,70,0,0
145344,-142.857142857143,4,2,2,70,0,0
145608,-45.4545454545455,4,2,2,70,0,0
146134,-55.5555555555556,4,2,2,70,0,0
146923,-45.4545454545455,4,2,2,70,0,0
147186,-50,4,2,2,70,0,0
147450,-55.5555555555556,4,2,2,70,0,0
149292,-142.857142857143,4,2,2,70,0,0
149818,-55.5555555555556,4,2,2,70,0,0
151397,-142.857142857143,4,2,2,70,0,0
151923,-55.5555555555556,4,2,2,70,0,0
157713,-142.857142857143,4,2,2,70,0,0
158239,-55.5555555555556,4,2,2,70,0,0
159818,-142.857142857143,4,2,2,70,0,0
160344,-55.5555555555556,4,2,2,70,0,0
162186,-142.857142857143,4,2,2,70,0,0
162450,-142.857142857143,4,2,1,40,0,0
163765,-125,4,2,1,40,0,0
164555,-125,4,2,1,50,0,0
172450,-90.9090909090909,4,2,1,60,0,0
172713,-200,4,2,1,60,0,0
172976,-200,4,2,2,60,0,0
173239,-58.8235294117647,4,2,2,60,0,0
173502,-50,4,2,1,60,0,0
174029,-90.9090909090909,4,2,1,60,0,0
181660,-90.9090909090909,4,2,2,60,0,0
196134,-90.9090909090909,4,2,1,40,0,0
197055,-125,4,2,1,40,0,0
197844,-500,4,2,1,40,0,0
198238,-500,4,2,1,30,0,0
199292,-500,4,2,1,40,0,0
206660,-666.666666666667,4,2,1,40,0,0
210871,-166.666666666667,4,2,1,45,0,0
211923,-125,4,2,1,50,0,0
212976,-62.5,4,2,2,60,0,0
213239,-71.4285714285714,4,2,2,60,0,0
213502,-83.3333333333333,4,2,2,60,0,0
213765,-100,4,2,2,60,0,0
214029,-100,4,2,4,60,0,0
214555,-62.5,4,2,2,70,0,0
215081,-55.5555555555518,4,2,2,70,0,0
216923,-76.9230769230698,4,2,2,70,0,0
217186,-45.4545454545455,4,2,2,70,0,0
217713,-55.5555555555556,4,2,2,70,0,0
218502,-45.4545454545455,4,2,2,70,0,0
218765,-55.5555555555556,4,2,2,70,0,0
219029,-142.857142857143,4,2,2,70,0,0
219292,-45.4545454545455,4,2,2,70,0,0
219818,-55.5555555555556,4,2,2,70,0,0
220608,-45.4545454545455,4,2,2,70,0,0
220871,-55.5555555555556,4,2,2,70,0,0
221134,-142.857142857143,4,2,2,70,0,0
221397,-45.4545454545455,4,2,2,70,0,0
221923,-55.5555555555556,4,2,2,70,0,0
222713,-45.4545454545455,4,2,2,70,0,0
222976,-50,4,2,2,70,0,0
223239,-55.5555555555556,4,2,2,70,0,0
223502,-45.4545454545455,4,2,2,70,0,0
224029,-55.5555555555556,4,2,2,70,0,0
224818,-45.4545454545455,4,2,2,70,0,0
225081,-55.5555555555556,4,2,2,70,0,0
225344,-142.857142857143,4,2,2,70,0,0
225608,-45.4545454545455,4,2,2,70,0,0
226134,-55.5555555555556,4,2,2,70,0,0
226923,-45.4545454545455,4,2,2,70,0,0
227186,-55.5555555555556,4,2,2,70,0,0
227450,-142.857142857143,4,2,2,70,0,0
227713,-45.4545454545455,4,2,2,70,0,0
228239,-55.5555555555556,4,2,2,70,0,0
229292,-45.4545454545455,4,2,2,70,0,0
229555,-142.857142857143,4,2,2,70,0,0
229818,-45.4545454545455,4,2,2,70,0,0
230344,-55.5555555555556,4,2,2,70,0,0
231134,-45.4545454545455,4,2,2,70,0,0
231397,-50,4,2,2,70,0,0
231660,-55.5555555555556,4,2,2,70,0,0
233502,-142.857142857143,4,2,2,70,0,0
234029,-55.5555555555556,4,2,2,70,0,0
235608,-142.857142857143,4,2,2,70,0,0
236134,-55.5555555555556,4,2,2,70,0,0
241923,-142.857142857143,4,2,2,70,0,0
242450,-55.5555555555556,4,2,2,70,0,0
244029,-142.857142857143,4,2,2,70,0,0
244555,-55.5555555555556,4,2,2,70,0,0
246397,-142.857142857143,4,2,2,70,0,0
246660,-142.857142857143,4,2,1,40,0,0
247581,-166.666666666667,4,2,1,40,0,0

[Colours]
Combo1 : 191,173,225
Combo2 : 197,217,106
Combo3 : 97,75,183
Combo4 : 181,203,253

[HitObjects]
115,93,345,5,2,2:0:0:0:
115,93,1266,2,0,L|104:126,1,20.25,2|0,2:0|2:0,2:0:0:0:
276,82,1660,2,0,L|252:55,1,20.25,2|0,2:0|2:0,2:0:0:0:
205,226,2055,2,0,L|239:219,1,20.25,2|0,2:0|2:0,2:0:0:0:
462,196,2450,5,2,2:0:0:0:
462,196,3371,2,0,P|466:214|461:225,1,20.25,2|0,2:0|2:0,2:0:0:0:
293,278,3766,2,0,P|306:265|318:264,1,20.25,2|0,2:0|2:0,2:0:0:0:
449,384,4160,2,0,P|431:378|424:368,1,20.25,2|0,2:0|2:0,2:0:0:0:
255,113,4555,5,2,2:0:0:0:
255,113,5476,2,0,L|227:122,1,20.25,2|0,2:0|2:0,2:0:0:0:
113,198,5871,2,0,L|141:207,1,20.25,2|0,2:0|2:0,2:0:0:0:
219,283,6266,2,0,L|191:292,1,20.25,2|0,2:0|2:0,2:0:0:0:
163,354,6660,5,2,2:0:0:0:
163,354,7581,2,0,P|154:341|153:324,1,20.25,2|0,2:0|2:0,2:0:0:0:
293,243,7976,2,0,P|302:230|303:213,1,20.25,2|0,2:0|2:0,2:0:0:0:
75,113,8371,2,0,P|66:100|65:83,1,20.25,2|0,2:0|2:0,2:0:0:0:
317,41,8766,6,0,B|314:134|235:77|251:192,1,151.875,6|0,3:2|2:0,2:0:0:0:
248,166,9160,1,0,3:0:0:0:
449,308,9292,2,0,P|468:271|452:241,1,60.7500000000001,8|0,2:0|2:0,2:0:0:0:
312,121,9555,6,0,L|375:110,1,60.7500000000001,0|2,2:0|2:0,2:0:0:0:
440,174,9818,2,0,P|390:198|378:260,1,121.5,0|2,2:0|2:0,2:0:0:0:
449,308,10213,1,0,3:0:0:0:
282,257,10344,5,8,2:0:0:0:
282,257,10476,2,0,P|228:242|145:228,1,121.5,2|0,2:0|2:0,2:0:0:0:
37,45,10871,6,0,B|76:33|76:33|138:58|107:146,1,151.875,2|0,3:2|2:0,2:0:0:0:
113,125,11266,1,0,3:0:0:0:
42,358,11397,2,0,B|12:328|12:328|30:224,1,121.5,8|0,2:0|2:0,2:0:0:0:
100,211,11792,1,2,2:0:0:0:
157,328,11923,6,0,P|205:294|272:276,1,121.5,0|2,2:0|2:0,2:0:0:0:
330,319,12318,1,0,3:0:0:0:
254,143,12450,6,0,B|239:168|239:168|247:198,1,60.7500000000001,8|2,2:0|2:0,2:0:0:0:
397,199,12713,2,0,B|412:174|412:174|403:143,1,60.7500000000001,0|0,2:0|2:0,2:0:0:0:
239,50,12976,6,0,B|214:50|214:50|147:125|147:125|108:125,1,151.875,2|0,3:2|2:0,2:0:0:0:
120,125,13371,1,0,3:0:0:0:
264,276,13502,6,0,P|298:210|413:209,1,182.25,8|2,2:0|2:0,2:0:0:0:
397,199,14029,6,0,P|357:223|308:199,1,91.1250000000001,0|0,2:0|2:0,2:0:0:0:
310,204,14292,2,0,P|308:173|321:147,1,60.7500000000001,2|0,2:0|3:0,2:0:0:0:
387,335,14555,6,0,L|327:349,1,60.7500000000001,8|2,2:0|2:0,2:0:0:0:
310,204,14818,2,0,L|250:218,1,60.7500000000001,0|0,2:0|2:0,2:0:0:0:
133,364,15081,6,0,B|209:362|191:291|271:295,1,151.875,0|0,3:2|2:0,2:0:0:0:
262,295,15476,1,0,3:0:0:0:
113,228,15608,6,0,B|70:211|65:166|65:166|47:250|130:274,1,222.75,8|2,2:0|2:0,2:0:0:0:
221,65,16134,6,0,B|180:90|138:66|138:66|167:100|147:153,1,175.5,0|2,2:0|2:0,2:0:0:0:
237,147,16529,1,0,3:0:0:0:
33,253,16660,6,0,L|23:195,1,30.375,8|0,2:0|2:0,2:0:0:0:
67,149,16792,2,0,L|57:91,1,30.375,10|0,2:0|2:0,2:0:0:0:
2,32,16923,5,0,3:0:0:0:
2,32,17187,6,0,B|66:-7|125:40|125:40|96:71,1,151.875,2|0,3:2|2:0,2:0:0:0:
111,54,17581,1,0,3:0:0:0:
279,28,17713,2,0,P|263:57|277:103,1,60.7500000000001,8|0,2:0|2:0,2:0:0:0:
166,254,17976,6,0,L|156:193,1,60.7500000000001,0|2,2:0|2:0,2:0:0:0:
191,120,18239,2,0,P|238:115|275:188,1,121.5,0|2,2:0|2:0,2:0:0:0:
248,244,18634,1,0,3:0:0:0:
363,135,18766,5,8,2:0:0:0:
363,135,18897,2,0,P|354:66|347:13,1,121.5,2|0,2:0|2:0,2:0:0:0:
491,202,19292,6,0,P|423:192|390:275,1,151.875,2|0,3:2|2:0,2:0:0:0:
385,256,19687,1,0,3:0:0:0:
406,64,19818,2,0,B|440:68|440:68|480:112|480:112|511:115,1,121.5,8|0,2:0|2:0,2:0:0:0:
424,167,20213,1,2,2:0:0:0:
309,349,20344,6,0,P|276:307|301:247,1,121.5,0|2,2:0|2:0,2:0:0:0:
385,256,20739,1,0,3:0:0:0:
293,169,20871,6,0,L|311:111,1,60.7500000000001,8|2,2:0|2:0,2:0:0:0:
446,73,21134,2,0,L|428:14,1,60.7500000000001,0|0,2:0|2:0,2:0:0:0:
212,45,21397,6,0,B|182:27|182:27|216:142,1,151.875,2|0,3:2|2:0,2:0:0:0:
215,139,21792,1,0,3:0:0:0:
273,288,21923,6,0,P|219:227|116:248,1,182.25,8|2,2:0|2:0,2:0:0:0:
100,48,22450,6,0,L|121:124,1,60.7500000000001,2|0,2:0|2:0,2:0:0:0:
47,154,22713,2,0,L|30:95,1,60.7500000000001,2|0,2:0|3:0,2:0:0:0:
195,139,22976,5,8,2:0:0:0:
45,235,23108,1,2,2:0:0:0:
201,145,23239,2,0,P|205:181|189:210,1,60.7500000000001,0|0,2:0|2:0,2:0:0:0:
42,348,23502,6,0,B|141:342|79:277|195:281,1,151.875,2|0,3:2|2:0,2:0:0:0:
170,281,23897,1,0,3:0:0:0:
401,347,24029,6,0,B|442:369|442:369|515:311|427:237,1,185.625,8|0,2:0|2:0,2:0:0:0:
443,252,24423,1,2,2:0:0:0:
201,171,24555,6,0,L|224:347,1,175.5,2|2,2:0|2:0,2:0:0:0:
285,194,24950,1,0,3:0:0:0:
231,351,25081,6,0,P|252:338|259:318,1,30.375,8|0,2:0|2:0,2:0:0:0:
346,284,25213,2,0,P|325:271|318:251,1,30.375,10|0,2:0|2:0,2:0:0:0:
262,114,25344,5,0,3:0:0:0:
262,114,25608,6,0,P|342:102|371:202,1,185.625,6|0,3:2|2:0,2:0:0:0:
378,186,26002,1,0,3:0:0:0:
450,73,26134,6,0,B|391:81|391:81|372:96,1,74.25,8|0,2:0|2:0,2:0:0:0:
222,185,26397,2,0,B|163:177|163:177|144:162,1,74.25,0|2,2:0|2:0,2:0:0:0:
258,11,26660,6,0,P|267:50|269:136,1,111.375,0|0,2:0|2:0,2:0:0:0:
262,114,26923,2,0,P|280:89|309:68,1,37.125,2|0,2:0|2:0,2:0:0:0:
398,163,27055,1,0,3:0:0:0:
316,315,27187,6,0,P|352:302|394:297,2,74.25,8|2|0,2:0|2:0|2:0,2:0:0:0:
279,384,27581,1,0,2:0:0:0:
202,213,27713,6,0,B|204:192|228:192|228:192|230:212|202:223,1,74.25,2|0,3:2|2:0,2:0:0:0:
111,328,27976,2,0,B|109:349|85:349|85:349|83:329|111:318,1,74.25,0|0,2:0|3:0,2:0:0:0:
2,194,28239,6,0,B|36:198|36:198|71:237|71:237|108:240,1,111.375,8|0,2:0|2:0,2:0:0:0:
103,234,28502,2,0,P|125:190|107:149,1,74.25,0|2,2:0|2:0,2:0:0:0:
14,360,28766,6,0,P|47:321|123:333,1,111.375,0|0,2:0|2:0,2:0:0:0:
111,328,29029,2,0,L|156:318,1,37.125,2|0,2:0|2:0,2:0:0:0:
304,299,29160,1,0,3:0:0:0:
206,138,29292,6,0,P|203:176|199:220,1,74.25,8|2,2:0|2:0,2:0:0:0:
308,293,29555,2,0,P|304:329|302:367,1,74.25,0|0,2:0|2:0,2:0:0:0:
420,164,29818,6,0,B|424:124|424:124|334:88|297:163,1,185.625,2|0,3:2|2:0,2:0:0:0:
298,160,30213,1,0,3:0:0:0:
391,309,30344,6,0,P|439:320|472:333,1,74.25,8|0,2:0|2:0,2:0:0:0:
434,86,30608,2,0,P|416:156|411:182,1,74.25,0|2,2:0|2:0,2:0:0:0:
283,339,30871,6,0,B|284:270|214:294|223:202,1,148.5,0|2,2:0|2:0,2:0:0:0:
298,160,31266,1,0,3:0:0:0:
194,339,31397,6,0,P|145:328|110:327,2,74.25,8|2|0,2:0|2:0|2:0,2:0:0:0:
279,261,31792,1,0,2:0:0:0:
124,134,31923,6,0,B|73:98|73:98|121:250,1,219.375,2|0,3:2|2:0,2:0:0:0:
120,247,32318,1,0,3:0:0:0:
210,68,32450,6,0,B|235:42|235:42|197:58,1,74.25,8|0,2:0|2:0,2:0:0:0:
72,190,32713,2,0,L|-15:170,1,74.25,0|2,2:0|2:0,2:0:0:0:
251,148,32976,6,0,B|221:231|221:231|235:264,1,111.375,0|0,2:0|2:0,2:0:0:0:
230,252,33239,1,2,2:0:0:0:
151,132,33371,1,0,3:0:0:0:
300,47,33502,6,0,L|310:104,1,37.125,8|0,2:0|2:0,2:0:0:0:
400,237,33634,2,0,L|390:294,1,37.125,10|0,2:0|2:0,2:0:0:0:
437,106,33766,5,0,3:0:0:0:
251,148,33897,1,0,2:0:0:0:
340,328,34029,6,0,B|387:317|387:317|441:238|441:238|498:225,1,185.625,2|0,3:2|2:0,2:0:0:0:
482,229,34423,1,0,3:0:0:0:
333,162,34555,6,0,P|285:177|279:257,1,111.375,8|0,2:0|2:0,2:0:0:0:
273,239,34818,2,0,B|178:252,1,74.25,0|2,2:0|2:0,2:0:0:0:
37,364,35081,6,0,P|24:318|53:283,1,74.25,0|0,2:0|2:0,2:0:0:0:
164,117,35344,2,0,P|151:163|144:197,1,74.25,2|0,2:0|3:0,2:0:0:0:
227,345,35608,6,0,B|176:321|176:321|139:336,2,74.25,8|2|0,2:0|2:0|2:0,2:0:0:0:
305,309,36002,1,0,2:0:0:0:
481,127,36134,6,0,P|462:178|457:202,1,74.25,2|0,3:2|2:0,2:0:0:0:
409,373,36397,2,0,P|399:337|385:302,1,74.25,0|0,2:0|3:0,2:0:0:0:
269,161,36660,6,0,B|290:144|290:144|396:166,1,111.375,8|0,2:0|2:0,2:0:0:0:
384,165,36923,2,0,P|352:212|361:245,1,74.25,0|2,2:0|2:0,2:0:0:0:
180,367,37187,6,0,B|160:325|182:289|182:289|229:279,1,111.375,0|0,2:0|2:0,2:0:0:0:
211,282,37450,1,2,2:0:0:0:
141,174,37581,1,0,3:0:0:0:
216,69,37713,6,0,P|246:77|296:86,1,74.25,8|2,2:0|2:0,2:0:0:0:
59,155,37976,2,0,P|27:111|44:60,1,111.375,0|0,2:0|2:0,2:0:0:0:
133,87,38239,6,0,P|103:153|85:269,1,185.625,2|0,3:2|2:0,2:0:0:0:
84,264,38634,1,0,3:0:0:0:
258,237,38766,6,0,P|292:286|269:343,1,111.375,8|0,2:0|2:0,2:0:0:0:
279,332,39029,1,0,2:0:0:0:
387,274,39160,1,2,2:0:0:0:
495,216,39292,2,0,P|465:163|460:86,1,111.375,0|0,2:0|2:0,2:0:0:0:
457,102,39555,2,0,P|439:145|406:173,1,74.25,2|0,2:0|3:0,2:0:0:0:
494,323,39818,6,0,L|438:308,1,37.125,8|0,2:0|2:0,2:0:0:0:
316,229,39950,2,0,L|230:249,2,74.25,2|0|0,2:0|2:0|2:0,2:0:0:0:
374,91,40344,6,0,P|343:64|287:69,1,74.25,2|0,3:2|2:0,2:0:0:0:
249,8,40608,2,0,P|210:21|186:72,1,74.25,0|0,2:0|3:0,2:0:0:0:
140,273,40871,6,0,P|176:253|188:184,1,87.75,8|0,2:0|2:0,2:0:0:0:
268,188,41134,2,0,P|269:146|215:101,1,87.75,0|2,2:0|2:0,2:0:0:0:
457,87,41397,6,0,P|416:115|404:163,1,101.25,0|0,2:0|2:0,2:0:0:0:
349,218,41660,2,0,P|353:267|388:301,1,101.25,2|0,2:0|3:0,2:0:0:0:
159,349,41923,6,0,P|184:340|204:311,1,50.625,8|0,2:0|2:0,2:0:0:0:
268,188,42055,2,0,P|272:161|257:130,1,50.625,10|0,2:0|2:0,2:0:0:0:
165,61,42187,1,0,3:0:0:0:
90,89,42318,1,0,2:0:0:0:
85,108,42450,5,2,2:0:0:0:
85,108,43502,5,2,2:0:0:0:
256,192,44555,5,2,2:0:0:0:
256,192,45608,5,2,2:0:0:0:
206,130,45871,1,2,2:0:0:0:
266,77,46134,1,2,2:0:0:0:
216,15,46397,1,2,2:0:0:0:
256,192,46660,5,2,2:0:0:0:
256,192,47713,5,2,2:0:0:0:
256,192,48766,5,2,2:0:0:0:
411,141,49292,1,2,2:0:0:0:
351,311,49818,1,2,2:0:0:0:
332,230,50344,1,2,2:0:0:0:
484,367,50871,5,2,2:0:0:0:
484,367,51923,5,2,2:0:0:0:
484,367,52976,5,2,2:0:0:0:
484,367,54029,5,2,2:0:0:0:
434,303,54292,1,2,2:0:0:0:
353,290,54555,1,2,2:0:0:0:
282,329,54818,1,2,2:0:0:0:
45,212,55081,5,2,2:0:0:0:
45,212,56134,5,2,2:0:0:0:
198,111,56660,1,2,2:0:0:0:
15,64,57187,5,2,2:0:0:0:
211,196,57713,1,2,2:0:0:0:
44,339,58239,2,0,L|6:353,1,40.5,2|0,2:0|2:0,2:0:0:0:
6,353,58766,6,0,L|44:339,1,40.5,8|0,2:0|2:0,2:0:0:0:
281,237,58897,2,0,L|319:223,1,40.5,8|0,2:0|2:0,2:0:0:0:
151,315,59029,5,0,3:0:0:0:
151,315,59292,6,0,B|45:242|68:115|205:134|190:222,1,297,6|0,3:2|2:0,2:0:0:0:
246,357,59687,1,0,3:0:0:0:
38,334,59818,6,0,P|140:283|319:224,1,303.75,8|0,2:0|2:0,2:0:0:0:
412,245,60213,6,0,B|429:253|449:248|449:248|433:348|333:337|333:337|346:319|344:300,1,243,2|0,2:0|2:0,2:0:0:0:
314,134,60608,6,0,B|370:125|394:65|394:65|391:131|436:166,1,222.75,2|0,2:0|2:0,2:0:0:0:
319,223,60871,6,0,L|236:213,1,60.75,8|0,2:0|2:0,2:0:0:0:
94,135,61002,1,2,2:0:0:0:
180,229,61134,6,0,L|164:317,1,70.8749999999999,0|0,2:0|2:0,2:0:0:0:
44,324,61397,6,0,B|21:288|-30:289|-30:289|173:235,1,297,2|0,3:2|2:0,2:0:0:0:
15,185,61792,1,0,3:0:0:0:
180,229,61923,6,0,B|240:123|144:57|144:57|63:82|106:164,1,303.75,8|0,2:0|2:0,2:0:0:0:
230,135,62318,6,0,B|267:121|267:121|428:175|428:175|471:156,1,243,2|0,2:0|2:0,2:0:0:0:
338,52,62713,6,0,B|278:21|278:21|320:178,1,222.75,2|0,2:0|2:0,2:0:0:0:
442,219,62976,6,0,L|463:143,1,60.75,8|0,2:0|2:0,2:0:0:0:
419,36,63108,1,2,2:0:0:0:
370,267,63239,6,0,P|408:286|423:327,1,70.8749999999999,2|0,2:0|2:0,2:0:0:0:
350,342,63502,6,0,B|216:325|216:325|193:330|193:330|41:314,1,297,2|0,3:2|2:0,2:0:0:0:
228,235,63897,1,0,3:0:0:0:
150,358,64029,6,0,B|182:184|2:285|60:77,1,303.75,8|0,2:0|2:0,2:0:0:0:
143,76,64423,6,0,B|179:31|251:66|251:66|241:152|169:146,1,243,2|0,2:0|2:0,2:0:0:0:
59,317,64818,6,0,B|11:332|-26:267|-26:267|23:198|84:243,1,222.75,2|0,2:0|2:0,2:0:0:0:
168,248,65081,6,0,L|245:231,1,60.75,8|0,2:0|2:0,2:0:0:0:
404,118,65213,1,2,2:0:0:0:
327,158,65344,6,0,P|348:187|393:199,1,70.8749999999999,0|0,2:0|2:0,2:0:0:0:
466,220,65608,6,0,B|320:220|316:362|316:362|326:332|371:316,1,297,2|0,3:2|2:0,2:0:0:0:
227,234,66002,1,0,3:0:0:0:
380,200,66134,6,0,P|368:260|358:320,1,121.5,8|0,2:0|2:0,2:0:0:0:
126,269,66397,2,0,P|107:258|128:263,1,60.75,0|0,2:0|2:0,2:0:0:0:
201,322,66529,6,0,B|179:326|150:336|150:336|123:234|227:297|192:142,1,243,2|0,2:0|2:0,2:0:0:0:
69,41,66923,2,0,B|-16:73|-4:169|-4:169|2:118|49:108,1,222.75,2|0,2:0|2:0,2:0:0:0:
202,170,67187,6,0,P|233:160|257:131,1,67.5,8|0,2:3|2:0,2:0:0:0:
140,86,67318,2,0,P|155:57|152:20,1,67.5,10|0,2:0|2:0,2:0:0:0:
111,167,67450,6,0,L|70:185,3,40.4999987640381,8|0|0|0,3:0|2:0|2:0|2:0,2:0:0:0:
54,348,67713,6,0,B|129:259|241:282|241:282|253:333|312:340,1,297,2|0,3:2|2:0,2:0:0:0:
202,170,68108,1,0,3:0:0:0:
413,383,68239,6,0,B|380:284|379:181|379:181|378:238|301:266,1,303.75,8|0,2:0|2:0,2:0:0:0:
261,77,68634,6,0,B|331:18|331:18|294:73|287:175,1,243,2|0,2:0|2:0,2:0:0:0:
194,282,69029,6,0,B|148:250|165:206|165:206|313:167,1,222.75,2|0,2:0|2:0,2:0:0:0:
383,175,69292,6,0,L|401:102,1,60.75,8|0,2:0|2:0,2:0:0:0:
457,34,69423,1,2,2:0:0:0:
265,83,69555,6,0,L|184:105,1,70.8749999999999,0|0,2:0|2:0,2:0:0:0:
115,79,69818,6,0,B|186:24|186:24|128:240,1,297,2|0,3:2|2:0,2:0:0:0:
294,171,70213,1,0,3:0:0:0:
216,347,70344,6,0,B|225:252|94:213|26:274|26:274|50:287|57:323,1,303.75,8|0,2:0|2:0,2:0:0:0:
126,379,70739,6,0,B|135:270|-4:313|48:152,1,243,2|0,2:0|2:0,2:0:0:0:
213,261,71134,6,0,B|200:122|300:206|297:60,1,222.75,2|0,2:0|2:0,2:0:0:0:
239,0,71397,6,0,P|218:23|223:68,1,60.75,8|0,2:0|2:0,2:0:0:0:
294,172,71529,1,2,2:0:0:0:
377,73,71660,6,0,L|461:94,1,70.8749999999999,2|0,2:0|2:0,2:0:0:0:
488,0,71923,6,0,B|433:10|433:10|393:75|393:75|401:99|401:99|364:164|364:164|293:179,1,297,2|0,3:2|2:0,2:0:0:0:
494,180,72318,1,0,3:0:0:0:
354,308,72450,6,0,B|299:168|176:204|176:204|226:205|256:257,1,303.75,8|0,2:0|2:0,2:0:0:0:
177,297,72844,6,0,P|159:301|177:289,1,60.75,2|0,2:0|2:0,2:0:0:0:
285,384,72976,2,0,P|355:331|461:342,1,182.25,2|0,2:0|2:0,2:0:0:0:
511,267,73239,6,0,B|485:227|494:180|494:180|471:230|422:241,1,182.25,2|0,2:0|2:0,2:0:0:0:
323,271,73502,6,0,B|329:302|354:308|354:308|342:296|345:287,1,74.2499999999999,10|0,2:0|2:0,2:0:0:0:
409,152,73634,1,2,2:0:0:0:
278,377,73766,6,0,P|258:350|218:345,1,70.8749999999999,0|0,2:0|2:0,2:0:0:0:
133,382,74029,6,0,B|108:265|216:299|169:163,1,222.75,2|0,3:2|2:0,2:0:0:0:
148,101,74292,2,0,B|136:63|88:69|88:69|65:119|116:143,1,148.5,0|0,2:0|3:0,2:0:0:0:
258,165,74555,6,0,B|366:148|296:64|451:67,1,182.25,10|0,2:0|2:0,2:0:0:0:
453,145,74818,2,0,B|467:169|447:197|447:197|404:194|405:153,1,121.5,0|2,2:0|2:0,2:0:0:0:
225,44,75081,6,0,P|294:44|320:106,1,121.5,2|0,2:0|2:0,2:0:0:0:
291,300,75344,6,0,P|199:325|114:220,1,222.75,2|0,2:0|2:0,2:0:0:0:
266,156,75608,6,0,P|283:182|281:231,1,67.5,8|0,2:3|2:0,2:0:0:0:
115,147,75739,2,0,P|146:148|184:178,1,67.5,10|0,2:0|2:0,2:0:0:0:
201,276,75871,6,0,L|211:235,3,40.4999987640381,8|0|0|0,3:0|2:0|2:0|2:0,2:0:0:0:
291,300,76134,6,0,B|426:298|365:201|502:196,1,243,6|0,3:2|2:0,2:0:0:0:
415,358,76529,2,0,B|398:385|398:385|391:344,1,60.75,0|0,3:0|2:0,2:0:0:0:
400,278,76660,6,0,B|376:151|376:151|345:143|317:105,1,182.25,8|0,2:0|2:0,2:0:0:0:
344,14,76923,2,0,B|377:16|395:8|395:8|414:39|391:75,1,121.5,0|2,2:0|2:0,2:0:0:0:
294,210,77187,6,0,P|207:174|110:155,1,182.25,0|0,2:0|2:0,2:0:0:0:
75,227,77450,2,0,B|79:244|79:244|136:236,1,60.75,2|0,2:0|2:0,2:0:0:0:
258,104,77581,1,0,3:0:0:0:
33,40,77713,6,0,P|35:66|36:99,1,47.25,8|2,2:0|2:0,2:0:0:0:
113,80,77976,2,0,P|111:54|110:21,1,47.25,0|0,2:0|2:0,2:0:0:0:
15,163,78239,6,0,B|79:174|79:174|150:263|150:263|214:272,1,243,2|0,3:2|2:0,2:0:0:0:
368,165,78634,2,0,B|376:156|376:156|344:85,1,60.75,0|0,3:0|2:0,2:0:0:0:
274,158,78766,6,0,P|234:230|292:304,1,182.25,8|0,2:0|2:0,2:0:0:0:
374,303,79029,2,0,P|410:280|371:298,1,121.5,0|2,2:0|2:0,2:0:0:0:
184,357,79292,6,0,B|150:295|82:297|82:297|70:334|25:346,1,182.25,0|0,2:0|2:0,2:0:0:0:
10,266,79555,2,0,P|14:236|58:209,1,60.75,2|0,2:0|2:0,2:0:0:0:
195,201,79687,1,0,3:0:0:0:
107,64,79818,6,0,P|78:74|55:86,1,47.25,8|2,2:0|2:0,2:0:0:0:
92,150,80081,2,0,P|121:140|144:128,1,47.25,2|2,2:0|2:0,2:0:0:0:
296,48,80344,6,0,B|312:187|208:141|242:281,1,243,2|0,3:2|2:0,2:0:0:0:
431,283,80739,2,0,P|443:264|409:200,1,60.75,0|0,3:0|2:0,2:0:0:0:
375,178,80871,6,0,L|175:203,1,182.25,8|0,2:0|2:0,2:0:0:0:
134,262,81134,2,0,B|137:300|174:319|174:319|153:296|163:263,1,121.5,0|2,2:0|2:0,2:0:0:0:
171,117,81397,6,0,B|158:19|63:38|63:38|124:41|135:104,2,243,0|2|8,2:0|2:0|2:0,2:0:0:0:
102,159,82055,1,2,2:0:0:0:
236,301,82187,6,0,B|261:231|239:175|239:175|217:204|172:201,1,182.25,0|0,2:0|2:0,2:0:0:0:
189,194,82450,6,0,P|268:206|336:124,1,182.25,2|0,3:2|2:0,2:0:0:0:
283,77,82713,2,0,B|255:56|275:22|275:22|310:42|297:81,1,121.5,0|0,2:0|3:0,2:0:0:0:
451,286,82976,6,0,B|356:293|400:203|282:214,1,182.25,8|0,2:0|2:0,2:0:0:0:
254,368,83239,2,0,B|216:380|216:380|245:262,1,121.5,0|2,2:0|2:0,2:0:0:0:
430,45,83502,6,0,L|387:245,1,182.25,0|0,2:0|2:0,2:0:0:0:
294,213,83766,2,0,P|281:160|354:149,1,121.5,2|0,2:0|3:0,2:0:0:0:
451,286,84029,6,0,L|375:311,1,60.75,8|0,2:3|2:0,2:0:0:0:
287,208,84160,2,0,L|211:233,1,60.75,10|0,2:0|2:0,2:0:0:0:
133,198,84292,6,0,L|148:150,3,40.4999987640381,8|0|0|0,3:0|2:0|2:0|2:0,2:0:0:0:
151,307,84555,6,0,B|152:169|45:248|68:95,1,243,2|0,3:2|2:0,2:0:0:0:
279,27,84950,2,0,L|209:53,1,60.75,0|0,3:0|2:0,2:0:0:0:
138,26,85081,6,0,B|183:34|183:34|236:108|236:108|297:124,1,182.25,8|0,2:0|2:0,2:0:0:0:
341,199,85344,2,0,B|375:176|359:135|359:135|359:164|330:185,1,121.5,0|2,2:0|2:0,2:0:0:0:
217,369,85608,6,0,L|233:175,1,182.25,0|0,2:0|2:0,2:0:0:0:
143,170,85871,2,0,B|125:165|125:165|163:213,1,60.75,2|0,2:0|2:0,2:0:0:0:
274,254,86002,1,0,3:0:0:0:
108,339,86134,6,0,L|40:329,1,47.25,8|2,2:0|2:0,2:0:0:0:
89,256,86397,2,0,L|21:246,1,47.25,0|0,2:0|2:0,2:0:0:0:
222,370,86660,6,0,B|323:359|261:274|382:274|382:274|351:286|348:319,1,243,2|0,3:2|2:0,2:0:0:0:
213,262,87055,2,0,L|274:254,1,60.75,0|0,3:0|2:0,2:0:0:0:
424,346,87187,6,0,B|466:348|466:348|515:284|461:213,1,182.25,8|0,2:0|2:0,2:0:0:0:
353,151,87450,2,0,B|382:161|387:196|387:196|393:163|427:146,1,121.5,0|2,2:0|2:0,2:0:0:0:
183,20,87713,6,0,B|165:135|253:70|227:217,1,182.25,0|0,2:0|2:0,2:0:0:0:
274,254,87976,2,0,P|301:239|293:194,1,60.75,2|0,2:0|2:0,2:0:0:0:
271,42,88108,1,0,3:0:0:0:
456,10,88239,6,0,L|446:72,1,47.25,8|2,2:0|2:0,2:0:0:0:
379,28,88502,2,0,L|371:74,1,47.25,2|2,2:0|2:0,2:0:0:0:
305,212,88766,6,0,L|122:243,1,182.25,2|0,3:2|2:0,2:0:0:0:
54,173,89029,2,0,B|65:143|65:143|159:162,1,121.5,0|0,2:0|3:0,2:0:0:0:
314,353,89292,6,0,B|371:331|383:262|383:262|373:289|334:302,1,182.25,8|0,2:0|2:0,2:0:0:0:
233,335,89555,2,0,L|202:210,1,121.5,0|2,2:0|2:0,2:0:0:0:
18,106,89818,6,0,B|2:276|124:169|98:362,2,243,0|2|8,2:0|2:0|2:0,2:0:0:0:
84,66,90476,1,2,2:0:0:0:
24,226,90608,6,0,L|83:211,1,47.25,0|0,2:0|2:0,2:0:0:0:
239,101,90871,6,0,P|196:230|178:363,1,270,2|0,3:2|2:0,2:0:0:0:
278,345,91266,1,0,3:0:0:0:
323,149,91397,6,0,P|291:249|279:345,1,202.5,8|0,2:0|2:0,2:0:0:0:
378,332,91792,1,2,2:0:0:0:
408,201,91923,6,0,P|387:272|378:340,1,135,0|2,2:0|2:0,2:0:0:0:
491,191,92318,1,0,3:0:0:0:
486,332,92450,6,0,P|504:299|510:259,1,60.75,8|0,2:3|2:0,2:0:0:0:
491,191,92581,2,0,P|488:153|472:116,1,60.75,10|0,2:0|2:0,2:0:0:0:
421,70,92713,6,0,L|382:59,3,40.4999987640381,8|0|0|0,3:0|2:0|2:0|2:0,2:0:0:0:
500,12,92976,5,2,2:0:0:0:
500,12,97187,6,0,B|512:120|426:77|446:177,2,182.25,4|0|0,3:2|3:0|2:0,2:0:0:0:
362,172,98239,6,0,P|373:224|474:254,1,151.875,10|0,2:0|2:0,2:0:0:0:
468,255,98634,2,0,P|385:264|315:301,1,151.875,2|0,3:2|2:0,2:0:0:0:
303,365,99029,1,2,3:2:0:0:
143,185,99292,6,0,B|101:197|90:223|90:223|132:334,2,182.25,2|0|0,3:2|3:0|2:0,2:0:0:0:
227,360,100344,6,0,B|266:343|266:343|227:230,1,151.875,10|0,2:0|2:0,2:0:0:0:
221,232,100739,2,0,B|240:201|230:158|230:158|258:195|309:181,1,151.875,2|0,3:2|2:0,2:0:0:0:
290,105,101134,1,2,3:2:0:0:
143,185,101397,6,0,B|80:158|80:158|59:115|59:115|-8:83,2,182.25,2|0|0,3:2|3:0|2:0,2:0:0:0:
290,105,102450,6,0,B|352:92|384:140|384:140|387:162|360:202,1,151.875,10|0,2:0|2:0,2:0:0:0:
367,195,102844,2,0,P|373:115|407:40,1,151.875,2|0,3:2|2:0,2:0:0:0:
469,16,103239,1,2,3:2:0:0:
399,287,103502,6,0,P|358:226|285:222,1,151.875,2|0,3:2|2:0,2:0:0:0:
284,222,103897,1,0,3:0:0:0:
101,352,104029,6,0,P|184:324|323:300,1,222.75,0|0,2:0|2:0,2:0:0:0:
204,88,104555,6,0,B|152:58|152:58|211:224,1,219.375,10|0,2:0|2:0,2:0:0:0:
205,208,104950,1,2,3:2:0:0:
171,293,105081,6,0,P|132:269|118:227,1,91.1250000000001,0|0,2:0|2:0,2:0:0:0:
125,216,105344,2,0,P|110:258|72:281,1,91.1250000000001,2|0,3:2|2:0,2:0:0:0:
45,199,105608,6,0,B|37:112|105:157|92:37,1,151.875,6|0,3:2|2:0,2:0:0:0:
93,61,106002,1,0,3:0:0:0:
235,135,106134,2,0,L|163:118,1,60.7500000000001,8|0,2:0|2:0,2:0:0:0:
214,333,106397,6,0,P|244:314|254:287,1,60.7500000000001,0|2,2:0|2:0,2:0:0:0:
202,222,106660,2,0,L|327:192,1,121.5,0|2,2:0|2:0,2:0:0:0:
382,246,107055,1,0,3:0:0:0:
439,72,107187,5,8,2:0:0:0:
439,72,107318,2,0,P|371:78|338:139,1,121.5,2|0,2:0|2:0,2:0:0:0:
439,297,107713,6,0,P|418:215|419:128,1,151.875,2|0,3:2|2:0,2:0:0:0:
417,149,108108,1,0,3:0:0:0:
209,232,108239,6,0,B|275:233|248:184|336:195,1,121.5,8|0,2:0|2:0,2:0:0:0:
341,117,108634,1,2,2:0:0:0:
206,152,108765,6,0,P|146:136|72:123,1,121.5,0|2,2:0|2:0,2:0:0:0:
24,177,109160,1,0,3:0:0:0:
141,43,109292,6,0,P|154:62|150:106,1,60.7500000000001,8|2,2:0|2:0,2:0:0:0:
32,241,109555,2,0,P|19:222|23:178,1,60.7500000000001,0|0,2:0|2:0,2:0:0:0:
250,93,109818,6,0,B|254:186|197:141|210:233,1,151.875,2|0,3:2|2:0,2:0:0:0:
209,232,110213,1,0,3:0:0:0:
346,353,110344,5,8,2:0:0:0:
346,353,110476,2,0,B|387:339|387:339|410:310|410:310|462:294,1,121.5,0|2,2:0|2:0,2:0:0:0:
314,204,110871,6,0,P|306:258|306:290,1,60.7500000000001,2|0,2:0|2:0,2:0:0:0:
179,363,111134,5,2,2:0:0:0:
50,179,111265,1,0,3:0:0:0:
119,308,111397,5,8,2:0:0:0:
129,290,111529,1,2,2:0:0:0:
139,272,111660,2,0,L|124:203,1,60.7500000000001,0|0,2:0|2:0,2:0:0:0:
25,103,111923,6,0,P|54:42|138:51,1,151.875,2|0,3:2|2:0,2:0:0:0:
129,44,112318,1,0,3:0:0:0:
339,43,112450,6,0,B|255:67|291:135|198:158,1,185.625,10|0,2:0|2:0,2:0:0:0:
204,161,112844,1,2,2:0:0:0:
344,308,112976,6,0,P|346:252|370:112,1,175.5,2|2,2:0|2:0,2:0:0:0:
244,84,113371,1,0,3:0:0:0:
237,241,113502,6,0,L|289:220,1,30.375,10|0,2:0|2:0,2:0:0:0:
371,132,113634,2,0,L|423:153,1,30.375,10|0,2:0|2:0,2:0:0:0:
481,248,113765,5,0,3:0:0:0:
481,248,114029,6,0,P|428:227|339:319,1,185.625,6|0,3:2|2:0,2:0:0:0:
339,302,114423,1,0,3:0:0:0:
437,384,114555,6,0,P|436:336|411:288,1,74.25,8|0,2:0|2:0,2:0:0:0:
255,301,114818,2,0,P|256:253|281:205,1,74.25,0|2,2:0|2:0,2:0:0:0:
335,43,115081,6,0,P|376:78|371:132,1,111.375,0|0,2:0|2:0,2:0:0:0:
364,138,115344,2,0,L|316:131,1,37.125,2|0,2:0|2:0,2:0:0:0:
241,90,115476,1,0,3:0:0:0:
154,213,115608,6,0,L|165:291,2,74.25,8|2|0,2:0|2:0|2:0,2:0:0:0:
85,161,116002,1,0,2:0:0:0:
179,17,116134,6,0,P|169:69|165:98,1,74.25,2|0,3:2|2:0,2:0:0:0:
80,166,116397,2,0,P|28:156|-1:152,1,74.25,0|0,2:0|3:0,2:0:0:0:
7,354,116660,6,0,P|37:300|107:301,1,111.375,8|0,2:0|2:0,2:0:0:0:
91,299,116923,2,0,P|143:289|172:285,1,74.25,0|2,2:0|2:0,2:0:0:0:
413,354,117187,6,0,B|358:354|385:305|283:320,1,111.375,0|0,2:0|2:0,2:0:0:0:
307,322,117450,2,0,P|296:305|303:274,1,37.125,2|0,2:0|2:0,2:0:0:0:
402,204,117581,1,0,3:0:0:0:
290,142,117713,6,0,P|248:149|207:156,1,74.25,8|2,2:0|2:0,2:0:0:0:
427,39,117976,2,0,P|385:32|344:25,1,74.25,0|0,2:0|2:0,2:0:0:0:
419,287,118239,6,0,P|423:209|523:164,1,185.625,2|0,3:2|2:0,2:0:0:0:
510,162,118634,1,0,3:0:0:0:
350,36,118765,6,0,P|357:78|364:119,1,74.25,8|0,2:0|2:0,2:0:0:0:
487,306,119029,2,0,P|445:299|404:292,1,74.25,0|2,2:0|2:0,2:0:0:0:
212,162,119292,6,0,B|299:159|259:231|355:221,1,148.5,0|2,2:0|2:0,2:0:0:0:
409,174,119687,1,0,3:0:0:0:
210,242,119818,6,0,P|205:298|227:333,2,74.25,8|2|0,2:0|2:0|2:0,2:0:0:0:
296,155,120213,1,0,2:0:0:0:
95,123,120344,6,0,B|120:35|211:44|211:44|170:54|158:97,1,219.375,2|0,3:2|2:0,2:0:0:0:
164,83,120739,1,0,3:0:0:0:
111,242,120871,6,0,B|105:257|105:257|182:268,1,74.25,8|0,2:0|2:0,2:0:0:0:
296,155,121134,2,0,P|265:126|227:124,1,74.25,0|2,2:0|2:0,2:0:0:0:
58,302,121397,6,0,P|129:272|181:262,1,111.375,0|0,2:0|2:0,2:0:0:0:
162,264,121660,1,2,2:0:0:0:
183,384,121792,1,0,3:0:0:0:
407,309,121923,6,0,L|345:294,1,37.125,8|0,2:0|2:0,2:0:0:0:
230,219,122055,2,0,L|292:234,1,37.125,10|0,2:0|2:0,2:0:0:0:
372,196,122186,5,0,3:0:0:0:
247,305,122318,1,0,2:0:0:0:
432,383,122450,2,0,P|443:314|484:177,1,185.625,2|0,3:2|2:0,2:0:0:0:
474,202,122844,1,0,3:0:0:0:
300,151,122976,6,0,P|286:106|340:57,1,111.375,8|0,2:0|2:0,2:0:0:0:
335,58,123239,2,0,L|432:86,1,74.25,0|2,2:0|2:0,2:0:0:0:
426,268,123502,6,0,P|385:273|327:283,1,74.25,0|0,2:0|2:0,2:0:0:0:
168,233,123765,2,0,P|174:273|180:332,1,74.25,2|0,2:0|3:0,2:0:0:0:
247,93,124029,6,0,B|231:90|231:90|163:120,2,74.25,8|2|0,2:0|2:0|2:0,2:0:0:0:
300,151,124423,1,0,2:0:0:0:
96,280,124555,6,0,P|78:251|82:206,1,74.25,2|0,3:2|2:0,2:0:0:0:
158,36,124818,2,0,P|170:65|180:115,1,74.25,0|0,2:0|3:0,2:0:0:0:
247,339,125081,6,0,B|239:277|283:301|278:217,1,111.375,8|0,2:0|2:0,2:0:0:0:
280,226,125344,2,0,P|248:203|201:220,1,74.25,0|2,2:0|2:0,2:0:0:0:
322,381,125608,6,0,B|360:374|360:374|383:347|383:347|436:335,1,111.375,0|0,2:0|2:0,2:0:0:0:
419,338,125871,1,2,2:0:0:0:
439,222,126002,1,0,3:0:0:0:
458,105,126134,6,0,P|409:117|354:131,1,74.25,8|2,2:0|2:0,2:0:0:0:
240,123,126397,6,0,P|293:148|276:211,1,111.375,0|0,2:0|2:0,2:0:0:0:
213,215,126660,2,0,P|196:153|243:43,1,185.625,2|0,3:2|2:0,2:0:0:0:
240,44,127055,1,0,3:0:0:0:
3,133,127186,6,0,P|52:125|111:109,1,111.375,8|0,2:0|2:0,2:0:0:0:
111,108,127450,1,0,2:0:0:0:
84,226,127581,1,2,2:0:0:0:
57,344,127713,2,0,P|99:304|167:298,1,111.375,0|0,2:0|2:0,2:0:0:0:
157,302,127976,2,0,P|164:252|171:218,1,74.25,2|0,2:0|3:0,2:0:0:0:
312,14,128239,6,0,P|318:36|315:69,1,37.125,8|0,2:0|2:0,2:0:0:0:
255,171,128371,2,0,L|182:150,2,74.25,2|0|0,2:0|2:0|2:0,2:0:0:0:
456,380,128765,6,0,P|431:326|358:326,1,111.375,2|0,3:2|2:0,2:0:0:0:
377,321,129029,2,0,P|387:262|394:224,1,74.25,0|0,1:0|3:0,2:0:0:0:
391,97,129292,5,8,2:0:0:0:
379,106,129423,2,0,P|379:142|391:170,1,60.75,0|0,1:0|2:0,2:0:0:0:
119,124,129555,6,0,P|147:148|161:175,1,60.75,0|0,1:0|2:0,2:0:0:0:
173,161,129686,2,0,P|172:197|160:225,1,60.75,2|0,1:2|2:0,2:0:0:0:
317,195,129818,6,0,P|301:217|297:251,1,47.25,0|0,1:0|2:0,2:0:0:0:
280,241,129950,2,0,P|286:267|310:292,1,47.25,0|0,1:0|2:0,2:0:0:0:
196,289,130081,6,0,P|212:311|216:345,1,47.25,2|0,1:2|2:0,2:0:0:0:
233,335,130213,2,0,P|226:361|202:386,1,47.25,0|0,3:0|2:0,2:0:0:0:
377,321,130344,6,0,B|396:300|396:300|375:224,1,84.375,8|0,2:0|2:0,2:0:0:0:
183,11,130476,2,0,B|164:32|164:32|185:108,1,84.375,10|0,2:0|2:0,2:0:0:0:
317,195,130608,6,0,P|292:190|268:187,1,40.5,0|0,3:0|2:0,2:0:0:0:
269,195,130871,6,0,P|316:227|378:60,1,297,6|0,3:2|2:0,2:0:0:0:
258,98,131265,1,0,3:0:0:0:
458,285,131397,6,0,P|328:212|162:191,1,303.75,8|0,2:0|2:0,2:0:0:0:
102,246,131792,6,0,B|61:277|61:277|193:324|193:324|184:258,1,243,2|0,2:0|2:0,2:0:0:0:
258,98,132187,6,0,B|227:38|227:38|76:116,1,222.75,2|0,2:0|2:0,2:0:0:0:
176,190,132450,6,0,L|242:181,1,60.75,8|0,2:0|2:0,2:0:0:0:
303,20,132581,1,2,2:0:0:0:
419,227,132713,6,0,P|433:207|431:155,1,70.8749999999999,0|0,2:0|2:0,2:0:0:0:
345,99,132976,6,0,B|308:196|389:248|409:225|465:278|431:376,1,297,2|0,3:2|2:0,2:0:0:0:
235,180,133371,1,0,3:0:0:0:
142,359,133502,6,0,P|275:279|444:223,1,303.75,8|0,2:0|2:0,2:0:0:0:
469,76,133897,6,0,B|404:71|386:-5|386:-5|397:69|330:108,1,243,2|0,2:0|2:0,2:0:0:0:
325,282,134292,6,0,B|268:296|251:359|251:359|256:292|196:241,1,222.75,2|0,2:0|2:0,2:0:0:0:
176,168,134555,6,0,L|260:185,1,60.75,8|0,2:0|2:0,2:0:0:0:
416,144,134687,1,2,2:0:0:0:
260,38,134818,6,0,P|250:73|274:105,1,70.8749999999999,2|0,2:0|2:0,2:0:0:0:
337,176,135081,6,0,B|261:155|202:237|219:243|157:315|63:272,1,297,2|0,3:2|2:0,2:0:0:0:
191,347,135476,1,0,3:0:0:0:
35,139,135608,6,0,B|235:180|235:180|240:234|289:258,1,303.75,8|0,2:0|2:0,2:0:0:0:
349,322,136002,6,0,B|281:339|281:339|346:147,1,243,2|0,2:0|2:0,2:0:0:0:
444,19,136397,6,0,B|512:2|512:2|449:189,1,222.75,2|0,2:0|2:0,2:0:0:0:
466,234,136660,6,0,L|388:205,1,60.75,8|0,2:0|2:0,2:0:0:0:
213,240,136792,1,2,2:0:0:0:
195,22,136923,6,0,P|156:23|113:44,1,70.8749999999999,0|0,2:0|2:0,2:0:0:0:
6,98,137187,6,0,B|61:21|169:35|175:130|166:139|212:173|269:161,1,297,2|0,3:2|2:0,2:0:0:0:
183,315,137581,1,0,3:0:0:0:
81,142,137713,6,0,P|71:202|61:262,1,121.5,8|0,2:0|2:0,2:0:0:0:
183,315,137976,2,0,P|197:315|180:311,1,60.75,0|0,2:0|2:0,2:0:0:0:
257,361,138108,6,0,B|380:376|343:182|408:313|468:284,1,243,2|0,2:0|2:0,2:0:0:0:
251,244,138502,6,0,B|378:254|309:370|449:376,1,222.75,2|0,2:0|2:0,2:0:0:0:
468,281,138765,6,0,P|467:242|441:210,1,67.5,8|0,2:3|2:0,2:0:0:0:
510,118,138897,2,0,P|478:95|437:96,1,67.5,10|0,2:0|2:0,2:0:0:0:
383,135,139029,6,0,L|388:179,3,40.4999987640381,8|0|0|0,3:0|2:0|2:0|2:0,2:0:0:0:
300,42,139292,6,0,P|254:155|173:335,1,297,2|0,3:2|2:0,2:0:0:0:
298,164,139687,1,0,3:0:0:0:
257,361,139818,6,0,B|218:255|126:249|126:249|141:183|214:182,1,303.75,8|0,2:0|2:0,2:0:0:0:
306,271,140213,6,0,P|235:277|68:322,1,243,2|0,2:0|2:0,2:0:0:0:
107,82,140608,6,0,B|167:37|167:37|126:190,1,222.75,2|0,2:0|2:0,2:0:0:0:
67,327,140871,6,0,P|44:293|54:256,1,60.75,8|0,2:0|2:0,2:0:0:0:
213,182,141002,1,2,2:0:0:0:
111,77,141134,6,0,L|34:95,1,70.8749999999999,0|0,2:0|2:0,2:0:0:0:
37,195,141397,6,0,B|165:186|62:71|193:6|243:42|243:42|217:91,1,297,2|0,3:2|2:0,2:0:0:0:
231,255,141792,1,0,3:0:0:0:
472,248,141923,6,0,B|425:167|352:213|256:178|256:178|248:125|294:108,1,303.75,8|0,2:0|2:0,2:0:0:0:
366,74,142318,6,0,B|401:146|353:191|333:179|285:231|326:307,1,243,2|0,2:0|2:0,2:0:0:0:
484,377,142713,6,0,B|510:311|478:266|449:277|415:239|459:152,1,222.75,2|0,2:0|2:0,2:0:0:0:
495,45,142976,6,0,L|418:22,1,60.75,8|0,2:0|2:0,2:0:0:0:
275,117,143108,1,2,2:0:0:0:
472,248,143239,6,0,P|443:274|439:317,1,70.8749999999999,2|0,2:0|2:0,2:0:0:0:
484,377,143502,6,0,P|345:318|195:290,1,297,2|0,3:2|2:0,2:0:0:0:
316,183,143897,1,0,3:0:0:0:
106,245,144029,6,0,B|107:220|95:203|95:203|208:218|208:218|167:282|154:371,1,303.75,8|0,2:0|2:0,2:0:0:0:
48,307,144423,6,0,P|37:297|43:236,1,60.75,2|0,2:0|2:0,2:0:0:0:
151,68,144555,2,0,P|126:147|102:264,1,182.25,2|0,2:0|2:0,2:0:0:0:
5,147,144818,6,0,B|42:118|37:64|37:64|49:119|103:132,1,182.25,2|0,2:0|2:0,2:0:0:0:
245,271,145081,6,0,B|234:288|237:305|237:305|227:292|202:290,1,74.2499999999999,10|0,2:0|2:0,2:0:0:0:
160,173,145213,1,2,2:0:0:0:
324,309,145344,6,0,P|360:295|397:284,1,70.8749999999999,0|0,2:0|2:0,2:0:0:0:
422,362,145608,6,0,B|385:297|426:255|442:273|484:221|443:145,1,222.75,2|0,3:2|2:0,2:0:0:0:
329,132,145871,2,0,B|305:131|288:145|288:145|345:158|382:209,1,148.5,0|0,2:0|3:0,2:0:0:0:
484,52,146134,6,0,B|364:58|440:134|295:133,1,182.25,10|0,2:0|2:0,2:0:0:0:
276,55,146397,2,0,B|257:27|267:10|267:10|287:35|336:49,1,121.5,0|2,2:0|2:0,2:0:0:0:
374,200,146660,6,0,P|309:220|239:266,1,121.5,2|0,2:0|2:0,2:0:0:0:
16,189,146923,6,0,P|124:195|172:84,1,222.75,2|0,2:0|2:0,2:0:0:0:
35,62,147186,6,0,P|28:29|5:6,1,67.5,8|0,2:3|2:0,2:0:0:0:
174,202,147318,2,0,P|167:242|130:271,1,67.5,10|0,2:0|2:0,2:0:0:0:
94,160,147450,6,0,L|85:119,3,40.4999987640381,8|0|0|0,3:0|2:0|2:0|2:0,2:0:0:0:
70,241,147713,6,0,B|172:251|110:345|241:334,1,182.25,6|0,3:2|2:0,2:0:0:0:
293,326,147976,2,0,B|320:312|320:312|267:319,1,60.75,0|0,2:0|2:0,2:0:0:0:
212,342,148108,6,0,P|149:355|84:371,2,121.5,0|8|0,3:0|2:0|2:0,2:0:0:0:
259,218,148502,2,0,P|318:232|377:244,1,121.5,0|2,2:0|2:0,2:0:0:0:
397,14,148765,6,0,B|378:136|474:78|439:225,1,182.25,0|0,2:0|2:0,2:0:0:0:
503,232,149029,2,0,B|507:247|507:247|461:259,1,60.75,2|0,2:0|2:0,2:0:0:0:
367,167,149160,1,0,3:0:0:0:
464,337,149292,6,0,L|529:321,1,47.25,8|2,2:0|2:0,2:0:0:0:
401,384,149555,2,0,L|355:372,1,47.25,0|0,2:0|2:0,2:0:0:0:
446,181,149818,6,0,P|347:205|265:281,1,182.25,2|0,3:2|2:0,2:0:0:0:
228,309,150081,2,0,P|249:329|300:320,1,60.75,0|0,2:0|2:0,2:0:0:0:
285,247,150213,6,0,L|257:94,2,121.5,0|8|0,3:0|2:0|2:0,2:0:0:0:
150,377,150608,2,0,L|128:257,1,121.5,0|2,2:0|2:0,2:0:0:0:
203,75,150871,6,0,B|152:110|72:68|72:68|102:94|106:127,1,182.25,0|0,2:0|2:0,2:0:0:0:
47,255,151134,6,0,P|22:236|14:196,1,60.75,2|0,2:0|2:0,2:0:0:0:
26,134,151265,1,0,3:0:0:0:
206,201,151397,6,0,L|215:147,1,47.25,8|2,2:0|2:0,2:0:0:0:
294,168,151660,2,0,L|285:222,1,47.25,2|2,2:0|2:0,2:0:0:0:
128,257,151923,6,0,P|246:231|339:314,1,243,2|0,3:2|2:0,2:0:0:0:
468,176,152318,2,0,L|405:157,1,60.75,0|0,3:0|2:0,2:0:0:0:
353,90,152450,6,0,B|234:121|234:121|192:105|205:32,1,182.25,8|0,2:0|2:0,2:0:0:0:
268,14,152713,2,0,B|301:-6|301:-6|273:98,1,121.5,0|2,2:0|2:0,2:0:0:0:
128,257,152976,6,0,B|65:294|65:294|116:127,2,243,0|2|8,2:0|2:0|2:0,2:0:0:0:
183,185,153634,1,2,2:0:0:0:
266,370,153765,6,0,B|315:359|315:359|362:289|362:289|421:279,1,182.25,0|0,2:0|2:0,2:0:0:0:
413,274,154029,6,0,B|310:264|379:185|224:191,1,182.25,2|0,3:2|2:0,2:0:0:0:
218,263,154292,2,0,B|192:296|192:296|283:274,1,121.5,0|0,2:0|3:0,2:0:0:0:
487,113,154555,6,0,B|470:74|470:74|374:62|353:141,1,182.25,8|0,2:0|2:0,2:0:0:0:
411,191,154818,2,0,B|442:183|478:191|478:191|415:162,1,121.5,0|2,2:0|2:0,2:0:0:0:
222,13,155081,6,0,P|250:133|266:247,1,182.25,0|0,2:0|2:0,2:0:0:0:
218,263,155344,2,0,P|166:232|182:164,1,121.5,2|0,2:0|3:0,2:0:0:0:
307,38,155608,6,0,L|373:56,1,60.75,8|0,2:3|2:0,2:0:0:0:
204,90,155739,2,0,L|145:105,1,60.75,10|0,2:0|2:0,2:0:0:0:
31,12,155871,6,0,L|19:56,3,40.4999987640381,8|0|0|0,3:0|2:0|2:0|2:0,2:0:0:0:
104,42,156134,6,0,P|117:164|131:312,1,243,2|0,3:2|2:0,2:0:0:0:
275,357,156529,2,0,B|304:338|304:338|269:340,1,60.75,0|0,3:0|2:0,2:0:0:0:
195,350,156660,6,0,B|92:349|142:262|25:272,1,182.25,8|0,2:0|2:0,2:0:0:0:
64,364,156923,2,0,P|112:347|123:272,1,121.5,0|2,2:0|2:0,2:0:0:0:
202,69,157186,6,0,B|202:110|175:128|175:128|204:265,1,182.25,0|0,2:0|2:0,2:0:0:0:
271,264,157450,2,0,P|284:246|281:203,1,60.75,2|0,2:0|2:0,2:0:0:0:
127,65,157581,1,0,3:0:0:0:
17,189,157713,6,0,L|72:199,1,47.25,8|2,2:0|2:0,2:0:0:0:
29,117,157976,2,0,L|84:127,1,47.25,0|0,2:0|2:0,2:0:0:0:
347,75,158239,6,0,B|280:53|213:101|223:107|215:177|140:171,1,243,2|0,3:2|2:0,2:0:0:0:
312,355,158634,2,0,L|323:288,1,60.75,0|0,3:0|2:0,2:0:0:0:
401,293,158765,6,0,B|346:282|346:282|318:231|318:231|237:217,1,182.25,8|0,2:0|2:0,2:0:0:0:
225,147,159029,2,0,B|219:87|219:87|252:154,1,121.5,0|2,2:0|2:0,2:0:0:0:
315,362,159292,6,0,B|359:327|435:335|435:335|403:313|397:280,1,182.25,0|0,2:0|2:0,2:0:0:0:
468,209,159555,2,0,P|482:229|461:276,1,60.75,2|0,2:0|2:0,2:0:0:0:
339,219,159686,1,0,3:0:0:0:
481,125,159818,6,0,L|435:139,1,47.25,8|2,2:0|2:0,2:0:0:0:
493,35,160081,2,0,L|447:49,1,47.25,2|2,2:0|2:0,2:0:0:0:
339,219,160344,6,0,P|256:178|159:161,1,182.25,2|0,3:2|2:0,2:0:0:0:
107,221,160608,2,0,B|93:264|93:264|186:232,1,121.5,0|0,2:0|3:0,2:0:0:0:
324,48,160871,6,0,B|308:160|308:160|340:181|339:228,1,182.25,8|0,2:0|2:0,2:0:0:0:
296,312,161134,2,0,P|256:290|277:207,1,121.5,0|2,2:0|2:0,2:0:0:0:
481,125,161397,6,0,B|455:169|408:169|408:169|350:106|262:142,2,243,0|2|8,2:0|2:0|2:0,2:0:0:0:
414,74,162055,1,2,2:0:0:0:
338,218,162186,6,0,L|355:157,1,47.25,0|0,2:0|2:0,2:0:0:0:
324,48,162450,5,2,2:0:0:0:
249,14,162713,1,0,2:0:0:0:
249,14,162844,1,0,2:0:0:0:
130,118,162976,5,2,2:0:0:0:
207,91,163239,1,0,2:0:0:0:
207,91,163371,1,2,2:0:0:0:
85,0,163502,5,2,2:0:0:0:
37,63,163765,2,0,L|44:123,1,54,2|0,2:0|2:0,2:0:0:0:
67,271,164029,5,2,2:0:0:0:
123,213,164160,5,2,2:0:0:0:
123,213,164292,1,0,2:0:0:0:
422,359,164555,1,2,3:2:0:0:
422,359,172450,6,0,L|413:316,1,37.125,8|0,2:0|2:0,2:0:0:0:
396,238,172581,2,0,L|387:195,1,37.125,10|0,2:0|2:0,2:0:0:0:
366,106,172713,6,0,L|353:48,1,50.625,0|0,3:0|2:0,2:0:0:0:
351,43,172976,5,0,2:0:0:0:
245,43,173108,1,0,2:0:0:0:
351,43,173239,6,0,P|325:61|310:92,1,57.375,0|0,1:0|2:0,2:0:0:0:
238,120,173371,2,0,P|237:151|254:181,1,57.375,0|0,1:0|2:0,2:0:0:0:
342,326,173502,6,0,B|310:262|238:220|137:254|186:375|247:334,1,270,4|0,2:1|2:0,2:0:0:0:
292,244,173897,1,2,2:0:0:0:
230,120,174029,6,0,L|63:161,1,148.5,0|2,2:0|2:0,2:0:0:0:
14,172,174423,1,0,3:0:0:0:
109,287,174555,6,0,P|135:261|120:206,1,74.25,8|2,2:0|2:0,2:0:0:0:
58,36,174818,2,0,P|32:62|47:117,1,74.25,0|0,2:0|2:0,2:0:0:0:
142,228,175081,6,0,L|292:256,1,148.5,2|0,3:2|2:0,2:0:0:0:
341,315,175476,1,0,3:0:0:0:
221,209,175608,2,0,L|228:173,1,37.125,8|0,2:0|2:0,2:0:0:0:
367,24,175739,5,2,2:0:0:0:
395,95,175871,1,2,2:0:0:0:
475,107,176002,1,2,2:0:0:0:
436,251,176134,5,2,2:0:0:0:
360,229,176265,1,2,2:0:0:0:
287,255,176397,1,2,2:0:0:0:
257,324,176529,1,2,3:2:0:0:
184,197,176660,5,10,2:0:0:0:
153,120,176792,1,2,2:0:0:0:
101,207,176923,5,2,2:0:0:0:
94,223,177055,1,2,2:0:0:0:
41,55,177186,6,0,P|82:121|171:112,1,148.5,2|0,3:2|2:0,2:0:0:0:
191,54,177581,1,0,3:0:0:0:
258,191,177713,6,0,P|270:98|288:25,1,148.5,10|0,2:0|2:0,2:0:0:0:
282,44,178108,1,2,2:0:0:0:
315,266,178239,6,0,P|303:173|285:100,1,148.5,2|2,2:0|2:0,2:0:0:0:
290,119,178634,1,0,3:0:0:0:
233,337,178765,6,0,P|245:244|263:171,1,148.5,10|0,2:0|2:0,2:0:0:0:
257,190,179160,1,0,2:0:0:0:
350,334,179292,6,0,P|342:296|302:255,1,74.25,2|0,3:2|2:0,2:0:0:0:
257,190,179555,2,0,P|221:174|164:184,1,74.25,0|0,2:0|3:0,2:0:0:0:
138,305,179818,6,0,P|174:290|207:244,1,74.25,10|0,2:0|2:0,2:0:0:0:
257,190,180081,2,0,P|265:152|246:98,1,74.25,0|0,3:0|3:0,2:0:0:0:
414,225,180344,6,0,P|377:210|344:164,1,74.25,0|8,2:0|2:0,2:0:0:0:
258,118,180608,2,0,P|249:80|268:26,1,74.25,0|0,3:0|3:0,2:0:0:0:
256,46,180871,6,0,L|263:100,1,37.125,4|0,2:1|2:0,2:0:0:0:
263,194,181002,2,0,L|269:247,1,37.125,8|0,2:0|2:0,2:0:0:0:
275,337,181134,1,0,3:0:0:0:
275,337,181397,6,0,P|205:299|132:311,1,148.5,6|0,3:2|2:0,2:0:0:0:
85,366,181792,1,0,3:0:0:0:
87,112,181923,6,0,L|112:228,1,111.375,8|0,2:0|2:0,2:0:0:0:
109,230,182186,2,0,P|76:244|30:230,1,74.25,0|2,2:0|2:0,2:0:0:0:
159,79,182450,6,0,P|96:87|40:10,2,148.5,0|2|8,2:0|2:0|2:0,2:0:0:0:
398,31,183239,1,0,2:0:0:0:
398,31,183371,1,0,2:0:0:0:
337,84,183502,6,0,L|358:215,1,111.375,2|0,3:2|2:0,2:0:0:0:
352,204,183765,2,0,P|318:191|280:192,1,74.25,0|0,2:0|3:0,2:0:0:0:
410,349,184029,6,0,L|437:190,1,148.5,8|0,2:0|2:0,2:0:0:0:
231,251,184423,1,2,2:0:0:0:
355,211,184555,6,0,L|428:197,1,74.25,0|0,2:0|2:0,2:0:0:0:
228,256,184818,2,0,L|155:270,1,74.25,2|0,2:0|3:0,2:0:0:0:
322,372,185081,6,0,L|333:320,1,37.125,8|0,2:0|2:0,2:0:0:0:
305,266,185213,2,0,B|264:253|264:253|231:202|231:202|172:184,1,148.5,2|0,2:0|2:0,2:0:0:0:
460,83,185608,6,0,P|401:132|310:122,1,148.5,2|0,3:2|2:0,2:0:0:0:
290,66,186002,1,0,3:0:0:0:
389,270,186134,6,0,L|405:141,1,111.375,8|0,2:0|2:0,2:0:0:0:
404,151,186397,2,0,P|379:132|314:136,1,74.25,0|2,2:0|2:0,2:0:0:0:
231,14,186660,6,0,P|246:76|206:134,1,111.375,0|0,2:0|2:0,2:0:0:0:
218,122,186923,2,0,L|128:108,1,74.25,2|0,2:0|3:0,2:0:0:0:
42,26,187186,5,8,2:0:0:0:
42,26,187318,1,2,2:0:0:0:
15,172,187450,2,0,P|44:152|93:158,1,74.25,0|0,2:0|2:0,2:0:0:0:
191,305,187713,6,0,B|122:303|165:223|45:233,2,148.5,2|0|8,3:2|2:0|2:0,2:0:0:0:
393,219,188502,1,0,2:0:0:0:
393,219,188634,1,2,2:0:0:0:
358,373,188765,6,0,P|314:317|332:276,1,111.375,0|0,2:0|2:0,2:0:0:0:
329,277,189029,2,0,L|240:256,1,74.25,2|0,2:0|3:0,2:0:0:0:
256,259,189292,6,0,L|322:245,1,37.125,8|0,2:0|2:0,2:0:0:0:
393,219,189423,2,0,L|458:204,1,37.125,10|0,2:0|2:0,2:0:0:0:
499,156,189555,1,0,3:0:0:0:
508,81,189686,1,0,2:0:0:0:
417,31,189818,6,0,P|353:62|272:95,1,148.5,6|0,3:2|2:0,2:0:0:0:
281,91,190213,1,0,3:0:0:0:
122,86,190344,6,0,P|154:37|216:45,1,111.375,8|0,2:0|2:0,2:0:0:0:
210,44,190608,2,0,L|197:135,1,74.25,0|2,2:0|2:0,2:0:0:0:
153,318,190871,6,0,L|128:148,1,148.5,0|2,2:0|2:0,2:0:0:0:
46,43,191265,1,0,3:0:0:0:
131,164,191397,6,0,L|118:255,1,74.25,8|2,2:0|2:0,2:0:0:0:
10,373,191660,2,0,L|101:360,1,74.25,0|0,2:0|2:0,2:0:0:0:
304,303,191923,6,0,P|281:231|185:223,2,148.5,2|0|8,3:2|2:0|2:0,2:0:0:0:
53,170,192713,1,0,2:0:0:0:
53,170,192844,1,2,2:0:0:0:
122,86,192976,6,0,P|184:107|282:122,1,148.5,0|2,2:0|2:0,2:0:0:0:
172,276,193371,1,0,3:0:0:0:
318,232,193502,6,0,L|325:182,1,37.125,8|0,2:0|2:0,2:0:0:0:
270,127,193634,2,0,P|314:170|422:157,1,148.5,2|0,2:0|2:0,2:0:0:0:
466,371,194029,6,0,B|397:362|423:309|330:306,2,148.5,2|0|8,3:2|2:0|2:0,2:0:0:0:
466,371,194818,2,0,L|480:275,1,74.25,0|2,2:0|2:0,2:0:0:0:
460,132,195081,6,0,P|421:185|454:247,1,111.375,0|0,2:0|2:0,2:0:0:0:
430,236,195344,2,0,P|419:201|378:158,1,74.25,2|0,2:0|3:0,2:0:0:0:
400,23,195608,5,8,2:0:0:0:
257,136,195739,2,0,P|298:162|344:144,2,74.25,2|0|0,2:0|2:0|2:0,2:0:0:0:
111,20,196134,5,2,2:0:0:0:
111,20,196660,5,2,2:0:0:0:
111,20,197055,6,0,L|117:133,1,108,2|0,2:0|2:0,2:0:0:0:
127,142,197450,6,0,L|121:29,1,108,2|2,2:0|2:0,2:0:0:0:
35,69,197844,6,0,L|37:112,1,40.5,2|4,2:0|2:1,2:0:0:0:
36,109,199292,5,2,2:0:0:0:
256,192,200344,5,2,2:0:0:0:
256,192,201397,5,2,2:0:0:0:
190,239,201660,1,2,2:0:0:0:
113,207,201923,1,2,2:0:0:0:
47,254,202186,1,2,2:0:0:0:
256,192,202450,5,2,2:0:0:0:
256,192,203502,5,2,2:0:0:0:
256,192,204555,5,2,2:0:0:0:
50,120,205081,1,2,2:0:0:0:
231,54,205608,1,2,2:0:0:0:
199,127,206134,1,2,2:0:0:0:
11,26,206660,6,0,L|16:59,1,30.375,2|0,3:2|2:0,2:0:0:0:
80,105,207186,2,0,L|86:138,1,30.375,0|0,3:0|2:0,2:0:0:0:
130,267,207713,6,0,L|96:263,1,30.375,2|0,3:2|2:0,2:0:0:0:
15,209,208239,2,0,L|48:204,1,30.375,0|0,3:0|2:0,2:0:0:0:
157,165,208765,6,0,P|167:182|171:196,1,30.375,2|0,3:2|2:0,2:0:0:0:
234,240,209292,2,0,P|224:257|220:270,1,30.375,0|0,3:0|2:0,2:0:0:0:
275,347,209818,5,2,3:2:0:0:
314,274,210081,1,2,2:0:0:0:
391,251,210344,1,2,3:2:0:0:
463,286,210608,1,2,2:0:0:0:
490,358,210871,6,0,P|481:284|489:207,1,141.75,2|0,3:2|2:0,2:0:0:0:
495,208,211397,2,0,P|445:155|380:164,1,141.75,0|0,3:2|2:0,2:0:0:0:
319,250,211923,6,0,B|294:189|325:161|336:170|374:131|342:61,1,189,2|0,3:2|2:0,2:0:0:0:
352,67,212450,2,0,P|278:89|167:131,1,189,2|0,3:2|2:0,2:0:0:0:
96,94,212976,6,0,P|101:77|121:64,3,36,8|0|0|0,2:3|2:0|2:0|2:0,2:0:0:0:
128,214,213239,6,0,P|116:200|118:179,3,31.5,8|0|0|0,2:3|2:0|2:0|2:0,2:0:0:0:
245,202,213502,6,0,P|227:203|210:190,3,27,8|0|0|0,2:3|2:0|2:0|2:0,2:0:0:0:
275,100,213765,6,0,P|265:115|248:121,3,22.5,8|0|0|0,2:3|2:0|2:0|2:0,2:0:0:0:
195,38,214029,5,0,2:0:0:0:
195,38,214555,6,0,L|184:99,1,54,8|0,2:0|2:0,2:0:0:0:
116,186,214686,2,0,L|105:247,1,54,8|0,2:0|2:0,2:0:0:0:
32,358,214818,5,0,3:0:0:0:
32,358,215081,6,1,B|56:359|63:336|63:336|53:292|53:292|60:273|79:271|79:271|167:291|167:291|143:296|130:317,2,243.000000000016,4|0|0,3:2|2:0|2:0,2:0:0:0:
354,297,216002,6,1,B|325:298|316:270|316:270|328:217|328:217|320:195|297:192|297:192|192:216|192:216|220:222|236:247,1,303.750000000021,2|0,2:0|2:0,2:0:0:0:
282,359,216397,2,0,P|342:322|451:307,1,182.250000000012,2|0,2:0|2:0,2:0:0:0:
459,316,216660,6,0,L|441:243,1,60.7500000000041,8|0,2:0|2:0,2:0:0:0:
421,170,216792,2,0,L|403:97,1,60.7500000000041,10|0,2:0|2:0,2:0:0:0:
451,46,216923,6,0,L|419:213,1,131.625000000012,0|0,3:0|2:0,2:0:0:0:
444,257,217186,6,0,B|376:154|266:140|266:140|237:177|177:172,1,297,6|0,3:2|2:0,2:0:0:0:
18,172,217581,1,0,3:0:0:0:
166,18,217713,6,0,L|144:344,1,303.75,8|0,2:0|2:0,2:0:0:0:
61,334,218108,6,0,B|4:344|-13:282|29:217|120:245|155:329,1,243,2|0,2:0|2:0,2:0:0:0:
246,24,218502,6,0,B|289:-13|336:30|333:107|241:130|168:76,1,222.75,2|0,2:0|2:0,2:0:0:0:
126,137,218765,2,0,L|107:61,1,60.75,8|0,2:0|2:0,2:0:0:0:
14,15,218897,1,2,2:0:0:0:
18,172,219029,6,0,P|53:205|58:231,1,70.8749999999999,2|0,2:0|2:0,2:0:0:0:
0,278,219292,6,0,P|118:228|291:197,1,297,2|0,3:2|2:0,2:0:0:0:
452,222,219686,1,0,3:0:0:0:
304,339,219818,6,0,B|259:251|316:178|328:221|387:137|313:29,1,303.75,8|0,2:0|2:0,2:0:0:0:
246,24,220213,6,0,B|243:84|243:84|441:99,1,243,2|0,2:0|2:0,2:0:0:0:
330,271,220608,6,0,B|491:254|491:254|499:314,1,222.75,2|0,2:0|2:0,2:0:0:0:
398,351,220871,6,0,L|413:278,1,60.75,8|0,2:0|2:0,2:0:0:0:
494,147,221002,1,2,2:0:0:0:
353,188,221134,6,0,L|280:197,1,70.8749999999999,0|0,2:0|2:0,2:0:0:0:
198,180,221397,6,0,B|281:212|242:334|242:334|212:270|151:263,1,297,2|0,3:2|2:0,2:0:0:0:
37,160,221792,1,0,3:0:0:0:
53,366,221923,6,0,B|58:351|76:334|76:334|119:327|158:353,1,121.5,8|0,2:0|2:0,2:0:0:0:
279,277,222186,2,0,P|296:285|273:284,1,60.75,0|0,2:0|2:0,2:0:0:0:
155,263,222318,6,0,B|134:191|182:156|192:165|248:118|220:40,1,243,2|0,2:0|2:0,2:0:0:0:
48,0,222713,6,0,B|29:68|81:100|104:92|134:135|116:196,1,222.75,2|0,2:0|2:0,2:0:0:0:
265,182,222976,6,0,P|258:146|241:110,1,67.5,8|0,2:3|2:0,2:0:0:0:
409,204,223108,2,0,P|426:175|436:143,1,67.5,10|0,2:0|2:0,2:0:0:0:
319,19,223239,6,0,L|274:6,3,40.4999987640381,8|0|0|0,3:0|2:0|2:0|2:0,2:0:0:0:
396,17,223502,6,0,B|344:29|324:92|324:92|407:46|521:50,1,297,2|0,3:2|2:0,2:0:0:0:
342,167,223897,1,0,3:0:0:0:
458,311,224029,6,0,P|420:183|403:10,1,303.75,8|0,2:0|2:0,2:0:0:0:
511,42,224423,6,0,B|542:95|500:125|500:125|350:87,1,243,2|0,2:0|2:0,2:0:0:0:
469,304,224818,6,0,B|494:253|452:223|452:223|302:261,1,222.75,2|0,2:0|2:0,2:0:0:0:
245,243,225081,6,0,L|259:301,1,60.75,8|0,2:0|2:0,2:0:0:0:
356,381,225213,1,2,2:0:0:0:
419,133,225344,6,0,P|411:162|376:197,1,70.8749999999999,0|0,2:0|2:0,2:0:0:0:
399,268,225608,6,0,P|326:205|145:84,1,297,2|0,3:2|2:0,2:0:0:0:
14,100,226002,1,0,3:0:0:0:
150,19,226134,6,0,B|195:17|226:5|226:5|184:106|163:235,1,303.75,8|0,2:0|2:0,2:0:0:0:
174,303,226529,6,0,B|206:367|276:347|276:347|303:276|241:240,1,243,2|0,2:0|2:0,2:0:0:0:
78,43,226923,6,0,B|32:89|74:146|74:146|140:150|168:72,1,222.75,2|0,2:0|2:0,2:0:0:0:
210,13,227186,6,0,L|150:19,1,60.75,8|0,2:0|2:0,2:0:0:0:
14,100,227318,1,2,2:0:0:0:
80,244,227450,6,0,P|86:206|68:163,1,70.8749999999999,2|0,2:0|2:0,2:0:0:0:
0,258,227713,6,0,B|84:240|143:313|130:324|172:381|266:362,1,297,2|0,3:2|2:0,2:0:0:0:
178,192,228108,1,0,3:0:0:0:
32,340,228239,6,0,B|236:258|236:258|268:290|328:282,1,303.75,8|0,2:0|2:0,2:0:0:0:
305,203,228634,6,0,B|310:191|294:178|294:178|278:198|297:208,1,60.75,2|0,2:0|2:0,2:0:0:0:
343,365,228765,2,0,P|349:302|409:192,1,182.25,2|0,2:0|2:0,2:0:0:0:
509,97,229029,6,0,B|474:126|483:177|483:177|468:128|402:112,1,182.25,2|0,2:0|2:0,2:0:0:0:
401,4,229292,6,0,P|440:17|449:53,1,74.2499999999999,10|0,2:0|2:0,2:0:0:0:
403,197,229423,1,2,2:0:0:0:
281,82,229555,6,0,L|370:69,1,70.8749999999999,0|0,2:0|2:0,2:0:0:0:
416,116,229818,6,0,P|447:212|459:348,1,222.75,2|0,3:2|2:0,2:0:0:0:
343,365,230081,2,0,P|317:314|384:272,1,148.5,0|0,2:0|3:0,2:0:0:0:
206,163,230344,6,0,P|214:273|237:356,1,182.25,10|0,2:0|2:0,2:0:0:0:
343,365,230608,2,0,P|352:311|302:272,1,121.5,0|2,2:0|2:0,2:0:0:0:
91,381,230871,6,0,B|60:362|60:362|95:256,1,121.5,2|0,2:0|2:0,2:0:0:0:
240,50,231134,6,0,B|287:79|287:79|233:243,1,222.75,2|0,2:0|2:0,2:0:0:0:
171,292,231397,6,0,L|147:200,1,67.5,8|0,2:3|2:0,2:0:0:0:
116,77,231529,2,0,L|92:-15,1,67.5,10|0,2:0|2:0,2:0:0:0:
63,209,231660,6,0,L|16:195,3,40.4999987640381,8|0|0|0,3:0|2:0|2:0|2:0,2:0:0:0:
133,150,231923,6,0,B|77:83|-22:110|-22:110|-3:72|44:50,1,243,6|0,3:2|2:0,2:0:0:0:
240,50,232318,2,0,P|258:35|261:-4,1,60.75,0|0,3:0|2:0,2:0:0:0:
176,3,232450,6,0,P|215:91|222:206,1,182.25,8|0,2:0|2:0,2:0:0:0:
153,226,232713,2,0,B|107:225|107:225|151:119,1,121.5,0|2,2:0|2:0,2:0:0:0:
334,52,232976,6,0,B|369:57|369:57|432:157|432:157|479:165,1,182.25,0|0,2:0|2:0,2:0:0:0:
480,82,233239,2,0,L|398:100,1,60.75,2|0,2:0|2:0,2:0:0:0:
224,175,233371,1,0,3:0:0:0:
390,269,233502,6,0,P|389:242|385:204,1,47.25,8|2,2:0|2:0,2:0:0:0:
465,167,233765,2,0,P|466:194|470:232,1,47.25,0|0,2:0|2:0,2:0:0:0:
299,129,234029,6,0,P|308:261|317:385,1,243,2|0,3:2|2:0,2:0:0:0:
479,296,234423,1,0,3:0:0:0:
280,235,234555,6,0,B|224:273|166:282|166:282|200:285|230:323,1,182.25,8|0,2:0|2:0,2:0:0:0:
152,362,234818,2,0,P|99:332|86:271,1,121.5,0|2,2:0|2:0,2:0:0:0:
36,105,235081,6,0,B|141:103|100:191|232:178,1,182.25,0|0,2:0|2:0,2:0:0:0:
222,98,235344,2,0,B|232:83|232:83|215:90|185:97,1,60.75,2|0,2:0|2:0,2:0:0:0:
46,188,235476,1,0,3:0:0:0:
139,5,235608,6,0,L|129:54,1,47.25,8|2,2:0|2:0,2:0:0:0:
41,64,235871,2,0,L|31:113,1,47.25,2|2,2:0|2:0,2:0:0:0:
195,178,236134,6,0,B|244:110|343:110|343:110|359:150|412:160,1,243,2|0,3:2|2:0,2:0:0:0:
484,35,236529,2,0,P|467:12|435:1,1,60.75,0|0,3:0|2:0,2:0:0:0:
417,77,236660,6,0,P|428:189|447:292,1,182.25,8|0,2:0|2:0,2:0:0:0:
419,333,236923,2,0,B|387:322|338:314|338:314|360:292|406:295,1,121.5,0|2,2:0|2:0,2:0:0:0:
336,74,237186,6,0,B|288:125|193:123|193:123|220:154|278:151,2,243,0|2|8,2:0|2:0|2:0,2:0:0:0:
363,2,237844,1,2,2:0:0:0:
456,148,237976,6,0,P|431:218|418:333,1,182.25,0|0,2:0|2:0,2:0:0:0:
419,333,238239,6,0,P|354:276|254:297,1,182.25,2|0,3:2|2:0,2:0:0:0:
216,344,238502,2,0,B|207:379|207:379|293:361,1,121.5,0|0,2:0|3:0,2:0:0:0:
264,150,238765,6,0,P|208:216|106:211,1,182.25,8|0,2:0|2:0,2:0:0:0:
100,143,239029,2,0,B|96:125|75:113|75:113|130:112|145:150,1,121.5,0|2,2:0|2:0,2:0:0:0:
52,356,239292,6,0,P|45:264|19:148,1,182.25,0|0,2:0|2:0,2:0:0:0:
52,41,239555,2,0,P|103:89|101:142,1,121.5,2|0,2:0|3:0,2:0:0:0:
86,287,239818,6,0,P|111:298|159:290,1,60.75,8|0,2:3|2:0,2:0:0:0:
290,360,239950,2,0,P|312:346|333:302,1,60.75,10|0,2:0|2:0,2:0:0:0:
228,268,240081,6,0,L|234:309,3,40.4999987640381,8|0|0|0,3:0|2:0|2:0|2:0,2:0:0:0:
201,198,240344,6,0,P|291:259|438:301,1,243,2|0,3:2|2:0,2:0:0:0:
459,115,240739,2,0,L|363:98,1,60.75,0|0,3:0|2:0,2:0:0:0:
325,12,240871,6,0,B|311:113|393:88|386:180,1,182.25,8|0,2:0|2:0,2:0:0:0:
358,245,241134,2,0,P|310:233|324:155,1,121.5,0|2,2:0|2:0,2:0:0:0:
403,26,241397,6,0,P|286:51|206:76,1,182.25,0|0,2:0|2:0,2:0:0:0:
142,51,241660,2,0,L|161:137,1,60.75,2|0,2:0|2:0,2:0:0:0:
256,228,241792,1,0,3:0:0:0:
120,274,241923,6,0,L|71:286,1,47.25,8|2,2:0|2:0,2:0:0:0:
97,200,242186,2,0,L|48:212,1,47.25,0|0,2:0|2:0,2:0:0:0:
213,321,242450,6,0,P|134:234|152:118,1,243,2|0,3:2|2:0,2:0:0:0:
305,169,242844,1,0,3:0:0:0:
60,126,242976,6,0,B|155:142|118:55|256:70,1,182.25,8|0,2:0|2:0,2:0:0:0:
295,36,243239,2,0,B|334:19|334:19|237:-6,1,121.5,0|2,2:0|2:0,2:0:0:0:
79,43,243502,6,0,P|110:138|105:253,1,182.25,0|0,2:0|2:0,2:0:0:0:
185,248,243765,2,0,P|216:227|232:171,1,60.75,2|0,2:0|2:0,2:0:0:0:
225,68,243897,1,0,3:0:0:0:
386,186,244029,6,0,L|375:245,1,47.25,8|2,2:0|2:0,2:0:0:0:
313,122,244292,2,0,L|302:181,1,47.25,2|2,2:0|2:0,2:0:0:0:
463,342,244555,6,0,P|426:295|290:281,1,182.25,2|0,3:2|2:0,2:0:0:0:
337,349,244818,2,0,B|358:387|358:387|370:335|413:285,1,121.5,0|0,2:0|3:0,2:0:0:0:
438,2,245081,6,0,P|453:121|468:191,1,182.25,8|0,2:0|2:0,2:0:0:0:
462,266,245344,2,0,P|442:212|369:188,1,121.5,0|2,2:0|2:0,2:0:0:0:
193,148,245608,6,0,P|283:151|362:33,2,243,0|2|8,2:0|2:0|2:0,2:0:0:0:
206,74,246265,1,2,2:0:0:0:
41,223,246397,6,0,L|116:212,1,70.8749999999999,0|0,2:0|2:0,2:0:0:0:
121,218,246660,5,2,2:0:0:0:
184,267,247186,1,0,2:0:0:0:
184,267,247581,6,0,P|238:230|298:249,2,121.5,2|2|2,2:0|2:0|2:0,2:0:0:0:
184,267,248765,5,0,2:0:0:0:
