osu file format v14

[General]
AudioFilename: audio.mp3
AudioLeadIn: 0
PreviewTime: 217213
Countdown: 0
SampleSet: Soft
StackLeniency: 0.7
Mode: 0
LetterboxInBreaks: 0
WidescreenStoryboard: 1

[Editor]
Bookmarks: 16995,33691,50386,67082,83778,100473,117169,133865,142213,150560,167256,183952,200647,217343,234039,250734,267430,284126,300821
DistanceSpacing: 1.2
BeatDivisor: 3
GridSize: 32
TimelineZoom: 0.8999999

[Metadata]
Title:Coppelia
TitleUnicode:Coppelia
Artist:Yunosuke
ArtistUnicode:雄之助
Creator:Hinsvar
Version:Normal
Source:
Tags:ボーカロイド VOCALOID ボカロ 初音ミク Hatsune Miku Japanese Pop J-Pop JPop Black or White EDM Electronic Dance Music House Electrohouse Featured Artist FA Mappers' Guild MG MPG
BeatmapID:4429688
BeatmapSetID:2109544

[Difficulty]
HPDrainRate:3
CircleSize:3
OverallDifficulty:3
ApproachRate:6
SliderMultiplier:1.28
SliderTickRate:1

[Events]
//Background and Video events
0,0,"BG.jpg",0,0
//Break Periods
2,134065,139865
//Storyboard Layer 0 (Background)
//Storyboard Layer 1 (Fail)
//Storyboard Layer 2 (Pass)
//Storyboard Layer 3 (Foreground)
//Storyboard Layer 4 (Overlay)
//Storyboard Sound Samples

[TimingPoints]
300,521.739130434783,4,2,1,65,1,0
14908,-111.111111111111,4,2,1,65,0,0
16995,-100,4,2,1,70,0,0
31604,-125,4,2,1,60,0,0
33691,-111.111111111111,4,2,1,65,0,0
50386,-100,4,2,1,70,0,0
67082,-90.9090909090909,4,2,1,75,0,1
117169,-100,4,2,1,70,0,0
131778,-125,4,2,1,70,0,0
133865,-111.111111111111,4,2,1,65,0,0
150560,-100,4,2,1,60,0,0
167256,-90.9090909090909,4,2,1,75,0,1
200647,-100,4,2,1,70,0,0
217343,-90.9090909090909,4,2,1,75,0,1
267430,-100,4,2,1,70,0,0
300300,-125,4,2,1,60,0,0
300821,-125,4,2,1,50,0,0

[Colours]
Combo1 : 49,221,191
Combo2 : 252,63,143
Combo3 : 160,248,241

[HitObjects]
47,34,14908,6,0,P|110:40|159:80,1,115.199996484375,10|8,0:0|0:0,0:0:0:0:
177,133,15691,1,2,0:0:0:0:
177,133,15952,1,8,0:0:0:0:
120,246,16473,2,0,P|143:261|172:263,1,57.5999982421876,10|0,0:0|3:0,0:0:0:0:
236,259,16995,6,0,B|230:302|254:319|257:317|280:329|278:377,2,128,2|8|2,3:2|0:0|3:2,0:0:0:0:
352,202,18560,1,8,0:0:0:0:
352,202,18821,1,2,0:0:0:0:
460,274,19343,2,0,P|483:256|486:215,1,64,2|0,0:0|3:0,0:0:0:0:
493,159,19865,2,0,P|457:113|375:107,1,128,2|2,0:0|0:0,0:0:0:0:
336,120,20647,5,8,0:0:0:0:
336,120,20908,1,2,0:0:0:0:
336,120,21169,2,0,B|288:110|287:75|291:74|287:40|244:30,2,128,2|8|2,3:2|0:0|3:2,0:0:0:0:
404,228,22734,2,0,B|386:231|384:248|386:249|386:266|362:271,1,64,8|2,0:0|0:0,0:0:0:0:
331,327,23256,2,0,P|308:349|278:358,1,64,2|0,3:2|0:0,0:0:0:0:
214,348,23778,1,8,0:0:0:0:
98,291,24300,2,0,P|66:291|39:275,2,64,2|2|8,3:2|0:0|0:0,0:0:0:0:
141,244,25082,5,0,0:0:0:0:
141,244,25343,2,0,P|146:184|154:116,2,128,2|8|2,3:2|0:0|3:2,0:0:0:0:
258,307,26908,1,8,0:0:0:0:
258,307,27169,1,2,0:0:0:0:
371,244,27691,2,0,P|368:212|364:180,1,64,2|8,0:0|0:0,0:0:0:0:
328,126,28213,2,0,P|287:112|289:32,1,128,2|2,0:0|0:0,0:0:0:0:
356,42,28995,5,8,0:0:0:0:
356,42,29256,1,2,0:0:0:0:
356,42,29517,2,0,B|404:48|412:23|416:25|426:0|480:4,2,128,2|8|2,3:2|0:0|3:2,0:0:0:0:
235,83,31082,2,0,B|211:86|207:73|205:74|200:62|176:63,1,64,8|2,0:0|0:0,0:0:0:0:
127,105,31604,6,0,P|62:91|40:10,2,153.6,2|2|2,0:0|0:0|0:0,0:0:0:0:
201,207,33691,5,2,3:2:0:0:
327,194,34213,1,8,0:0:0:0:
378,78,34734,2,0,P|435:68|489:98,1,115.199996484375,2|8,3:2|0:0,0:0:0:0:
484,156,35517,1,2,0:0:0:0:
419,265,36039,2,0,L|432:325,1,57.5999982421876,2|8,0:0|0:0,0:0:0:0:
381,361,36560,2,0,P|324:371|270:341,1,115.199996484375,2|2,0:0|0:0,0:0:0:0:
275,283,37343,2,0,L|277:217,1,57.5999982421876,8|0,0:0|3:0,0:0:0:0:
280,161,37865,6,0,B|290:128|273:103|267:106|253:74|264:35,1,115.199996484375,2|8,3:2|0:0,0:0:0:0:
135,69,38908,2,0,B|130:52|138:40|141:41|148:25|143:6,2,57.5999982421876,0|2|8,3:0|0:0|0:0,0:0:0:0:
72,82,39691,1,2,0:0:0:0:
132,193,40213,2,0,B|127:204|134:220|137:219|146:231|141:248,1,57.5999982421876,2|8,0:0|0:0,0:0:0:0:
205,262,40734,2,0,P|254:278|293:340,2,115.199996484375,2|2|0,0:0|0:0|0:0,0:0:0:0:
190,323,42039,5,2,3:2:0:0:
73,372,42560,1,8,0:0:0:0:
24,255,43082,2,0,P|19:201|29:130,1,115.199996484375,2|8,3:2|0:0,0:0:0:0:
34,77,43865,1,2,0:0:0:0:
146,18,44386,2,0,P|172:29|183:64,1,57.5999982421876,2|8,0:0|0:0,0:0:0:0:
171,117,44908,2,0,P|225:112|296:122,1,115.199996484375,2|2,0:0|0:0,0:0:0:0:
348,121,45691,1,8,0:0:0:0:
474,114,46213,6,0,B|498:145|493:164|490:165|483:189|515:231,1,115.199996484375,2|8,3:2|0:0,0:0:0:0:
486,283,46995,1,2,0:0:0:0:
486,283,47256,2,0,B|488:302|481:309|480:309|471:317|474:343,2,57.5999982421876,0|2|8,3:0|0:0|0:0,0:0:0:0:
428,254,48039,1,2,0:0:0:0:
303,232,48560,2,0,B|305:211|296:203|295:203|288:196|290:176,1,57.5999982421876,2|8,0:0|0:0,0:0:0:0:
349,148,49082,2,0,P|356:98|323:43,1,115.199996484375,2|2,0:0|0:0,0:0:0:0:
278,32,49865,5,8,0:0:0:0:
278,32,50126,1,0,3:0:0:0:
278,32,50386,2,0,B|230:52|213:32|216:29|199:10|152:21,2,128,6|8|2,3:2|0:0|3:2,0:0:0:0:
260,162,51952,1,8,0:0:0:0:
260,162,52213,1,2,0:0:0:0:
170,254,52734,2,0,P|164:288|165:326,1,64,2|8,0:0|0:0,0:0:0:0:
113,357,53256,2,0,P|60:312|-6:276,1,128,2|2,0:0|0:0,0:0:0:0:
0,219,54039,2,0,P|32:207|64:187,1,64,8|0,0:0|0:0,0:0:0:0:
110,155,54560,6,0,B|120:114|104:89|102:93|83:71|97:24,2,128,2|8|2,3:2|0:0|3:2,0:0:0:0:
191,261,56126,1,8,0:0:0:0:
191,261,56386,1,2,0:0:0:0:
266,157,56908,2,0,P|264:124|271:94,1,64,2|8,0:0|0:0,0:0:0:0:
313,46,57430,2,0,P|377:42|439:56,1,128,2|2,0:0|0:0,0:0:0:0:
494,105,58213,5,8,0:0:0:0:
494,105,58473,1,2,0:0:0:0:
494,105,58735,2,0,B|474:148|486:163|489:162|507:178|491:232,2,128,2|8|2,3:2|0:0|3:2,0:0:0:0:
376,149,60300,1,8,0:0:0:0:
376,149,60560,1,2,0:0:0:0:
296,48,61082,2,0,P|274:26|242:20,1,64,2|8,0:0|0:0,0:0:0:0:
180,35,61604,2,0,P|137:77|124:143,1,128,2|2,0:0|0:0,0:0:0:0:
138,204,62386,2,0,P|159:225|192:232,1,64,8|0,0:0|0:0,0:0:0:0:
255,223,62908,6,0,B|275:258|258:285|254:284|236:308|258:344,2,128,2|8|2,3:2|0:0|3:2,0:0:0:0:
256,94,64473,1,8,0:0:0:0:
369,31,64995,2,0,P|398:22|437:25,1,64,2|2,3:2|0:0,0:0:0:0:
489,50,65517,2,0,P|482:79|460:111,1,64,0|2,3:0|3:2,0:0:0:0:
412,144,66039,1,2,0:0:0:0:
294,130,66560,1,8,0:0:0:0:
294,130,66821,1,8,0:0:0:0:
294,130,67082,1,4,3:2:0:0:
340,263,67604,6,0,P|353:312|328:361,2,105.600003222656,8|2|2,0:0|0:0|0:0,0:0:0:0:
274,278,68647,1,8,0:0:0:0:
274,278,68908,2,0,B|216:282|203:258|207:253|197:226|142:224,1,140.800004296875,2|0,0:0|0:0,0:0:0:0:
140,153,69691,2,0,P|127:104|152:55,2,105.600003222656,8|2|2,0:0|0:0|0:0,0:0:0:0:
206,139,70734,1,8,0:0:0:0:
206,139,70995,2,0,P|238:130|271:146,1,70.4000021484376,2|0,0:0|3:0,0:0:0:0:
331,273,71778,6,0,P|356:321|412:338,2,105.600003222656,8|2|2,0:0|0:0|0:0,0:0:0:0:
357,210,72821,1,8,0:0:0:0:
357,210,73082,2,0,P|389:106|334:4,1,211.200006445313,2|8,0:0|0:0,0:0:0:0:
282,42,74126,1,2,0:0:0:0:
282,42,74386,2,0,P|212:20|144:57,1,140.800004296875,2|8,3:2|0:0,0:0:0:0:
98,90,75169,1,2,0:0:0:0:
98,90,75430,1,2,3:2:0:0:
113,230,75952,6,0,B|83:247|61:227|63:223|40:201|9:208,2,105.600003222656,8|2|2,0:0|0:0|0:0,0:0:0:0:
181,214,76995,1,8,0:0:0:0:
181,214,77256,2,0,P|252:213|293:277,1,140.800004296875,2|0,0:0|0:0,0:0:0:0:
294,335,78039,2,0,L|406:344,1,105.600003222656,8|2,0:0|0:0,0:0:0:0:
470,340,78691,2,0,L|479:228,1,105.600003222656,2|8,0:0|0:0,0:0:0:0:
368,137,79604,6,0,B|339:100|359:73|357:72|369:44|343:2,2,140.800004296875,2|8|0,3:2|0:0|3:0,0:0:0:0:
306,166,80908,2,0,B|257:167|239:143|237:144|223:114|177:120,1,140.800004296875,2|2,0:0|0:0,0:0:0:0:
182,51,81691,2,0,P|159:29|120:24,1,70.4000021484376,10|8,0:0|0:0,0:0:0:0:
53,19,82213,2,0,P|31:42|26:81,1,70.4000021484376,10|8,0:0|0:0,0:0:0:0:
21,148,82734,1,10,0:0:0:0:
129,254,83256,1,10,0:0:0:0:
129,254,83517,1,8,0:0:0:0:
129,254,83778,1,2,3:2:0:0:
177,119,84300,6,0,P|206:95|239:87,1,70.4000021484376,8|0,0:0|0:0,0:0:0:0:
302,114,84821,2,0,B|309:74|297:61|293:62|281:50|293:7,2,105.600003222656,2|2|2,3:2|0:0|0:0,0:0:0:0:
367,88,85865,1,0,3:0:0:0:
438,208,86386,2,0,P|409:232|376:240,1,70.4000021484376,8|0,0:0|0:0,0:0:0:0:
313,213,86907,2,0,B|306:253|318:266|322:265|334:277|322:320,2,105.600003222656,2|2|2,3:2|0:0|0:0,0:0:0:0:
313,142,87952,6,0,P|250:171|200:243,1,140.800004296875,2|8,3:2|0:0,0:0:0:0:
65,243,88995,2,0,P|43:195|-10:158,2,105.600003222656,2|2|2,3:2|0:0|0:0,0:0:0:0:
108,186,90039,2,0,P|112:149|121:112,1,70.4000021484376,2|0,3:2|0:0,0:0:0:0:
133,48,90560,1,8,0:0:0:0:
272,67,91082,2,0,P|323:78|375:84,2,105.600003222656,2|2|2,3:2|0:0|0:0,0:0:0:0:
256,135,92126,1,2,3:2:0:0:
185,256,92647,6,0,P|195:284|233:301,1,70.4000021484376,8|0,0:0|0:0,0:0:0:0:
266,361,93169,2,0,B|233:350|213:366|216:368|192:380|147:376,2,105.600003222656,2|2|2,3:2|0:0|0:0,0:0:0:0:
321,317,94213,1,0,3:0:0:0:
333,176,94734,2,0,P|323:148|285:131,1,70.4000021484376,8|0,0:0|0:0,0:0:0:0:
252,71,95256,2,0,B|285:82|305:66|302:64|326:52|371:56,2,105.600003222656,2|2|2,3:2|0:0|0:0,0:0:0:0:
187,42,96300,6,0,P|133:24|70:72,1,140.800004296875,2|8,3:2|0:0,0:0:0:0:
93,209,97343,2,0,P|52:222|5:186,2,105.600003222656,2|2|2,3:2|0:0|0:0,0:0:0:0:
157,179,98386,2,0,B|205:167|226:195|224:197|246:221|293:194,1,140.800004296875,0|8,3:0|0:0,0:0:0:0:
360,180,99169,1,2,0:0:0:0:
360,180,99430,2,0,P|387:249|401:322,1,140.800004296875,2|8,3:2|0:0,0:0:0:0:
335,335,100213,1,2,3:2:0:0:
335,335,100473,1,2,3:2:0:0:
199,297,100995,6,0,P|169:304|148:339,1,70.4000021484376,8|2,0:0|0:0,0:0:0:0:
81,314,101517,2,0,P|54:358|5:372,2,105.600003222656,2|2|2,3:2|0:0|0:0,0:0:0:0:
94,244,102560,2,0,P|42:243|5:207,2,105.600003222656,2|2|2,3:2|0:0|0:0,0:0:0:0:
161,220,103604,2,0,P|135:175|148:125,2,105.600003222656,2|2|2,3:2|0:0|0:0,0:0:0:0:
215,266,104647,1,2,3:2:0:0:
348,311,105169,6,0,L|356:239,1,70.4000021484376,8|2,0:0|0:0,0:0:0:0:
392,180,105691,2,0,L|488:137,2,105.600003222656,2|2|2,3:2|0:0|0:0,0:0:0:0:
351,122,106734,2,0,L|265:59,2,105.600003222656,2|2|2,3:2|0:0|0:0,0:0:0:0:
394,65,107778,2,0,L|490:22,2,105.600003222656,2|2|2,3:2|0:0|0:0,0:0:0:0:
451,108,108821,1,2,3:2:0:0:
495,241,109343,6,0,P|489:277|452:308,1,70.4000021484376,8|2,0:0|0:0,0:0:0:0:
402,271,109865,2,0,P|398:218|367:177,2,105.600003222656,2|2|2,3:2|0:0|0:0,0:0:0:0:
333,286,110908,2,0,P|329:338|298:379,2,105.600003222656,2|2|2,3:2|0:0|0:0,0:0:0:0:
263,271,111952,2,0,P|259:218|228:177,2,105.600003222656,2|2|2,3:2|0:0|0:0,0:0:0:0:
194,286,112995,1,2,3:2:0:0:
64,341,113517,6,0,L|50:267,1,70.4000021484376,8|2,0:0|0:0,0:0:0:0:
97,218,114039,2,0,L|118:107,2,105.600003222656,2|2|2,3:2|0:0|0:0,0:0:0:0:
44,171,115082,1,2,3:2:0:0:
40,30,115604,1,0,3:0:0:0:
181,25,116126,2,0,B|213:16|232:31|229:35|252:53|287:38,2,105.600003222656,2|2|2,3:2|0:0|3:2,0:0:0:0:
163,86,117169,6,0,P|145:146|178:205,2,128,2|8|2,3:2|0:0|3:2,0:0:0:0:
284,140,118734,1,8,0:0:0:0:
284,140,118995,1,2,0:0:0:0:
383,59,119517,2,0,P|410:71|445:79,1,64,2|8,0:0|0:0,0:0:0:0:
490,122,120039,2,0,P|442:156|393:209,1,128,2|2,0:0|0:0,0:0:0:0:
349,250,120821,5,8,0:0:0:0:
349,250,121082,1,2,0:0:0:0:
349,250,121343,2,0,B|358:304|340:314|338:312|315:323|320:384,2,128,2|8|2,3:2|0:0|3:2,0:0:0:0:
279,142,122908,2,0,B|281:118|269:113|268:114|259:109|264:82,1,64,8|2,0:0|0:0,0:0:0:0:
206,52,123430,2,0,P|183:58|144:48,1,64,2|0,3:2|0:0,0:0:0:0:
82,33,123952,1,8,0:0:0:0:
60,161,124473,2,0,P|30:150|0:157,2,64,2|2|8,3:2|0:0|0:0,0:0:0:0:
120,196,125256,5,0,0:0:0:0:
120,196,125517,2,0,B|161:206|182:168|176:172|192:140|253:153,2,128,2|8|2,3:2|0:0|3:2,0:0:0:0:
23,279,127082,1,8,0:0:0:0:
23,279,127343,1,2,0:0:0:0:
143,321,127865,2,0,P|173:336|197:365,1,64,2|8,0:0|0:0,0:0:0:0:
254,377,128386,2,0,B|241:333|256:317|260:316|273:295|266:247,1,128,2|2,0:0|0:0,0:0:0:0:
265,197,129169,5,8,0:0:0:0:
265,197,129430,1,2,0:0:0:0:
265,197,129691,2,0,L|252:64,2,128,2|8|2,3:2|0:0|3:2,0:0:0:0:
378,255,131256,2,0,L|384:318,1,64,8|2,0:0|0:0,0:0:0:0:
443,343,131778,6,0,P|485:302|494:211,2,153.6,2|2|2,0:0|0:0|0:0,0:0:0:0:
299,354,133865,5,2,0:0:0:0:
437,183,141430,6,0,P|464:194|493:199,2,57.5999982421876,0|8|0,3:0|0:0|3:0,0:0:0:0:
382,151,142213,5,4,3:2:0:0:
319,261,142734,1,2,3:2:0:0:
194,235,143256,2,0,P|186:297|154:345,1,115.199996484375,2|0,3:2|3:0,0:0:0:0:
99,365,144039,1,2,0:0:0:0:
14,271,144560,2,0,P|32:243|65:241,1,57.5999982421876,2|0,0:0|3:0,0:0:0:0:
51,174,145082,2,0,P|58:111|90:63,1,115.199996484375,2|2,0:0|0:0,0:0:0:0:
142,38,145865,1,2,3:2:0:0:
209,144,146386,6,0,B|237:165|261:165|261:162|287:161|319:193,1,115.199996484375,2|0,3:2|3:0,0:0:0:0:
376,215,147169,1,2,0:0:0:0:
376,215,147430,2,0,B|390:203|402:204|402:205|414:205|428:192,2,57.5999982421876,0|2|0,3:0|0:0|3:0,0:0:0:0:
305,318,148473,2,0,P|320:343|356:347,1,57.5999982421876,8|0,0:0|3:0,0:0:0:0:
402,378,148995,2,0,P|431:376|453:347,1,57.5999982421876,8|0,0:0|3:0,0:0:0:0:
503,324,149517,2,0,P|516:297|502:264,1,57.5999982421876,8|0,0:0|3:0,0:0:0:0:
507,209,150038,2,0,P|491:183|455:179,1,57.5999982421876,8|0,0:0|3:0,0:0:0:0:
409,149,150560,6,0,B|431:102|407:85|405:87|378:69|400:12,2,128,6|8|2,3:2|0:0|3:2,0:0:0:0:
390,279,152126,1,8,0:0:0:0:
390,279,152386,1,2,0:0:0:0:
297,190,152908,2,0,P|272:171|230:162,1,64,2|8,0:0|0:0,0:0:0:0:
189,123,153430,2,0,P|131:146|73:211,1,128,2|2,0:0|0:0,0:0:0:0:
69,254,154213,2,0,L|145:263,1,64,8|0,0:0|0:0,0:0:0:0:
178,306,154734,6,0,L|305:290,2,128,2|8|2,3:2|0:0|3:2,0:0:0:0:
64,361,156300,1,8,0:0:0:0:
64,361,156560,1,2,0:0:0:0:
9,247,157082,2,0,P|4:211|10:181,1,64,2|8,0:0|0:0,0:0:0:0:
4,119,157604,2,0,P|58:76|113:58,1,128,2|2,0:0|0:0,0:0:0:0:
175,28,158386,5,8,0:0:0:0:
175,28,158647,1,2,0:0:0:0:
175,28,158908,2,0,B|197:68|178:91|174:90|156:114|185:172,2,128,2|8|2,3:2|0:0|3:2,0:0:0:0:
306,23,160473,1,8,0:0:0:0:
306,23,160734,1,2,0:0:0:0:
311,154,161256,2,0,P|318:190|309:218,1,64,2|8,0:0|0:0,0:0:0:0:
246,226,161778,2,0,P|232:298|250:354,1,128,2|2,0:0|0:0,0:0:0:0:
308,367,162560,2,0,P|344:374|372:365,1,64,8|0,0:0|0:0,0:0:0:0:
399,309,163082,6,0,B|433:303|451:280|449:276|468:242|518:233,2,128,2|8|2,3:2|0:0|3:2,0:0:0:0:
281,257,164647,1,8,0:0:0:0:
268,129,165169,2,0,P|261:92|261:60,1,64,2|2,3:2|0:0,0:0:0:0:
221,14,165691,2,0,P|184:21|152:21,1,64,0|2,3:0|3:2,0:0:0:0:
106,61,166213,1,2,0:0:0:0:
20,156,166734,1,8,0:0:0:0:
20,156,166995,1,8,0:0:0:0:
20,156,167256,1,4,3:2:0:0:
146,183,167778,6,0,P|149:218|140:263,1,70.4000021484376,8|0,0:0|0:0,0:0:0:0:
120,319,168300,2,0,B|96:316|75:339|78:341|53:362|21:362,2,105.600003222656,2|2|2,0:0|0:0|0:0,0:0:0:0:
170,367,169343,1,0,3:0:0:0:
310,380,169865,2,0,P|307:345|316:300,1,70.4000021484376,2|0,3:2|0:0,0:0:0:0:
336,244,170387,2,0,B|360:247|381:224|378:222|403:201|435:201,2,105.600003222656,2|2|2,3:2|0:0|0:0,0:0:0:0:
279,202,171430,6,0,P|214:220|156:181,1,140.800004296875,2|8,3:2|0:0,0:0:0:0:
126,46,172473,2,0,P|83:17|34:30,2,105.600003222656,2|2|2,3:2|0:0|0:0,0:0:0:0:
196,43,173517,2,0,L|277:36,1,70.4000021484376,2|0,3:2|0:0,0:0:0:0:
336,30,174039,1,8,0:0:0:0:
397,156,174560,2,0,L|502:165,2,105.600003222656,2|2|2,3:2|0:0|0:0,0:0:0:0:
351,209,175604,1,2,3:2:0:0:
224,271,176126,6,0,P|197:256|191:213,1,70.4000021484376,8|0,0:0|0:0,0:0:0:0:
189,149,176647,2,0,B|179:118|193:99|195:102|206:87|205:47,2,105.600003222656,2|2|2,3:2|0:0|0:0,0:0:0:0:
259,148,177691,1,0,3:0:0:0:
400,136,178213,2,0,P|427:151|433:194,1,70.4000021484376,8|0,0:2|0:0,0:0:0:0:
435,258,178734,2,0,B|444:288|430:307|428:304|417:319|418:359,2,105.600003222656,2|2|2,3:2|0:0|0:0,0:0:0:0:
364,258,179778,6,0,P|316:303|242:300,1,140.800004296875,2|8,3:2|0:0,0:0:0:0:
103,296,180821,2,0,B|75:300|64:327|67:331|54:357|18:360,2,105.600003222656,2|2|2,3:2|0:0|0:0,0:0:0:0:
62,237,181865,2,0,P|110:192|184:195,1,140.800004296875,0|8,3:0|0:0,0:0:0:0:
249,176,182647,1,2,0:0:0:0:
249,176,182908,2,0,L|231:27,1,140.800004296875,2|8,3:2|0:0,0:0:0:0:
300,19,183691,1,2,3:2:0:0:
300,19,183952,1,2,3:2:0:0:
441,18,184473,6,0,P|474:29|497:56,1,70.4000021484376,8|2,0:0|0:0,0:0:0:0:
491,125,184995,2,0,P|480:176|498:226,2,105.600003222656,2|2|2,3:2|0:0|0:0,0:0:0:0:
425,152,186039,2,0,P|390:191|380:243,2,105.600003222656,0|2|2,3:0|0:0|0:0,0:0:0:0:
354,142,187082,2,0,P|304:158|270:199,2,105.600003222656,2|2|2,3:2|0:0|0:0,0:0:0:0:
297,97,188126,1,2,3:2:0:0:
172,31,188647,6,0,L|100:17,1,70.4000021484376,8|2,0:0|0:0,0:0:0:0:
83,85,189169,2,0,B|74:106|45:118|41:116|18:127|0:156,2,105.600003222656,2|2|2,3:2|0:0|0:0,0:0:0:0:
143,121,190213,2,0,B|156:139|187:143|190:140|216:145|241:168,2,105.600003222656,2|2|2,3:2|0:0|0:0,0:0:0:0:
135,191,191256,2,0,B|132:214|107:232|103:232|83:248|73:281,2,105.600003222656,2|2|2,3:2|0:0|0:0,0:0:0:0:
174,249,192300,1,2,3:2:0:0:
283,337,192821,6,0,P|309:358|355:344,1,70.4000021484376,8|2,0:0|0:0,0:0:0:0:
406,320,193343,2,0,L|512:306,2,105.600003222656,2|2|2,3:2|0:0|0:0,0:0:0:0:
406,249,194386,2,0,L|490:183,2,105.600003222656,2|2|2,3:2|0:0|0:0,0:0:0:0:
370,187,195430,2,0,L|410:88,2,105.600003222656,2|2|2,3:2|0:0|0:0,0:0:0:0:
307,151,196473,1,2,3:2:0:0:
207,251,196995,6,0,P|177:266|137:259,1,70.4000021484376,8|2,0:0|0:0,0:0:0:0:
100,203,197517,2,0,P|54:180|-5:191,2,105.600003222656,2|2|2,3:2|0:0|0:0,0:0:0:0:
158,162,198560,1,2,3:2:0:0:
287,107,199082,1,0,3:0:0:0:
175,23,199604,2,0,L|69:13,2,105.600003222656,2|2|2,3:2|0:0|3:2,0:0:0:0:
168,86,200647,6,0,P|130:133|66:134,1,128,6|8,3:2|0:0,0:0:0:0:
56,201,201430,1,2,0:0:0:0:
56,201,201691,2,0,B|64:235|53:248|53:246|37:274|42:311,2,96,2|2|2,3:2|0:0|0:0,0:0:0:0:
102,245,202734,2,0,P|162:251|208:206,1,128,2|8,3:2|0:0,0:0:0:0:
294,111,203778,2,0,B|277:80|284:64|285:66|294:35|278:1,2,96,2|2|2,3:2|0:0|0:0,0:0:0:0:
340,154,204821,6,0,P|402:154|480:172,1,128,2|8,3:2|0:0,0:0:0:0:
505,225,205604,1,2,0:0:0:0:
505,225,205865,2,0,P|505:271|491:330,2,96,2|2|2,3:2|0:0|0:0,0:0:0:0:
446,250,206908,2,0,P|384:250|306:232,1,128,2|8,3:2|0:0,0:0:0:0:
240,135,207952,2,0,P|193:135|135:148,2,96,2|2|2,3:2|0:0|0:0,0:0:0:0:
304,142,208995,5,2,3:2:0:0:
287,14,209517,1,8,0:0:0:0:
162,38,210039,2,0,B|135:26|112:43|112:45|91:59|54:40,2,96,2|2|2,3:2|0:0|0:0,0:0:0:0:
191,95,211082,2,0,P|120:219|2:232,1,256,2|2,3:2|3:2,0:0:0:0:
19,304,212386,1,2,0:0:0:0:
19,304,212647,2,0,P|50:321|53:351,1,64,8|2,0:0|0:0,0:0:0:0:
114,368,213169,6,0,L|249:356,1,128,2|8,3:2|0:0,0:0:0:0:
309,357,213952,1,2,0:0:0:0:
309,357,214213,1,2,3:2:0:0:
271,240,214734,5,8,0:0:0:0:
271,240,214995,2,0,P|187:233|97:164,1,192,2|2,3:2|0:0,0:0:0:0:
75,46,216300,6,0,P|101:31|139:32,1,64,10|0,0:0|0:0,0:0:0:0:
198,26,216821,2,0,P|223:41|242:74,1,64,10|0,0:0|0:0,0:0:0:0:
276,122,217343,1,4,3:2:0:0:
416,106,217865,6,0,P|426:53|466:23,2,105.600003222656,8|2|2,0:0|0:0|0:0,0:0:0:0:
461,159,218908,1,8,0:0:0:0:
461,159,219169,2,0,B|414:163|397:193|401:193|383:226|334:221,1,140.800004296875,2|0,0:0|0:0,0:0:0:0:
274,246,219952,2,0,P|264:299|224:329,2,105.600003222656,8|2|2,0:0|0:0|0:0,0:0:0:0:
233,195,220995,1,8,0:0:0:0:
233,195,221256,2,0,L|159:175,1,70.4000021484376,2|0,0:0|3:0,0:0:0:0:
31,131,222039,6,0,P|24:82|23:23,2,105.600003222656,8|2|2,0:0|0:0|0:0,0:0:0:0:
94,101,223082,1,8,0:0:0:0:
94,101,223343,2,0,P|92:206|77:311,1,211.200006445313,2|8,0:0|0:0,0:0:0:0:
131,364,224386,1,2,0:0:0:0:
131,364,224647,2,0,P|192:329|257:303,1,140.800004296875,2|8,3:2|0:0,0:0:0:0:
328,283,225430,1,2,0:0:0:0:
328,283,225691,1,2,3:2:0:0:
259,157,226213,6,0,B|266:127|243:109|243:111|221:92|218:43,2,105.600003222656,8|2|2,0:0|0:0|0:0,0:0:0:0:
329,160,227256,1,8,0:0:0:0:
329,160,227517,2,0,P|336:94|368:26,1,140.800004296875,2|0,0:0|0:0,0:0:0:0:
436,42,228300,2,0,P|476:71|508:117,1,105.600003222656,8|2,0:0|0:0,0:0:0:0:
482,182,228952,2,0,P|436:202|380:206,1,105.600003222656,2|8,0:0|0:0,0:0:0:0:
242,229,229865,6,0,P|214:283|258:364,2,140.800004296875,2|8|0,3:2|0:0|3:0,0:0:0:0:
244,158,231169,2,0,P|271:95|243:33,1,140.800004296875,2|2,0:0|0:0,0:0:0:0:
173,21,231952,2,0,L|95:29,1,70.4000021484376,10|8,0:0|0:0,0:0:0:0:
90,98,232473,2,0,L|98:176,1,70.4000021484376,10|8,0:0|0:0,0:0:0:0:
167,181,232995,1,10,0:0:0:0:
311,223,233517,1,10,0:0:0:0:
311,223,233778,1,8,0:0:0:0:
311,223,234039,1,2,3:2:0:0:
202,326,234560,6,0,P|174:350|134:351,1,70.4000021484376,8|0,0:0|0:0,0:0:0:0:
97,298,235082,2,0,P|44:279|13:228,2,105.600003222656,2|2|2,3:2|0:0|0:0,0:0:0:0:
139,241,236126,1,0,3:0:0:0:
259,167,236647,2,0,P|287:143|327:142,1,70.4000021484376,8|0,0:0|0:0,0:0:0:0:
364,195,237169,2,0,P|416:213|447:264,2,105.600003222656,2|2|2,3:2|0:0|0:0,0:0:0:0:
337,260,238213,6,0,B|291:261|279:298|282:296|272:332|207:338,1,140.800004296875,2|8,3:2|0:0,0:0:0:0:
182,200,239256,2,0,B|179:164|152:157|154:159|126:150|125:115,2,105.600003222656,2|2|2,3:2|0:0|0:0,0:0:0:0:
252,194,240300,2,0,P|254:161|265:116,1,70.4000021484376,2|0,3:2|0:0,0:0:0:0:
283,57,240821,1,8,0:0:0:0:
413,109,241343,2,0,P|424:57|428:4,2,105.600003222656,2|2|2,3:2|0:0|0:0,0:0:0:0:
401,178,242386,1,2,3:2:0:0:
263,206,242908,6,0,L|192:221,1,70.4000021484376,8|0,0:0|0:0,0:0:0:0:
147,273,243430,2,0,L|40:250,2,105.600003222656,2|2|2,3:2|0:0|0:0,0:0:0:0:
208,306,244473,1,0,3:0:0:0:
221,165,244995,2,0,L|150:150,1,70.4000021484376,8|0,0:0|0:0,0:0:0:0:
105,98,245517,2,0,L|-1:120,2,105.600003222656,2|2|2,3:2|0:0|0:0,0:0:0:0:
149,43,246560,6,0,B|196:29|217:60|215:63|232:88|299:60,1,140.800004296875,2|8,3:2|0:0,0:0:0:0:
420,82,247604,2,0,B|424:42|446:40|448:43|476:41|484:6,2,105.600003222656,2|2|2,3:2|0:0|0:0,0:0:0:0:
393,147,248647,2,0,P|329:139|285:202,1,140.800004296875,0|8,3:0|0:0,0:0:0:0:
255,259,249430,1,2,0:0:0:0:
255,259,249691,2,0,P|191:267|147:204,1,140.800004296875,2|8,3:2|0:0,0:0:0:0:
148,145,250473,1,2,3:2:0:0:
148,145,250734,1,2,3:2:0:0:
34,61,251256,6,0,L|28:131,1,70.4000021484376,8|2,0:0|0:0,0:0:0:0:
28,201,251778,2,0,L|37:306,2,105.600003222656,2|2|2,3:2|0:0|0:0,0:0:0:0:
92,229,252821,2,0,L|152:315,2,105.600003222656,2|2|2,3:2|0:0|0:0,0:0:0:0:
161,221,253865,2,0,L|256:265,2,105.600003222656,2|2|2,3:2|0:0|0:0,0:0:0:0:
216,179,254908,1,2,3:2:0:0:
151,53,255430,6,0,P|180:28|223:40,1,70.4000021484376,8|2,0:0|0:0,0:0:0:0:
276,54,255952,2,0,B|309:68|325:46|325:41|339:17|379:13,2,105.600003222656,2|2|2,3:2|0:0|0:0,0:0:0:0:
253,120,256995,2,0,B|217:115|206:140|209:145|201:172|164:186,2,105.600003222656,2|2|2,3:2|0:0|0:0,0:0:0:0:
296,176,258039,2,0,B|324:198|346:181|346:176|366:156|406:163,2,105.600003222656,2|2|2,3:2|0:0|0:0,0:0:0:0:
289,246,259082,1,2,3:2:0:0:
398,334,259604,6,0,P|415:310|420:264,1,70.4000021484376,8|2,0:0|0:0,0:0:0:0:
417,199,260126,2,0,P|460:197|488:146,2,105.600003222656,2|2|2,3:2|0:0|0:0,0:0:0:0:
366,150,261169,2,0,P|394:118|378:62,2,105.600003222656,2|2|2,3:2|0:0|0:0,0:0:0:0:
295,151,262213,2,0,P|293:108|242:80,2,105.600003222656,2|2|2,3:2|0:0|0:0,0:0:0:0:
246,202,263256,1,2,3:2:0:0:
107,225,263778,6,0,L|116:301,1,70.4000021484376,8|2,0:0|0:0,0:0:0:0:
149,356,264300,2,0,L|35:369,2,105.600003222656,2|2|2,3:2|0:0|0:0,0:0:0:0:
219,352,265343,1,2,3:2:0:0:
337,275,265865,1,0,3:0:0:0:
462,338,266386,2,0,P|511:317|509:266,2,105.600003222656,2|2|2,3:2|0:0|3:2,0:0:0:0:
398,344,267430,6,0,B|368:324|341:355|343:360|306:393|273:376,2,128,2|8|2,3:2|0:0|3:2,0:0:0:0:
409,220,268995,1,8,0:0:0:0:
409,220,269256,1,2,0:0:0:0:
285,209,269778,2,0,P|274:186|274:141,1,64,2|8,0:0|0:0,0:0:0:0:
230,99,270300,2,0,P|258:56|336:11,1,128,2|2,0:0|0:0,0:0:0:0:
379,66,271082,5,8,0:0:0:0:
379,66,271343,1,2,0:0:0:0:
379,66,271604,2,0,B|423:88|437:62|438:57|451:35|497:51,2,128,2|8|2,3:2|0:0|3:2,0:0:0:0:
379,194,273169,2,0,B|371:217|382:223|384:223|397:231|386:253,1,64,8|2,0:0|0:0,0:0:0:0:
325,274,273691,2,0,P|296:277|280:311,1,64,2|0,3:2|0:0,0:0:0:0:
255,365,274213,1,8,0:0:0:0:
154,284,274734,2,0,P|126:269|122:239,2,64,2|2|8,3:2|0:0|0:0,0:0:0:0:
145,351,275517,5,0,0:0:0:0:
145,351,275778,2,0,P|92:355|16:379,2,128,2|8|2,3:2|0:0|3:2,0:0:0:0:
254,284,277343,1,8,0:0:0:0:
254,284,277604,1,2,0:0:0:0:
363,217,278126,2,0,P|389:215|427:203,1,64,2|8,0:0|0:0,0:0:0:0:
487,219,278647,2,0,P|483:166|459:90,1,128,2|2,0:0|0:0,0:0:0:0:
406,115,279430,5,8,0:0:0:0:
406,115,279691,1,2,0:0:0:0:
406,115,279952,2,0,B|359:79|365:61|368:59|370:42|326:16,2,128,2|8|2,3:2|0:0|3:2,0:0:0:0:
282,149,281517,2,0,B|261:161|262:169|263:170|266:179|243:197,1,64,8|2,0:0|0:0,0:0:0:0:
226,259,282039,2,0,P|176:295|105:286,1,128,2|8,3:2|0:0,0:0:0:0:
87,236,282821,1,2,0:0:0:0:
87,236,283082,1,2,3:2:0:0:
140,119,283604,1,8,0:0:0:0:
140,119,283865,1,0,3:0:0:0:
140,119,284126,1,2,0:0:0:0:
255,173,284647,6,0,B|235:130|257:110|253:109|272:94|254:38,1,128,12|2,0:0|3:2,0:0:0:0:
386,23,285691,1,8,0:0:0:0:
386,23,285952,1,2,0:0:0:0:
450,138,286473,2,0,P|430:160|415:191,1,64,2|8,0:0|0:0,0:0:0:0:
351,184,286995,2,0,P|353:243|376:308,1,128,2|2,0:0|0:0,0:0:0:0:
410,374,287778,5,8,0:0:0:0:
410,374,288039,1,2,0:0:0:0:
410,374,288300,2,0,P|460:341|505:289,2,128,2|8|2,3:2|0:0|3:2,0:0:0:0:
281,370,289865,2,0,P|254:352|233:327,1,64,8|2,0:0|0:0,0:0:0:0:
177,297,290386,2,0,B|152:289|147:302|149:304|145:318|118:313,1,64,2|0,3:2|0:0,0:0:0:0:
56,323,290908,1,8,0:0:0:0:
42,196,291430,2,0,B|67:204|71:190|69:189|74:174|100:180,2,64,2|2|8,3:2|0:0|0:0,0:0:0:0:
5,149,292213,5,0,0:0:0:0:
5,149,292473,2,0,P|6:81|47:33,2,128,2|8|2,3:2|0:0|3:2,0:0:0:0:
18,281,294039,1,8,0:0:0:0:
18,281,294300,1,2,0:0:0:0:
150,268,294821,2,0,P|181:270|211:291,1,64,2|8,0:0|0:0,0:0:0:0:
265,316,295343,2,0,P|330:303|338:246,1,128,2|2,0:0|0:0,0:0:0:0:
348,193,296126,5,8,0:0:0:0:
348,193,296386,1,2,0:0:0:0:
348,193,296647,2,0,B|362:144|339:129|341:134|320:110|333:63,2,128,2|8|2,3:2|0:0|3:2,0:0:0:0:
230,244,298213,2,0,B|223:219|234:212|233:214|244:202|238:182,1,64,8|2,0:0|0:0,0:0:0:0:
234,118,298734,2,0,P|193:67|114:74,1,128,2|8,3:2|0:0,0:0:0:0:
92,114,299517,1,2,0:0:0:0:
92,114,299778,1,2,3:2:0:0:
6,209,300300,6,0,P|34:244|89:239,1,102.4,2|0,0:0|0:0,0:0:0:0:
