osu file format v14

[General]
AudioFilename: audio.mp3
AudioLeadIn: 0
PreviewTime: 217213
Countdown: 0
SampleSet: Soft
StackLeniency: 0.8
Mode: 0
LetterboxInBreaks: 0
WidescreenStoryboard: 1

[Editor]
Bookmarks: 16995,33691,50386,67082,83778,100473,117169,133865,142213,150560,167256,183952,200647,217343,234039,250734,267430,284126,300821
DistanceSpacing: 1.2
BeatDivisor: 4
GridSize: 4
TimelineZoom: 1.6

[Metadata]
Title:Coppelia
TitleUnicode:Coppelia
Artist:Yunosuke
ArtistUnicode:雄之助
Creator:Hinsvar
Version:Hard
Source:
Tags:ボーカロイド VOCALOID ボカロ 初音ミク Hatsune Miku Japanese Pop J-Pop JPop Black or White EDM Electronic Dance Music House Electrohouse Featured Artist FA Mappers' Guild MG MPG
BeatmapID:4428277
BeatmapSetID:2109544

[Difficulty]
HPDrainRate:4
CircleSize:4
OverallDifficulty:5
ApproachRate:7
SliderMultiplier:1.44
SliderTickRate:1

[Events]
//Background and Video events
0,0,"BG.jpg",0,0
//Break Periods
2,134065,139865
//Storyboard Layer 0 (Background)
//Storyboard Layer 1 (Fail)
//Storyboard Layer 2 (Pass)
//Storyboard Layer 3 (Foreground)
//Storyboard Layer 4 (Overlay)
//Storyboard Sound Samples

[TimingPoints]
300,521.739130434783,4,2,1,65,1,0
14908,-111.111111111111,4,2,1,65,0,0
16995,-100,4,2,1,70,0,0
31604,-125,4,2,1,60,0,0
33691,-111.111111111111,4,2,1,65,0,0
50386,-100,4,2,1,70,0,0
67082,-90.9090909090909,4,2,1,75,0,1
117169,-100,4,2,1,70,0,0
131778,-125,4,2,1,70,0,0
133865,-111.111111111111,4,2,1,65,0,0
150560,-100,4,2,1,60,0,0
167256,-90.9090909090909,4,2,1,75,0,1
200647,-100,4,2,1,70,0,0
217343,-90.9090909090909,4,2,1,75,0,1
267430,-100,4,2,1,70,0,0
300300,-125,4,2,1,60,0,0
300821,-125,4,2,1,50,0,0

[Colours]
Combo1 : 49,221,191
Combo2 : 252,63,143
Combo3 : 160,248,241

[HitObjects]
204,356,14908,6,0,P|256:356|318:298,1,129.599996044922,10|8,0:0|0:0,0:0:0:0:
343,226,15691,1,2,0:0:0:0:
272,176,15952,2,0,P|269:144|268:107,1,64.799998022461,8|0,0:0|3:0,0:0:0:0:
181,109,16473,2,0,P|183:140|185:178,1,64.799998022461,10|0,0:0|3:0,0:0:0:0:
102,200,16995,6,0,B|59:197|48:158|54:154|49:110|4:97,2,144,2|8|2,3:2|0:0|3:2,0:0:0:0:
102,200,18560,1,8,0:0:0:0:
77,282,18821,2,0,P|95:309|144:305,1,72,2|0,0:0|3:0,0:0:0:0:
214,337,19343,2,0,P|241:319|237:270,1,72,2|0,0:0|3:0,0:0:0:0:
269,200,19865,2,0,B|250:156|273:134|270:131|291:107|267:60,1,144,2|2,0:0|0:0,0:0:0:0:
345,22,20647,1,8,0:0:0:0:
373,103,20908,1,2,0:0:0:0:
453,134,21169,6,0,P|507:88|496:12,2,144,2|8|2,3:2|0:0|3:2,0:0:0:0:
453,134,22734,1,8,0:0:0:0:
373,103,22995,1,2,0:0:0:0:
382,188,23256,2,0,P|359:209|303:222,1,72,2|0,3:2|0:0,0:0:0:0:
291,303,23778,2,0,P|259:301|211:271,1,72,8|0,0:0|0:0,0:0:0:0:
145,319,24300,1,2,3:2:0:0:
145,319,24560,1,2,0:0:0:0:
61,341,24821,2,0,L|48:267,1,72,8|0,0:0|0:0,0:0:0:0:
38,183,25343,6,0,P|93:168|132:90,2,144,2|8|2,3:2|0:0|3:2,0:0:0:0:
38,183,26908,1,8,0:0:0:0:
48,270,27169,2,0,P|86:269|132:291,1,72,2|0,0:0|3:0,0:0:0:0:
188,330,27691,2,0,P|206:296|248:267,1,72,2|8,0:0|0:0,0:0:0:0:
309,238,28213,2,0,P|330:176|271:134,1,144,2|2,0:0|0:0,0:0:0:0:
199,176,28995,1,8,0:0:0:0:
126,133,29256,1,2,0:0:0:0:
201,91,29517,6,0,B|228:52|256:50|256:56|291:50|305:-1,2,144,2|8|2,3:2|0:0|3:2,0:0:0:0:
201,91,31082,1,8,0:0:0:0:
215,176,31343,1,2,0:0:0:0:
229,261,31604,6,0,P|265:301|279:219,2,172.8,2|2|2,0:0|0:0|0:0,0:0:0:0:
70,192,33691,5,2,3:2:0:0:
70,192,34213,2,0,P|70:158|66:118,1,64.799998022461,8|0,0:0|0:0,0:0:0:0:
70,48,34734,2,0,P|138:48|218:40,1,129.599996044922,2|8,3:2|0:0,0:0:0:0:
200,43,35386,1,2,0:0:0:0:
200,43,35517,2,0,P|224:22|259:16,1,64.799998022461,2|0,0:0|3:0,0:0:0:0:
318,75,36039,2,0,P|294:96|259:102,1,64.799998022461,2|8,0:0|0:0,0:0:0:0:
180,128,36560,2,0,B|160:169|180:191|183:189|203:211|178:263,1,129.599996044922,2|2,0:0|0:0,0:0:0:0:
188,338,37343,2,0,B|193:348|188:353|187:353|182:358|188:371,2,32.3999990112305,8|0|0,0:0|3:0|3:0,0:0:0:0:
261,292,37865,6,0,P|334:296|373:341,1,129.599996044922,2|8,3:2|0:0,0:0:0:0:
447,373,38647,2,0,P|483:371|503:348,1,64.799998022461,2|0,0:0|3:0,0:0:0:0:
506,265,39169,2,0,L|509:226,2,32.3999990112305,2|2|8,0:0|0:0|0:0,0:0:0:0:
420,250,39691,2,0,L|414:172,1,64.799998022461,2|2,0:0|3:2,0:0:0:0:
431,100,40213,2,0,L|353:106,1,64.799998022461,2|8,0:0|0:0,0:0:0:0:
289,97,40734,2,0,B|304:138|287:159|285:158|265:175|283:226,1,129.599996044922,2|2,0:0|0:0,0:0:0:0:
282,221,41386,1,2,0:0:0:0:
282,221,41517,2,0,P|250:227|224:246,1,64.799998022461,8|0,0:0|0:0,0:0:0:0:
184,322,42039,5,2,3:2:0:0:
184,322,42560,2,0,L|128:359,1,64.799998022461,8|0,0:0|0:0,0:0:0:0:
85,283,43082,2,0,L|11:171,1,129.599996044922,2|8,3:2|0:0,0:0:0:0:
13,174,43734,1,2,0:0:0:0:
13,174,43865,2,0,P|40:184|80:170,1,64.799998022461,2|0,0:0|3:0,0:0:0:0:
152,138,44386,2,0,P|178:128|218:142,1,64.799998022461,2|8,0:0|0:0,0:0:0:0:
271,74,44908,2,0,P|321:96|358:172,1,129.599996044922,2|2,0:0|0:0,0:0:0:0:
281,201,45691,2,0,P|280:220|285:241,2,32.3999990112305,8|0|0,0:0|3:0|3:0,0:0:0:0:
197,221,46213,6,0,P|154:254|81:258,1,129.599996044922,2|8,3:2|0:0,0:0:0:0:
8,305,46995,2,0,P|24:326|26:363,1,64.799998022461,2|0,0:0|3:0,0:0:0:0:
112,371,47517,2,0,L|123:331,2,32.3999990112305,2|2|8,0:0|0:0|0:0,0:0:0:0:
198,377,48039,2,0,L|260:360,1,64.799998022461,2|0,0:0|3:0,0:0:0:0:
263,274,48560,2,0,L|325:291,1,64.799998022461,2|8,0:0|0:0,0:0:0:0:
379,358,49082,2,0,P|434:359|487:304,1,129.599996044922,2|2,0:0|0:0,0:0:0:0:
481,223,49865,1,8,0:0:0:0:
395,227,50126,1,0,3:0:0:0:
434,150,50386,6,0,B|463:112|429:80|430:82|394:50|426:2,2,144,6|8|2,3:2|0:0|3:2,0:0:0:0:
348,154,51691,2,0,P|346:134|336:112,2,36,2|2|8,0:0|0:0|0:0,0:0:0:0:
261,149,52213,2,0,L|190:136,1,72,2|0,0:0|3:0,0:0:0:0:
109,104,52734,2,0,L|96:175,1,72,2|8,0:0|0:0,0:0:0:0:
72,264,53256,2,0,B|117:278|125:313|117:314|127:346|187:361,1,144,2|2,0:0|0:0,0:0:0:0:
174,357,53908,1,2,0:0:0:0:
174,357,54039,2,0,B|181:334|198:330|199:334|215:329|222:299,1,72,8|0,0:0|0:0,0:0:0:0:
291,257,54560,6,0,P|357:270|398:340,2,144,2|8|2,3:2|0:0|3:2,0:0:0:0:
212,219,55865,2,0,P|195:215|185:198,2,36,2|2|8,0:0|0:0|0:0,0:0:0:0:
284,171,56386,2,0,P|287:135|280:99,1,72,2|2,0:0|3:2,0:0:0:0:
350,49,56908,2,0,P|382:33|410:9,1,72,2|8,0:0|0:0,0:0:0:0:
487,48,57430,2,0,P|481:120|495:192,1,144,2|2,0:0|0:0,0:0:0:0:
494,190,58082,1,2,0:0:0:0:
494,190,58213,1,8,0:0:0:0:
436,253,58473,1,2,0:0:0:0:
351,235,58734,6,0,P|307:289|282:365,2,144,2|8|2,3:2|0:0|3:2,0:0:0:0:
295,168,60039,2,0,P|284:154|277:135,2,36,2|2|8,0:0|0:0|0:0,0:0:0:0:
235,231,60560,2,0,P|201:228|168:203,1,72,2|0,0:0|3:0,0:0:0:0:
152,291,61082,2,0,P|125:312|84:318,1,72,2|8,0:0|0:0,0:0:0:0:
40,261,61604,2,0,B|53:226|35:199|32:202|11:166|32:119,1,144,2|2,0:0|0:0,0:0:0:0:
30,121,62256,1,2,0:0:0:0:
30,121,62386,2,0,B|48:117|55:103|53:102|63:84|89:82,1,72,8|0,0:0|0:0,0:0:0:0:
171,103,62908,6,0,P|239:82|273:13,2,144,2|8|2,3:2|0:0|3:2,0:0:0:0:
120,173,64213,2,0,P|125:190|142:198,2,36,2|2|8,0:0|0:0|0:0,0:0:0:0:
12,308,64995,1,2,3:2:0:0:
92,338,65256,2,0,L|98:383,2,36,2|0|0,0:0|3:0|3:0,0:0:0:0:
149,272,65778,1,2,3:2:0:0:
229,242,66039,2,0,L|235:197,2,36,2|0|0,0:0|3:0|3:0,0:0:0:0:
312,263,66560,1,8,0:0:0:0:
383,312,66821,1,8,0:0:0:0:
432,382,67082,6,0,P|470:362|482:320,1,79.2000024169923,4|0,3:2|0:0,0:0:0:0:
475,234,67604,2,0,L|464:149,1,79.2000024169923,8|2,0:0|0:0,0:0:0:0:
459,116,67995,2,0,L|374:127,1,79.2000024169923,2|2,0:0|0:0,0:0:0:0:
341,132,68386,1,2,0:0:0:0:
385,215,68647,1,8,0:0:0:0:
328,291,68908,2,0,B|280:276|252:317|256:320|231:354|182:336,1,158.400004833985,2|0,0:0|0:0,0:0:0:0:
95,367,69691,6,0,P|62:363|36:319,1,79.2000024169923,8|2,0:0|0:0,0:0:0:0:
27,288,70082,2,0,P|13:257|39:212,1,79.2000024169923,2|2,0:0|0:0,0:0:0:0:
61,189,70473,1,2,0:0:0:0:
136,247,70734,1,8,0:0:0:0:
230,233,70995,2,0,B|219:180|250:153|256:158|283:125|270:80,1,158.400004833985,2|0,0:0|0:0,0:0:0:0:
336,16,71778,6,0,P|369:32|422:34,1,79.2000024169923,8|2,0:0|0:0,0:0:0:0:
447,51,72169,2,0,P|449:87|474:134,1,79.2000024169923,2|2,0:0|0:0,0:0:0:0:
472,164,72560,1,2,0:0:0:0:
420,243,72821,1,8,0:0:0:0:
348,198,73082,2,0,P|285:162|198:167,1,158.400004833985,2|0,0:0|0:0,0:0:0:0:
201,165,73734,1,2,0:0:0:0:
201,165,73865,2,0,P|183:196|185:240,1,79.2000024169923,8|2,0:0|0:0,0:0:0:0:
274,267,74386,6,0,L|288:359,1,79.2000024169923,2|0,3:2|0:0,0:0:0:0:
285,345,74778,1,2,0:0:0:0:
285,345,74908,1,8,0:0:0:0:
192,324,75169,1,2,0:0:0:0:
106,365,75430,2,0,L|94:286,1,79.2000024169923,2|0,3:2|0:0,0:0:0:0:
39,208,75952,6,0,P|74:196|93:156,1,79.2000024169923,8|2,0:0|0:0,0:0:0:0:
128,143,76343,2,0,P|155:167|200:163,1,79.2000024169923,2|2,0:0|0:0,0:0:0:0:
228,187,76734,1,2,0:0:0:0:
278,267,76995,1,8,0:0:0:0:
368,236,77256,2,0,B|400:195|381:166|382:162|356:125|396:83,1,158.400004833985,2|0,0:0|0:0,0:0:0:0:
327,16,78039,6,0,P|295:41|254:44,1,79.2000024169923,8|2,0:0|0:0,0:0:0:0:
219,34,78430,1,2,0:0:0:0:
125,49,78691,2,0,P|93:24|52:21,1,79.2000024169923,2|0,0:0|0:0,0:0:0:0:
17,31,79082,1,8,0:0:0:0:
23,125,79343,1,2,0:0:0:0:
107,166,79604,6,0,P|106:205|98:245,1,79.2000024169923,2|0,3:2|0:0,0:0:0:0:
181,290,80126,2,0,P|196:212|198:133,1,158.400004833985,8|0,0:0|3:0,0:0:0:0:
250,53,80908,1,2,0:0:0:0:
250,53,81039,1,2,0:0:0:0:
250,53,81169,1,8,0:0:0:0:
330,105,81430,1,2,0:0:0:0:
278,185,81691,5,10,0:0:0:0:
297,186,81821,1,8,0:0:0:0:
317,189,81951,1,8,0:0:0:0:
336,193,82082,1,8,0:0:0:0:
355,199,82213,2,0,P|374:201|394:207,3,39.6000012084961,10|8|8|8,0:0|0:0|0:0|0:0,0:0:0:0:
412,212,82734,2,0,P|431:217|450:219,3,39.6000012084961,10|8|8|8,0:0|0:0|0:0|0:0,0:0:0:0:
470,222,83256,5,10,0:0:0:0:
505,310,83517,1,8,0:0:0:0:
417,347,83778,2,0,P|378:350|341:333,1,79.2000024169923,2|0,3:2|0:0,0:0:0:0:
258,380,84300,6,0,L|248:296,1,79.2000024169923,8|0,0:0|0:0,0:0:0:0:
240,206,84821,2,0,B|248:184|266:178|268:179|281:171|290:140,1,79.2000024169923,2|0,3:2|0:0,0:0:0:0:
272,109,85213,2,0,B|249:112|235:99|234:96|221:90|189:98,1,79.2000024169923,2|0,0:0|0:0,0:0:0:0:
172,130,85604,2,0,P|153:79|67:23,1,158.400004833985,2|0,0:0|0:0,0:0:0:0:
10,99,86386,6,0,L|82:134,1,79.2000024169923,8|0,0:0|0:0,0:0:0:0:
81,133,86778,1,2,0:0:0:0:
81,133,86908,2,0,P|63:166|29:195,1,79.2000024169923,2|0,3:2|0:0,0:0:0:0:
39,233,87300,2,0,P|72:250|101:284,1,79.2000024169923,2|0,0:0|0:0,0:0:0:0:
139,275,87691,1,2,0:0:0:0:
189,355,87952,6,0,P|259:371|311:306,1,158.400004833985,2|8,3:2|0:0,0:0:0:0:
260,127,88995,2,0,P|250:89|245:50,1,79.2000024169923,2|0,3:2|0:0,0:0:0:0:
276,24,89386,2,0,P|313:34|350:49,1,79.2000024169923,2|0,0:0|0:0,0:0:0:0:
357,89,89778,1,2,0:0:0:0:
399,173,90039,6,0,L|482:167,1,79.2000024169923,2|0,3:2|0:0,0:0:0:0:
482,262,90560,2,0,L|399:268,1,79.2000024169923,8|0,0:0|0:0,0:0:0:0:
403,267,90952,1,2,0:0:0:0:
403,267,91082,2,0,B|408:287|395:307|393:304|378:323|383:352,1,79.2000024169923,2|0,3:2|0:0,0:0:0:0:
351,368,91473,2,0,B|331:362|320:341|324:341|315:318|288:308,1,79.2000024169923,2|0,0:0|0:0,0:0:0:0:
290,272,91865,1,2,0:0:0:0:
338,190,92126,2,0,P|344:153|319:113,1,79.2000024169923,2|0,3:2|0:0,0:0:0:0:
235,82,92647,6,0,L|185:18,1,79.2000024169923,8|0,0:0|0:0,0:0:0:0:
90,17,93169,2,0,B|66:19|57:39|61:41|52:61|26:67,1,79.2000024169923,2|0,3:2|0:0,0:0:0:0:
5,95,93560,2,0,B|7:119|27:127|29:124|49:133|55:159,1,79.2000024169923,2|0,0:0|0:0,0:0:0:0:
83,180,93952,2,0,P|138:158|239:200,1,158.400004833985,2|0,0:0|0:0,0:0:0:0:
268,284,94734,6,0,P|278:323|285:377,1,79.2000024169923,8|0,0:0|0:0,0:0:0:0:
283,361,95126,1,2,0:0:0:0:
283,361,95256,2,0,B|311:352|320:364|320:366|329:382|369:369,1,79.2000024169923,2|0,3:2|0:0,0:0:0:0:
397,376,95647,2,0,B|403:347|418:345|420:346|438:346|447:305,1,79.2000024169923,2|0,0:0|0:0,0:0:0:0:
466,284,96039,2,0,P|439:227|496:152,1,158.400004833985,2|0,0:0|0:0,0:0:0:0:
483,59,96821,6,0,P|450:39|419:9,1,79.2000024169923,8|0,0:0|0:0,0:0:0:0:
420,11,97213,1,2,0:0:0:0:
420,11,97343,2,0,P|400:44|370:75,1,79.2000024169923,2|0,3:2|0:0,0:0:0:0:
372,113,97734,2,0,P|333:112|291:101,1,79.2000024169923,2|0,0:0|0:0,0:0:0:0:
259,122,98126,2,0,B|211:127|192:90|195:86|173:48|122:51,1,158.400004833985,2|0,0:0|0:0,0:0:0:0:
31,64,98908,5,8,0:0:0:0:
14,75,99038,1,2,0:0:0:0:
3,91,99168,1,2,0:0:0:0:
0,110,99299,1,2,0:0:0:0:
2,130,99430,2,0,P|66:132|125:146,1,118.800003625488,2|0,3:2|0:0,0:0:0:0:
156,159,99952,1,8,0:0:0:0:
132,251,100213,1,2,3:2:0:0:
50,298,100473,5,2,3:2:0:0:
222,377,100995,1,8,0:0:0:0:
237,364,101125,1,2,0:0:0:0:
252,352,101255,1,2,0:0:0:0:
268,339,101386,1,2,0:0:0:0:
283,327,101517,2,0,P|240:291|222:228,1,118.800003625488,2|2,3:2|0:0,0:0:0:0:
217,193,102039,2,0,P|223:156|253:124,1,79.2000024169923,8|2,0:0|0:0,0:0:0:0:
346,127,102560,6,0,B|360:94|335:70|333:74|307:49|323:0,2,118.800003625488,2|2|2,3:2|0:0|0:0,0:0:0:0:
440,139,103604,2,0,P|483:175|501:238,1,118.800003625488,2|2,3:2|0:0,0:0:0:0:
506,273,104126,2,0,P|499:309|469:341,1,79.2000024169923,8|2,0:0|0:0,0:0:0:0:
385,298,104647,5,2,3:2:0:0:
208,369,105169,1,8,0:0:0:0:
189,364,105299,1,2,0:0:0:0:
170,360,105429,1,2,0:0:0:0:
150,357,105560,1,2,0:0:0:0:
130,354,105691,2,0,P|83:334|25:380,1,118.800003625488,2|2,3:2|0:0,0:0:0:0:
25,328,106213,2,0,P|38:296|7:258,1,79.2000024169923,8|2,0:0|0:0,0:0:0:0:
9,166,106734,6,0,B|-4:119|15:106|18:108|38:96|24:38,2,118.800003625488,2|2|2,3:2|0:0|0:0,0:0:0:0:
104,157,107778,2,0,P|151:177|209:131,1,118.800003625488,2|2,3:2|0:0,0:0:0:0:
209,183,108300,2,0,P|195:214|226:252,1,79.2000024169923,8|2,0:0|0:0,0:0:0:0:
288,313,108821,5,2,3:2:0:0:
471,362,109343,1,8,0:0:0:0:
473,342,109473,1,2,0:0:0:0:
475,322,109603,1,2,0:0:0:0:
477,302,109734,1,2,0:0:0:0:
480,283,109865,2,0,P|427:263|390:213,1,118.800003625488,2|2,3:2|0:0,0:0:0:0:
375,251,110386,2,0,P|345:274|304:279,1,79.2000024169923,8|2,0:0|0:0,0:0:0:0:
213,254,110908,6,0,B|189:289|209:311|212:309|232:335|196:381,2,118.800003625488,2|2|2,3:2|0:0|0:0,0:0:0:0:
205,158,111952,2,0,P|152:178|115:228,1,118.800003625488,2|2,3:2|0:0,0:0:0:0:
100,190,112473,2,0,P|70:166|29:161,1,79.2000024169923,8|2,0:0|0:0,0:0:0:0:
29,256,112995,5,2,3:2:0:0:
5,67,113517,1,8,0:0:0:0:
24,62,113647,1,2,0:0:0:0:
42,55,113777,1,2,0:0:0:0:
60,47,113908,1,2,0:0:0:0:
78,37,114039,2,0,B|118:15|134:44|133:46|150:74|199:49,1,118.800003625488,2|2,3:2|0:0,0:0:0:0:
224,43,114560,1,8,0:0:0:0:
303,95,114821,1,2,0:0:0:0:
355,16,115082,1,2,3:2:0:0:
488,151,115604,6,0,P|468:154|449:161,3,39.6000012084961,0|2|2|2,3:0|0:0|0:0|0:0,0:0:0:0:
423,191,116126,2,0,P|443:246|454:312,1,118.800003625488,2|2,3:2|0:0,0:0:0:0:
455,344,116647,1,8,0:0:0:0:
366,308,116908,1,2,3:2:0:0:
290,367,117169,6,0,P|222:370|168:308,2,144,2|8|2,3:2|0:0|3:2,0:0:0:0:
290,367,118734,1,8,0:0:0:0:
322,286,118995,2,0,P|334:251|357:214,1,72,2|0,0:0|3:0,0:0:0:0:
278,176,119517,2,0,P|265:141|242:104,1,72,2|8,0:0|0:0,0:0:0:0:
270,27,120039,2,0,P|202:15|162:73,1,144,2|2,0:0|0:0,0:0:0:0:
77,84,120821,1,8,0:0:0:0:
48,166,121082,1,2,0:0:0:0:
104,232,121343,6,0,B|117:277|87:298|86:295|50:320|67:370,2,144,2|8|2,3:2|0:0|3:2,0:0:0:0:
104,232,122908,1,8,0:0:0:0:
133,150,123169,1,2,0:0:0:0:
219,152,123430,2,0,P|252:136|269:104,1,72,2|0,3:2|0:0,0:0:0:0:
302,26,123952,2,0,P|332:46|368:45,1,72,8|0,0:0|0:0,0:0:0:0:
456,38,124473,1,2,3:2:0:0:
456,38,124734,1,2,0:0:0:0:
461,124,124995,2,0,P|424:124|385:133,1,72,8|0,0:0|0:0,0:0:0:0:
364,214,125517,6,0,P|369:286|424:330,2,144,2|8|2,3:2|0:0|3:2,0:0:0:0:
364,214,127082,1,8,0:0:0:0:
302,152,127343,2,0,P|281:124|248:102,1,72,2|0,0:0|3:0,0:0:0:0:
184,46,127865,2,0,P|156:67|134:100,1,72,2|8,0:0|0:0,0:0:0:0:
78,164,128386,2,0,B|50:197|67:230|89:223|106:258|75:300,1,144,2|2,0:0|0:0,0:0:0:0:
112,375,129169,1,8,0:0:0:0:
198,367,129430,1,2,0:0:0:0:
216,282,129691,6,0,P|211:215|199:139,2,144,2|8|2,3:2|0:0|3:2,0:0:0:0:
216,282,131256,1,8,0:0:0:0:
302,287,131517,1,2,0:0:0:0:
340,363,131778,6,0,B|390:366|415:325|408:326|428:280|490:278,2,172.8,2|2|2,0:0|0:0|0:0,0:0:0:0:
172,363,133865,5,2,0:0:0:0:
265,295,141343,5,0,3:0:0:0:
265,295,141430,2,0,L|250:367,2,64.799998022461,8|8|0,3:0|0:0|3:0,0:0:0:0:
287,211,142213,5,4,3:2:0:0:
287,211,142734,2,0,P|278:184|278:145,1,64.799998022461,2|0,3:2|0:0,0:0:0:0:
273,69,143256,2,0,P|219:87|141:87,1,129.599996044922,2|0,3:2|3:0,0:0:0:0:
146,87,143908,1,2,0:0:0:0:
146,87,144039,2,0,L|99:31,1,64.799998022461,2|0,0:0|3:0,0:0:0:0:
32,85,144560,2,0,L|73:134,1,64.799998022461,2|0,0:0|3:0,0:0:0:0:
92,219,145082,2,0,B|112:258|88:283|85:283|63:304|81:358,1,129.599996044922,2|2,0:0|0:0,0:0:0:0:
162,331,145865,2,0,B|157:340|163:347|163:347|169:352|164:365,2,32.3999990112305,2|0|0,3:2|3:0|3:0,0:0:0:0:
200,254,146386,6,0,P|241:206|314:200,1,129.599996044922,2|0,3:2|3:0,0:0:0:0:
383,162,147169,2,0,P|407:182|410:219,1,64.799998022461,2|0,0:0|3:0,0:0:0:0:
352,277,147691,2,0,P|354:292|366:303,2,32.3999990112305,2|2|0,0:0|0:0|3:0,0:0:0:0:
272,311,148213,1,2,0:0:0:0:
205,365,148473,6,0,L|129:364,1,64.799998022461,8|0,0:0|3:0,0:0:0:0:
80,301,148995,2,0,L|4:300,1,64.799998022461,8|0,0:0|3:0,0:0:0:0:
38,216,149517,2,0,L|114:217,1,64.799998022461,8|0,0:0|3:0,0:0:0:0:
163,280,150039,1,8,0:0:0:0:
249,285,150300,1,0,3:0:0:0:
258,190,150560,6,0,B|280:148|256:118|251:125|226:93|246:43,2,144,6|8|2,3:2|0:0|3:2,0:0:0:0:
344,186,151865,2,0,B|355:185|359:176|357:176|361:166|374:165,2,36,2|2|8,0:0|0:0|0:0,0:0:0:0:
309,265,152386,2,0,P|308:307|329:340,1,72,2|0,0:0|3:0,0:0:0:0:
401,366,152908,2,0,P|416:333|413:298,1,72,2|8,0:0|0:0,0:0:0:0:
496,262,153430,2,0,P|508:203|457:131,1,144,2|2,0:0|0:0,0:0:0:0:
464,135,154082,1,2,0:0:0:0:
464,135,154213,2,0,P|434:129|398:154,1,72,8|0,0:0|0:0,0:0:0:0:
323,188,154734,6,0,P|247:193|182:167,2,144,2|8|2,3:2|0:0|3:2,0:0:0:0:
326,101,156039,2,0,P|340:89|348:73,2,36,2|2|8,0:0|0:0|0:0,0:0:0:0:
240,90,156560,2,0,L|230:18,1,72,2|0,0:0|3:0,0:0:0:0:
143,25,157082,2,0,L|71:35,1,72,2|8,0:0|0:0,0:0:0:0:
78,122,157604,2,0,P|72:181|4:228,1,144,2|2,0:0|0:0,0:0:0:0:
6,227,158256,1,2,0:0:0:0:
6,227,158386,1,8,0:0:0:0:
22,319,158647,1,2,0:0:0:0:
102,350,158908,6,0,B|132:380|164:360|164:353|193:330|242:365,2,144,2|8|2,3:2|0:0|3:2,0:0:0:0:
137,270,160213,2,0,B|144:262|139:254|137:254|132:247|140:235,2,36,2|2|8,0:0|0:0|0:0,0:0:0:0:
223,265,160734,2,0,P|253:238|293:242,1,72,2|0,0:0|3:0,0:0:0:0:
295,151,161256,2,0,P|330:153|355:178,1,72,2|8,0:0|0:0,0:0:0:0:
445,160,161778,2,0,P|493:215|510:291,1,144,2|2,0:0|0:0,0:0:0:0:
510,282,162430,1,2,0:0:0:0:
510,282,162560,2,0,P|498:316|469:342,1,72,8|0,0:0|0:0,0:0:0:0:
391,310,163082,6,0,B|349:294|336:333|329:333|302:375|262:351,2,144,2|8|2,3:2|0:0|3:2,0:0:0:0:
417,227,164386,2,0,B|427:232|430:221|432:221|439:210|449:216,2,36,2|2|8,0:0|0:0|0:0,0:0:0:0:
320,83,165169,1,2,3:2:0:0:
244,41,165430,2,0,L|229:2,2,36,2|0|0,0:0|3:0|3:0,0:0:0:0:
185,105,165952,1,2,3:2:0:0:
109,147,166213,2,0,L|94:186,2,36,2|0|0,0:0|3:0|3:0,0:0:0:0:
37,98,166734,1,8,0:0:0:0:
7,179,166995,1,8,0:0:0:0:
53,261,167256,6,0,P|61:298|68:341,1,79.2000024169923,4|0,3:2|0:0,0:0:0:0:
152,382,167778,2,0,P|174:349|219:349,1,79.2000024169923,8|0,0:0|0:0,0:0:0:0:
244,255,168300,2,0,P|202:254|165:233,1,79.2000024169923,2|0,0:0|0:0,0:0:0:0:
152,201,168691,2,0,P|153:159|174:122,1,79.2000024169923,2|0,0:0|0:0,0:0:0:0:
206,109,169082,2,0,P|248:110|304:17,1,158.400004833985,2|0,0:0|0:0,0:0:0:0:
407,22,169865,6,0,L|420:108,1,79.2000024169923,2|0,3:2|0:0,0:0:0:0:
418,101,170256,1,2,0:0:0:0:
418,101,170386,2,0,B|439:98|454:114|453:117|465:133|498:134,1,79.2000024169923,2|0,3:2|0:0,0:0:0:0:
512,163,170778,2,0,B|491:160|476:176|477:179|465:195|432:196,1,79.2000024169923,2|0,0:0|0:0,0:0:0:0:
418,227,171169,1,2,0:0:0:0:
496,279,171430,6,0,P|459:354|391:342,1,158.400004833985,2|8,3:2|0:0,0:0:0:0:
292,185,172473,2,0,P|291:143|280:104,1,79.2000024169923,2|0,3:2|0:0,0:0:0:0:
274,67,172865,2,0,P|232:68|193:79,1,79.2000024169923,2|0,0:0|0:0,0:0:0:0:
156,85,173256,1,2,0:0:0:0:
169,179,173517,6,0,B|172:196|188:213|191:210|203:224|205:252,1,79.2000024169923,2|0,3:2|0:0,0:0:0:0:
291,287,174039,2,0,B|288:304|272:321|269:318|257:332|255:360,1,79.2000024169923,8|0,0:0|0:0,0:0:0:0:
217,368,174430,1,2,0:0:0:0:
217,368,174560,2,0,P|194:338|154:326,1,79.2000024169923,2|0,3:2|0:0,0:0:0:0:
123,350,174952,2,0,P|85:338|61:307,1,79.2000024169923,2|0,0:0|0:0,0:0:0:0:
42,272,175343,1,2,0:0:0:0:
32,177,175604,2,0,L|42:97,1,79.2000024169923,2|0,3:2|0:0,0:0:0:0:
104,26,176126,6,0,P|136:52|125:93,1,79.2000024169923,8|0,0:0|0:0,0:0:0:0:
123,181,176647,2,0,B|149:174|160:190|159:192|173:203|203:191,1,79.2000024169923,2|0,3:2|0:0,0:0:0:0:
219,227,177039,2,0,B|245:233|256:217|255:215|269:204|299:216,1,79.2000024169923,2|0,0:0|0:0,0:0:0:0:
316,181,177430,2,0,P|329:271|397:290,1,158.400004833985,2|0,0:0|0:0,0:0:0:0:
455,355,178213,6,0,L|484:274,1,79.2000024169923,8|0,0:2|0:0,0:0:0:0:
493,242,178604,1,2,0:0:0:0:
493,242,178734,2,0,B|502:219|490:205|486:204|474:186|477:163,1,79.2000024169923,2|0,3:2|0:0,0:0:0:0:
476,127,179126,2,0,B|453:118|439:130|438:134|420:146|397:143,1,79.2000024169923,2|0,0:0|0:0,0:0:0:0:
361,144,179517,2,0,P|296:145|197:108,1,158.400004833985,2|0,0:0|0:0,0:0:0:0:
115,94,180300,6,0,L|100:11,1,79.2000024169923,8|0,0:0|0:0,0:0:0:0:
100,16,180691,1,2,0:0:0:0:
100,16,180821,2,0,P|56:14|22:34,1,79.2000024169923,2|0,3:2|0:0,0:0:0:0:
17,68,181213,2,0,P|14:112|34:146,1,79.2000024169923,2|0,0:0|0:0,0:0:0:0:
69,151,181604,2,0,P|90:229|14:258,1,158.400004833985,2|0,0:0|0:0,0:0:0:0:
31,357,182386,5,8,0:0:0:0:
50,357,182516,1,2,0:0:0:0:
70,358,182646,1,2,0:0:0:0:
90,361,182777,1,2,0:0:0:0:
109,365,182908,2,0,P|144:319|190:278,1,118.800003625488,2|0,3:2|0:0,0:0:0:0:
226,293,183430,1,8,0:0:0:0:
295,357,183691,1,2,3:2:0:0:
389,353,183952,5,2,3:2:0:0:
507,204,184473,1,8,0:0:0:0:
488,198,184603,1,2,0:0:0:0:
468,194,184733,1,2,0:0:0:0:
448,193,184864,1,2,0:0:0:0:
429,194,184995,2,0,P|412:141|383:84,1,118.800003625488,2|2,3:2|0:0,0:0:0:0:
358,54,185517,2,0,P|333:81|309:117,1,79.2000024169923,8|2,0:0|0:0,0:0:0:0:
252,192,186039,6,0,B|234:229|253:249|257:247|275:263|260:323,2,118.800003625488,0|2|2,3:0|0:0|0:0,0:0:0:0:
157,178,187082,2,0,P|140:231|111:288,1,118.800003625488,2|2,3:2|0:0,0:0:0:0:
86,318,187604,2,0,P|61:290|37:254,1,79.2000024169923,8|2,0:0|0:0,0:0:0:0:
16,162,188126,5,2,3:2:0:0:
148,25,188647,1,8,0:0:0:0:
166,17,188777,1,2,0:0:0:0:
185,14,188907,1,2,0:0:0:0:
205,15,189038,1,2,0:0:0:0:
223,22,189169,2,0,B|262:9|282:29|277:34|298:58|336:34,1,118.800003625488,2|2,3:2|0:0,0:0:0:0:
332,75,189691,2,0,B|357:83|371:70|367:67|381:51|407:67,1,79.2000024169923,8|2,0:0|0:0,0:0:0:0:
420,159,190213,6,0,P|480:146|498:96,2,118.800003625488,2|2|2,3:2|0:0|0:0,0:0:0:0:
325,172,191256,2,0,B|286:159|266:179|271:184|250:208|212:184,1,118.800003625488,2|2,3:2|0:0,0:0:0:0:
216,225,191778,2,0,B|190:233|176:220|180:217|166:201|140:217,1,79.2000024169923,8|2,0:0|0:0,0:0:0:0:
52,247,192300,5,2,3:2:0:0:
193,373,192821,1,8,0:0:0:0:
208,360,192951,1,2,0:0:0:0:
220,345,193081,1,2,0:0:0:0:
227,326,193212,1,2,0:0:0:0:
229,307,193343,2,0,P|224:252|212:187,1,118.800003625488,2|2,3:2|0:0,0:0:0:0:
176,173,193865,2,0,P|212:169|255:161,1,79.2000024169923,8|2,0:0|0:0,0:0:0:0:
341,124,194386,6,0,B|355:85|332:65|331:69|302:45|325:-1,2,118.800003625488,2|2|2,3:2|0:0|0:0,0:0:0:0:
436,132,195430,2,0,P|431:187|419:252,1,118.800003625488,2|2,3:2|0:0,0:0:0:0:
383,266,195952,2,0,P|419:269|462:277,1,79.2000024169923,8|2,0:0|0:0,0:0:0:0:
501,363,196473,5,2,3:2:0:0:
316,318,196995,1,8,0:0:0:0:
300,305,197125,1,2,0:0:0:0:
291,288,197255,1,2,0:0:0:0:
289,268,197386,1,2,0:0:0:0:
295,249,197517,2,0,P|296:188|256:153,1,118.800003625488,2|2,3:2|0:0,0:0:0:0:
215,157,198039,1,8,0:0:0:0:
167,239,198300,1,2,0:0:0:0:
85,191,198560,1,2,3:2:0:0:
218,55,199082,6,0,L|263:50,3,39.6000012084961,0|2|2|2,3:0|0:0|0:0|0:0,0:0:0:0:
296,47,199604,2,0,B|338:40|352:62|348:65|362:86|411:76,1,118.800003625488,2|2,3:2|0:0,0:0:0:0:
444,71,200126,1,8,0:0:0:0:
507,141,200386,1,2,3:2:0:0:
477,230,200647,6,0,P|462:283|491:331,2,108,6|2|2,3:2|0:0|0:0,0:0:0:0:
417,167,201691,2,0,P|364:152|316:181,1,108,2|2,3:2|0:0,0:0:0:0:
302,207,202213,2,0,P|266:216|234:197,1,72,8|2,0:0|0:0,0:0:0:0:
152,181,202734,6,0,B|118:171|104:196|106:198|88:222|46:210,2,108,2|2|2,3:2|0:0|0:0,0:0:0:0:
178,263,203778,2,0,B|168:297|193:311|195:309|219:327|207:369,1,108,2|2,3:2|0:0,0:0:0:0:
244,367,204300,1,8,0:0:0:0:
287,292,204560,1,2,0:0:0:0:
374,299,204821,6,0,P|424:276|422:221,2,108,2|2|2,3:2|0:0|0:0,0:0:0:0:
318,232,205865,2,0,P|322:180|370:161,1,108,2|2,3:2|0:0,0:0:0:0:
392,132,206386,2,0,P|364:112|368:78,1,72,8|2,0:0|0:0,0:0:0:0:
304,19,206908,6,0,P|243:12|197:19,2,108,2|2|2,3:2|0:0|0:0,0:0:0:0:
287,104,207952,2,0,P|246:99|215:104,1,72,2|2,3:2|0:0,0:0:0:0:
184,117,208343,1,2,0:0:0:0:
184,117,208473,1,8,0:0:0:0:
103,69,208734,1,2,0:0:0:0:
24,104,208995,6,0,B|50:153|28:175|25:173|0:196|37:249,1,144,2|8,3:2|0:0,0:0:0:0:
116,221,209778,1,2,0:0:0:0:
198,247,210039,2,0,B|178:283|195:300|197:298|216:316|188:355,1,108,2|0,3:2|0:0,0:0:0:0:
220,371,210560,2,0,B|244:383|255:372|254:371|265:359|292:377,1,72,8|2,0:0|0:0,0:0:0:0:
368,341,211082,6,0,P|424:358|478:290,1,144,2|8,3:2|0:0,0:0:0:0:
425,232,211865,1,2,0:0:0:0:
465,155,212126,2,0,P|431:113|380:124,1,108,2|2,3:2|0:0,0:0:0:0:
376,87,212647,1,8,0:0:0:0:
311,29,212908,1,2,0:0:0:0:
262,100,213169,6,0,B|282:148|252:174|257:176|229:199|246:247,1,144,2|8,3:2|0:0,0:0:0:0:
252,324,213952,1,2,0:0:0:0:
181,373,214213,2,0,B|155:369|151:350|149:351|146:333|121:329,1,72,2|0,3:2|0:0,0:0:0:0:
126,330,214604,1,2,0:0:0:0:
126,330,214734,1,8,0:0:0:0:
51,373,214995,2,0,P|32:280|138:232,1,216,2|2,3:2|0:0,0:0:0:0:
298,267,216300,5,10,0:0:0:0:
298,267,216560,1,0,3:0:0:0:
387,278,216821,1,10,0:0:0:0:
387,278,217081,1,0,3:0:0:0:
456,212,217343,6,0,P|463:170|476:131,1,79.2000024169923,4|0,3:2|0:0,0:0:0:0:
479,39,217865,2,0,P|451:56|401:53,1,79.2000024169923,8|2,0:0|0:0,0:0:0:0:
391,92,218256,2,0,P|358:92|316:65,1,79.2000024169923,2|2,0:0|0:0,0:0:0:0:
288,93,218647,1,2,0:0:0:0:
236,172,218908,1,8,0:0:0:0:
151,214,219169,2,0,B|160:165|133:140|128:142|97:114|110:60,1,158.400004833985,2|0,0:0|0:0,0:0:0:0:
30,13,219952,6,0,P|12:47|16:90,1,79.2000024169923,8|2,0:0|0:0,0:0:0:0:
5,125,220343,2,0,P|6:163|31:198,1,79.2000024169923,2|2,0:0|0:0,0:0:0:0:
39,234,220734,1,2,0:0:0:0:
125,273,220995,1,8,0:0:0:0:
134,366,221256,2,0,P|209:363|244:290,1,158.400004833985,2|0,0:0|0:0,0:0:0:0:
279,207,222039,6,0,B|280:184|272:168|267:171|254:154|254:133,1,79.2000024169923,8|2,0:0|0:0,0:0:0:0:
214,127,222430,2,0,B|213:104|221:88|226:91|239:74|239:53,1,79.2000024169923,2|2,0:0|0:0,0:0:0:0:
239,13,222821,1,2,0:0:0:0:
328,44,223082,1,8,0:0:0:0:
424,18,223343,2,0,P|501:56|500:129,1,158.400004833985,2|0,0:0|0:0,0:0:0:0:
504,120,223995,1,2,0:0:0:0:
504,120,224126,2,0,P|466:124|452:160,1,79.2000024169923,8|2,0:0|0:0,0:0:0:0:
482,250,224647,6,0,L|403:256,1,79.2000024169923,2|0,3:2|0:0,0:0:0:0:
403,255,225039,1,2,0:0:0:0:
403,255,225169,1,8,0:0:0:0:
371,345,225430,1,2,0:0:0:0:
276,350,225691,2,0,L|197:356,1,79.2000024169923,2|0,3:2|0:0,0:0:0:0:
136,282,226213,6,0,P|175:267|197:239,1,79.2000024169923,8|2,0:0|0:0,0:0:0:0:
236,247,226604,2,0,P|252:208|248:173,1,79.2000024169923,2|2,0:0|0:0,0:0:0:0:
281,151,226995,1,2,0:0:0:0:
331,70,227256,1,8,0:0:0:0:
250,20,227517,2,0,B|193:56|171:27|174:22|155:-1|98:21,1,158.400004833985,2|0,0:0|0:0,0:0:0:0:
132,109,228300,6,0,P|149:142|155:190,1,79.2000024169923,8|2,0:0|0:0,0:0:0:0:
161,222,228691,1,2,0:0:0:0:
88,283,228952,2,0,P|71:250|65:202,1,79.2000024169923,2|0,0:0|0:0,0:0:0:0:
59,170,229343,1,8,0:0:0:0:
1,93,229604,1,2,0:0:0:0:
55,13,229865,6,0,P|93:13|135:33,1,79.2000024169923,2|0,3:2|0:0,0:0:0:0:
147,122,230386,2,0,P|223:122|307:82,1,158.400004833985,8|0,0:0|3:0,0:0:0:0:
385,45,231169,1,2,0:0:0:0:
385,45,231300,1,2,0:0:0:0:
385,45,231430,1,8,0:0:0:0:
468,100,231691,1,2,0:0:0:0:
380,144,231952,5,10,0:0:0:0:
383,163,232082,1,8,0:0:0:0:
386,183,232212,1,8,0:0:0:0:
389,202,232343,1,8,0:0:0:0:
392,222,232473,2,0,L|385:264,3,39.6000012084961,10|8|8|8,0:0|0:0|0:0|0:0,0:0:0:0:
380,300,232995,2,0,L|387:342,3,39.6000012084961,10|8|8|8,0:0|0:0|0:0|0:0,0:0:0:0:
364,371,233517,5,10,0:0:0:0:
288,313,233778,1,8,0:0:0:0:
204,359,234039,2,0,P|168:364|129:332,1,79.2000024169923,2|0,3:2|0:0,0:0:0:0:
95,253,234560,6,0,L|16:237,1,79.2000024169923,8|0,0:0|0:0,0:0:0:0:
20,141,235082,2,0,P|57:143|100:119,1,79.2000024169923,2|0,3:2|0:0,0:0:0:0:
125,100,235473,2,0,P|123:137|147:180,1,79.2000024169923,2|0,0:0|0:0,0:0:0:0:
171,200,235865,2,0,P|245:204|331:156,1,158.400004833985,2|0,0:0|0:0,0:0:0:0:
368,260,236647,6,0,P|383:295|389:338,1,79.2000024169923,8|0,0:0|0:0,0:0:0:0:
389,336,237039,1,2,0:0:0:0:
388,335,237169,2,0,B|396:316|419:312|419:316|439:311|453:279,1,79.2000024169923,2|0,3:2|0:0,0:0:0:0:
466,252,237560,2,0,B|477:235|469:213|466:215|460:195|481:167,1,79.2000024169923,2|0,0:0|0:0,0:0:0:0:
499,143,237952,1,2,0:0:0:0:
459,56,238213,6,0,P|410:10|326:35,1,158.400004833985,2|8,3:2|0:0,0:0:0:0:
238,199,239256,2,0,L|150:215,1,79.2000024169923,2|0,3:2|0:0,0:0:0:0:
126,234,239647,2,0,L|68:165,1,79.2000024169923,2|0,0:0|0:0,0:0:0:0:
39,154,240039,1,2,0:0:0:0:
1,66,240300,6,0,P|22:34|74:21,1,79.2000024169923,2|0,3:2|0:0,0:0:0:0:
154,22,240821,2,0,P|186:43|199:95,1,79.2000024169923,8|0,0:0|0:0,0:0:0:0:
199,80,241213,1,2,0:0:0:0:
199,80,241343,2,0,B|194:102|208:118|212:116|220:127|218:166,1,79.2000024169923,2|0,3:2|0:0,0:0:0:0:
221,194,241734,2,0,B|242:199|258:185|256:181|267:173|306:175,1,79.2000024169923,2|0,0:0|0:0,0:0:0:0:
334,172,242126,1,2,0:0:0:0:
324,77,242386,2,0,P|337:33|364:8,1,79.2000024169923,2|0,3:2|0:0,0:0:0:0:
454,21,242908,6,0,L|496:88,1,79.2000024169923,8|0,0:0|0:0,0:0:0:0:
493,183,243430,2,0,P|454:181|414:205,1,79.2000024169923,2|0,3:2|0:0,0:0:0:0:
399,234,243821,2,0,P|377:266|378:313,1,79.2000024169923,2|0,0:0|0:0,0:0:0:0:
395,340,244213,2,0,B|357:322|320:351|322:356|290:384|239:364,1,158.400004833985,2|0,0:0|0:0,0:0:0:0:
171,324,244995,6,0,P|136:326|94:364,1,79.2000024169923,8|0,0:0|0:0,0:0:0:0:
101,351,245386,1,2,0:0:0:0:
101,351,245517,2,0,L|22:335,1,79.2000024169923,2|0,3:2|0:0,0:0:0:0:
5,299,245908,2,0,L|21:220,1,79.2000024169923,2|0,0:0|0:0,0:0:0:0:
57,203,246300,2,0,P|123:225|207:190,1,158.400004833985,2|0,0:0|0:0,0:0:0:0:
265,122,247082,6,0,L|244:43,1,79.2000024169923,8|0,0:0|0:0,0:0:0:0:
244,45,247473,1,2,0:0:0:0:
244,45,247604,2,0,B|217:45|207:33|208:29|199:13|168:12,1,79.2000024169923,2|0,3:2|0:0,0:0:0:0:
136,20,247995,2,0,B|121:43|106:46|103:43|85:43|68:69,1,79.2000024169923,2|0,0:0|0:0,0:0:0:0:
59,101,248386,2,0,P|15:164|58:226,1,158.400004833985,2|0,0:0|0:0,0:0:0:0:
145,254,249169,5,8,0:0:0:0:
160,242,249299,1,2,0:0:0:0:
167,224,249429,1,2,0:0:0:0:
161,205,249560,1,2,0:0:0:0:
147,193,249691,2,0,L|271:201,1,118.800003625488,2|0,3:2|0:0,0:0:0:0:
305,203,250213,1,8,0:0:0:0:
385,249,250473,1,2,3:2:0:0:
466,202,250734,5,2,3:2:0:0:
329,334,251256,1,8,0:0:0:0:
309,337,251386,1,2,0:0:0:0:
290,341,251516,1,2,0:0:0:0:
271,348,251647,1,2,0:0:0:0:
253,357,251778,2,0,P|231:302|176:275,1,118.800003625488,2|2,3:2|0:0,0:0:0:0:
155,306,252300,2,0,P|120:287|106:251,1,79.2000024169923,8|2,0:0|0:0,0:0:0:0:
130,159,252821,6,0,B|91:140|73:162|74:163|57:182|5:164,2,118.800003625488,2|2|2,3:2|0:0|0:0,0:0:0:0:
221,184,253865,2,0,P|243:129|298:102,1,118.800003625488,2|2,3:2|0:0,0:0:0:0:
319,133,254387,2,0,P|353:114|367:78,1,79.2000024169923,8|2,0:0|0:0,0:0:0:0:
306,5,254908,5,2,3:2:0:0:
116,22,255430,1,8,0:0:0:0:
102,36,255560,1,2,0:0:0:0:
88,50,255690,1,2,0:0:0:0:
74,64,255821,1,2,0:0:0:0:
60,78,255952,2,0,P|54:139|4:173,1,118.800003625488,2|2,3:2|0:0,0:0:0:0:
22,209,256473,2,0,P|59:192|95:209,1,79.2000024169923,8|2,0:0|0:0,0:0:0:0:
179,245,256995,6,0,B|202:285|182:306|180:302|155:330|192:380,2,118.800003625488,2|2|2,3:2|0:0|0:0,0:0:0:0:
249,180,258039,2,0,P|243:119|193:85,1,118.800003625488,2|2,3:2|0:0,0:0:0:0:
211,49,258560,2,0,P|248:65|284:48,1,79.2000024169923,8|2,0:0|0:0,0:0:0:0:
366,8,259082,5,2,3:2:0:0:
503,139,259604,1,8,0:0:0:0:
497,158,259734,1,2,0:0:0:0:
493,177,259864,1,2,0:0:0:0:
490,197,259995,1,2,0:0:0:0:
490,217,260126,2,0,P|458:175|404:204,1,118.800003625488,2|2,3:2|0:0,0:0:0:0:
391,235,260647,2,0,P|358:251|335:222,1,79.2000024169923,8|2,0:0|0:0,0:0:0:0:
254,170,261169,6,0,B|277:136|255:117|253:119|227:94|254:55,2,118.800003625488,2|2|2,3:2|0:0|0:0,0:0:0:0:
178,222,262213,2,0,P|146:264|92:235,1,118.800003625488,2|2,3:2|0:0,0:0:0:0:
79,204,262734,2,0,P|46:187|23:216,1,79.2000024169923,8|2,0:0|0:0,0:0:0:0:
29,311,263256,5,2,3:2:0:0:
213,356,263778,1,8,0:0:0:0:
232,350,263908,1,2,0:0:0:0:
251,346,264038,1,2,0:0:0:0:
270,342,264169,1,2,0:0:0:0:
290,338,264300,2,0,P|288:284|294:220,1,118.800003625488,2|2,3:2|0:0,0:0:0:0:
297,180,264821,1,8,0:0:0:0:
298,84,265082,1,2,0:0:0:0:
366,16,265343,1,2,3:2:0:0:
499,151,265865,6,0,P|511:165|506:184,3,39.6000012084961,0|2|2|2,3:0|0:0|0:0|0:0,0:0:0:0:
469,192,266386,2,0,P|402:182|365:229,1,118.800003625488,2|2,3:2|0:0,0:0:0:0:
354,251,266908,1,8,0:0:0:0:
270,295,267169,1,2,3:2:0:0:
189,244,267430,6,0,B|147:240|130:277|132:279|108:314|66:303,2,144,2|8|2,3:2|0:0|3:2,0:0:0:0:
189,244,268995,1,8,0:0:0:0:
158,163,269256,2,0,L|88:149,1,72,2|0,0:0|3:0,0:0:0:0:
76,62,269778,2,0,L|146:48,1,72,2|8,0:0|0:0,0:0:0:0:
232,34,270300,2,0,L|262:188,1,144,2|2,0:0|0:0,0:0:0:0:
196,233,271082,1,8,0:0:0:0:
278,259,271343,1,2,0:0:0:0:
342,201,271604,6,0,B|369:165|356:130|354:129|336:89|371:54,2,144,2|8|2,3:2|0:0|3:2,0:0:0:0:
342,201,273169,1,8,0:0:0:0:
420,237,273430,1,2,0:0:0:0:
469,307,273691,2,0,P|479:346|459:378,1,72,2|0,3:2|0:0,0:0:0:0:
378,382,274213,2,0,P|368:343|388:311,1,72,8|0,0:0|0:0,0:0:0:0:
306,284,274734,1,2,3:2:0:0:
306,284,274995,1,2,0:0:0:0:
243,343,275256,2,0,P|204:353|172:333,1,72,8|0,0:0|0:0,0:0:0:0:
110,284,275778,6,0,P|52:296|31:375,2,144,2|8|2,3:2|0:0|3:2,0:0:0:0:
110,284,277343,1,8,0:0:0:0:
190,251,277604,2,0,P|200:219|201:179,1,72,2|0,0:0|3:0,0:0:0:0:
251,110,278126,2,0,P|235:80|207:51,1,72,2|8,0:0|0:0,0:0:0:0:
128,21,278647,2,0,P|68:52|10:107,1,144,2|2,0:0|0:0,0:0:0:0:
16,191,279430,1,8,0:0:0:0:
101,206,279691,1,2,0:0:0:0:
186,221,279952,6,0,B|229:237|263:203|254:202|279:174|328:193,2,144,2|8|2,3:2|0:0|3:2,0:0:0:0:
186,221,281517,1,8,0:0:0:0:
202,136,281778,1,2,0:0:0:0:
273,86,282039,2,0,P|335:105|393:56,1,144,2|8,3:2|0:0,0:0:0:0:
469,95,282821,1,2,0:0:0:0:
424,169,283082,2,0,P|414:200|439:229,1,72,2|0,3:2|0:0,0:0:0:0:
509,277,283604,1,8,0:0:0:0:
485,361,283865,1,0,3:0:0:0:
397,364,284126,2,0,L|384:328,3,36,2|2|2|2,0:0|0:0|0:0|0:0,0:0:0:0:
371,289,284647,6,0,P|319:297|267:231,1,144,12|2,0:0|3:2,0:0:0:0:
267,231,285691,1,8,0:0:0:0:
206,169,285952,2,0,P|186:135|183:90,1,72,2|0,0:0|3:0,0:0:0:0:
266,88,286473,2,0,P|265:48|285:8,1,72,2|8,0:0|0:0,0:0:0:0:
364,9,286995,2,0,B|411:10|432:37|429:42|450:66|510:71,1,144,2|2,0:0|0:0,0:0:0:0:
501,154,287778,1,8,0:0:0:0:
416,172,288039,1,2,0:0:0:0:
351,230,288300,6,0,B|337:272|355:301|358:300|377:325|360:381,2,144,2|8|2,3:2|0:0|3:2,0:0:0:0:
351,230,289865,1,8,0:0:0:0:
333,145,290126,1,2,0:0:0:0:
274,80,290386,2,0,P|254:53|210:31,1,72,2|0,3:2|0:0,0:0:0:0:
134,39,290908,2,0,P|107:59|85:103,1,72,8|0,0:0|0:0,0:0:0:0:
175,118,291430,1,2,3:2:0:0:
175,118,291691,1,2,0:0:0:0:
113,178,291952,2,0,P|79:173|33:188,1,72,8|0,0:0|0:0,0:0:0:0:
83,259,292473,6,0,P|83:301|14:376,2,144,2|8|2,3:2|0:0|3:2,0:0:0:0:
83,259,294039,1,8,0:0:0:0:
61,175,294300,2,0,P|99:170|132:187,1,72,2|0,0:0|3:0,0:0:0:0:
175,256,294821,2,0,P|210:261|242:247,1,72,2|8,0:0|0:0,0:0:0:0:
317,202,295343,2,0,B|365:189|388:215|386:220|408:249|461:231,1,144,2|2,0:0|0:0,0:0:0:0:
507,167,296126,1,8,0:0:0:0:
479,85,296386,1,2,0:0:0:0:
393,68,296647,6,0,P|333:77|288:8,2,144,2|8|2,3:2|0:0|3:2,0:0:0:0:
393,68,298213,1,8,0:0:0:0:
390,154,298473,1,2,0:0:0:0:
387,240,298734,2,0,B|383:288|356:304|355:301|324:318|319:376,1,144,2|8,3:2|0:0,0:0:0:0:
256,305,299517,1,2,0:0:0:0:
191,363,299778,2,0,B|189:340|174:332|173:333|160:325|158:301,1,72,2|0,3:2|0:0,0:0:0:0:
120,223,300300,6,0,P|116:181|137:220,1,115.2,2|0,0:0|0:0,0:0:0:0:
