osu file format v14

[General]
AudioFilename: audio.mp3
AudioLeadIn: 1500
PreviewTime: 78033
Countdown: 0
SampleSet: None
StackLeniency: 0.7
Mode: 3
LetterboxInBreaks: 0
SpecialStyle: 0
WidescreenStoryboard: 1

[Editor]
Bookmarks: 59994
DistanceSpacing: 1
BeatDivisor: 4
GridSize: 16
TimelineZoom: 2

[Metadata]
Title:Cloud 9
TitleUnicode:Cloud 9
Artist:Yunosuke
ArtistUnicode:雄之助
Creator:Div
Version:gd
Source:SOUND VOLTEX IV HEAVENLY HAVEN
Tags:
BeatmapID:1913410
BeatmapSetID:916189

[Difficulty]
HPDrainRate:8
CircleSize:4
OverallDifficulty:8
ApproachRate:9
SliderMultiplier:1.4
SliderTickRate:1

[Events]
//Background and Video events
0,0,"bg.jpg",0,0
//Break Periods
//Storyboard Layer 0 (Background)
//Storyboard Layer 1 (Fail)
//Storyboard Layer 2 (Pass)
//Storyboard Layer 3 (Foreground)
//Storyboard Sound Samples

[TimingPoints]
-6,392.157,4,2,0,15,1,0
78425,-100,4,2,0,15,0,1
100386,-100,4,2,0,15,0,0

[HitObjects]
64,192,1758,128,0,2739:0:0:0:0:
448,192,2739,1,0,0:0:0:0:
320,192,2804,1,0,0:0:0:0:
192,192,2869,1,0,0:0:0:0:
64,192,2935,1,0,0:0:0:0:
448,192,3000,1,0,0:0:0:0:
320,192,3065,1,0,0:0:0:0:
64,192,3131,128,0,3278:0:0:0:0:
192,192,3131,128,0,3278:0:0:0:0:
64,192,3327,1,0,0:0:0:0:
320,192,3327,1,0,0:0:0:0:
448,192,3327,1,0,0:0:0:0:
64,192,3621,1,0,0:0:0:0:
320,192,3621,1,0,0:0:0:0:
448,192,3621,1,0,0:0:0:0:
192,192,3915,128,0,5190:0:0:0:0:
448,192,3915,128,0,5092:0:0:0:0:
64,192,3915,128,0,5288:0:0:0:0:
448,192,5288,1,0,0:0:0:0:
320,192,5337,1,0,0:0:0:0:
192,192,5386,1,0,0:0:0:0:
64,192,5435,1,0,0:0:0:0:
320,192,5484,1,0,0:0:0:0:
448,192,5484,1,0,0:0:0:0:
64,192,5582,1,0,0:0:0:0:
448,192,5680,1,0,0:0:0:0:
192,192,5680,1,0,0:0:0:0:
320,192,5778,1,0,0:0:0:0:
192,192,5876,128,0,5974:0:0:0:0:
64,192,5876,1,0,0:0:0:0:
448,192,5974,128,0,6072:0:0:0:0:
64,192,6072,128,0,6170:0:0:0:0:
320,192,6072,1,0,0:0:0:0:
192,192,6170,128,0,6268:0:0:0:0:
320,192,6268,128,0,6415:0:0:0:0:
448,192,6268,128,0,6415:0:0:0:0:
448,192,6464,1,0,0:0:0:0:
192,192,6464,1,0,0:0:0:0:
64,192,6464,1,0,0:0:0:0:
448,192,6758,1,0,0:0:0:0:
192,192,6758,1,0,0:0:0:0:
64,192,6758,1,0,0:0:0:0:
448,192,7052,128,0,7771:0:0:0:0:
320,192,7052,128,0,7771:0:0:0:0:
64,192,7052,128,0,7771:0:0:0:0:
64,192,7837,128,0,8425:0:0:0:0:
448,192,7837,128,0,8425:0:0:0:0:
320,192,8425,1,0,0:0:0:0:
64,192,8490,1,0,0:0:0:0:
192,192,8556,1,0,0:0:0:0:
320,192,8621,1,0,0:0:0:0:
448,192,8621,1,0,0:0:0:0:
64,192,8719,128,0,8817:0:0:0:0:
192,192,8817,1,0,0:0:0:0:
448,192,8817,1,0,0:0:0:0:
64,192,8915,1,0,0:0:0:0:
320,192,8915,1,0,0:0:0:0:
192,192,9013,128,0,9111:0:0:0:0:
320,192,9111,1,0,0:0:0:0:
448,192,9111,1,0,0:0:0:0:
64,192,9209,1,0,0:0:0:0:
192,192,9209,1,0,0:0:0:0:
320,192,9307,128,0,9405:0:0:0:0:
64,192,9405,1,0,0:0:0:0:
448,192,9405,128,0,9503:0:0:0:0:
192,192,9601,1,0,0:0:0:0:
448,192,9699,128,0,9797:0:0:0:0:
320,192,9797,1,0,0:0:0:0:
64,192,9797,1,0,0:0:0:0:
192,192,9895,1,0,0:0:0:0:
448,192,9994,128,0,10190:0:0:0:0:
192,192,10190,1,0,0:0:0:0:
64,192,10190,1,0,0:0:0:0:
448,192,10288,128,0,10386:0:0:0:0:
320,192,10484,1,0,0:0:0:0:
64,192,10582,128,0,10680:0:0:0:0:
448,192,10582,1,0,0:0:0:0:
192,192,10778,1,0,0:0:0:0:
64,192,10876,128,0,10974:0:0:0:0:
448,192,10974,1,0,0:0:0:0:
320,192,10974,1,0,0:0:0:0:
192,192,11072,1,0,0:0:0:0:
64,192,11170,128,0,11366:0:0:0:0:
192,192,11366,1,0,0:0:0:0:
448,192,11366,1,0,0:0:0:0:
64,192,11464,128,0,11562:0:0:0:0:
320,192,11562,1,0,0:0:0:0:
192,192,11758,128,0,11856:0:0:0:0:
448,192,11758,128,0,11954:0:0:0:0:
64,192,12150,128,0,12346:0:0:0:0:
320,192,12150,128,0,12248:0:0:0:0:
64,192,12543,1,0,0:0:0:0:
448,192,12543,1,0,0:0:0:0:
448,192,12739,1,0,0:0:0:0:
320,192,12788,1,0,0:0:0:0:
64,192,12837,1,0,0:0:0:0:
192,192,12886,1,0,0:0:0:0:
320,192,12935,1,0,0:0:0:0:
448,192,12935,1,0,0:0:0:0:
64,192,13033,1,0,0:0:0:0:
448,192,13131,1,0,0:0:0:0:
192,192,13131,1,0,0:0:0:0:
320,192,13229,1,0,0:0:0:0:
64,192,13327,1,0,0:0:0:0:
448,192,13425,1,0,0:0:0:0:
192,192,13523,1,0,0:0:0:0:
64,192,13523,1,0,0:0:0:0:
320,192,13621,1,0,0:0:0:0:
448,192,13719,1,0,0:0:0:0:
64,192,13719,1,0,0:0:0:0:
192,192,13817,1,0,0:0:0:0:
320,192,13915,1,0,0:0:0:0:
448,192,14013,1,0,0:0:0:0:
64,192,14111,1,0,0:0:0:0:
192,192,14111,1,0,0:0:0:0:
448,192,14209,1,0,0:0:0:0:
320,192,14307,1,0,0:0:0:0:
192,192,14405,1,0,0:0:0:0:
64,192,14503,1,0,0:0:0:0:
448,192,14503,1,0,0:0:0:0:
192,192,14601,1,0,0:0:0:0:
448,192,14699,1,0,0:0:0:0:
320,192,14699,1,0,0:0:0:0:
64,192,14797,1,0,0:0:0:0:
192,192,14895,1,0,0:0:0:0:
320,192,14895,1,0,0:0:0:0:
64,192,14994,1,0,0:0:0:0:
448,192,14994,128,0,15092:0:0:0:0:
320,192,15092,128,0,15190:0:0:0:0:
192,192,15190,128,0,15288:0:0:0:0:
64,192,15288,128,0,15386:0:0:0:0:
448,192,15288,1,0,0:0:0:0:
320,192,15386,128,0,15484:0:0:0:0:
192,192,15484,128,0,15582:0:0:0:0:
448,192,15582,128,0,15680:0:0:0:0:
64,192,15680,128,0,15876:0:0:0:0:
192,192,15680,1,0,0:0:0:0:
320,192,15876,1,0,0:0:0:0:
448,192,15925,1,0,0:0:0:0:
192,192,15974,1,0,0:0:0:0:
64,192,16023,1,0,0:0:0:0:
448,192,16072,128,0,16366:0:0:0:0:
320,192,16072,128,0,16268:0:0:0:0:
64,192,16268,128,0,16464:0:0:0:0:
192,192,16366,128,0,16464:0:0:0:0:
320,192,16464,1,0,0:0:0:0:
448,192,16464,1,0,0:0:0:0:
192,192,16562,128,0,16660:0:0:0:0:
192,192,16758,128,0,16856:0:0:0:0:
64,192,16856,1,0,0:0:0:0:
448,192,16856,1,0,0:0:0:0:
320,192,16954,1,0,0:0:0:0:
192,192,17052,1,0,0:0:0:0:
448,192,17150,1,0,0:0:0:0:
320,192,17150,1,0,0:0:0:0:
192,192,17248,1,0,0:0:0:0:
64,192,17281,1,0,0:0:0:0:
320,192,17346,1,0,0:0:0:0:
448,192,17379,1,0,0:0:0:0:
192,192,17444,1,0,0:0:0:0:
64,192,17477,1,0,0:0:0:0:
320,192,17543,1,0,0:0:0:0:
448,192,17575,1,0,0:0:0:0:
64,192,17641,1,0,0:0:0:0:
192,192,17641,1,0,0:0:0:0:
320,192,17837,1,0,0:0:0:0:
192,192,17869,1,0,0:0:0:0:
448,192,18033,1,0,0:0:0:0:
320,192,18065,1,0,0:0:0:0:
64,192,18098,1,0,0:0:0:0:
192,192,18131,1,0,0:0:0:0:
320,192,18163,1,0,0:0:0:0:
448,192,18196,1,0,0:0:0:0:
64,192,18229,128,0,18327:0:0:0:0:
320,192,18327,1,0,0:0:0:0:
192,192,18425,1,0,0:0:0:0:
448,192,18425,1,0,0:0:0:0:
64,192,18523,1,0,0:0:0:0:
192,192,18621,1,0,0:0:0:0:
320,192,18719,1,0,0:0:0:0:
448,192,18719,1,0,0:0:0:0:
64,192,19013,1,0,0:0:0:0:
448,192,19013,1,0,0:0:0:0:
320,192,19062,1,0,0:0:0:0:
192,192,19111,1,0,0:0:0:0:
64,192,19160,1,0,0:0:0:0:
320,192,19209,1,0,0:0:0:0:
448,192,19209,1,0,0:0:0:0:
64,192,19307,128,0,19601:0:0:0:0:
192,192,19307,128,0,19405:0:0:0:0:
448,192,19405,128,0,19503:0:0:0:0:
320,192,19503,128,0,19601:0:0:0:0:
192,192,19601,1,0,0:0:0:0:
448,192,19601,1,0,0:0:0:0:
320,192,19699,1,0,0:0:0:0:
192,192,19797,1,0,0:0:0:0:
64,192,19895,1,0,0:0:0:0:
320,192,19994,1,0,0:0:0:0:
448,192,19994,1,0,0:0:0:0:
64,192,20092,1,0,0:0:0:0:
192,192,20190,1,0,0:0:0:0:
320,192,20288,1,0,0:0:0:0:
448,192,20386,1,0,0:0:0:0:
64,192,20386,1,0,0:0:0:0:
192,192,20484,128,0,20582:0:0:0:0:
320,192,20484,128,0,20582:0:0:0:0:
448,192,20582,1,0,0:0:0:0:
64,192,20680,128,0,20778:0:0:0:0:
192,192,20680,128,0,20778:0:0:0:0:
320,192,20778,1,0,0:0:0:0:
448,192,20778,1,0,0:0:0:0:
448,192,20974,1,0,0:0:0:0:
320,192,20998,1,0,0:0:0:0:
192,192,21023,1,0,0:0:0:0:
64,192,21047,1,0,0:0:0:0:
448,192,21170,1,0,0:0:0:0:
320,192,21219,1,0,0:0:0:0:
192,192,21268,1,0,0:0:0:0:
64,192,21317,1,0,0:0:0:0:
448,192,21366,1,0,0:0:0:0:
64,192,21464,1,0,0:0:0:0:
192,192,21513,1,0,0:0:0:0:
320,192,21562,128,0,21611:0:0:0:0:
448,192,21562,128,0,21660:0:0:0:0:
64,192,21660,1,0,0:0:0:0:
448,192,21758,1,0,0:0:0:0:
192,192,21758,1,0,0:0:0:0:
320,192,21856,1,0,0:0:0:0:
64,192,21954,128,0,22150:0:0:0:0:
192,192,21954,1,0,0:0:0:0:
448,192,22150,1,0,0:0:0:0:
320,192,22199,1,0,0:0:0:0:
64,192,22248,1,0,0:0:0:0:
192,192,22297,1,0,0:0:0:0:
320,192,22346,1,0,0:0:0:0:
448,192,22346,128,0,22543:0:0:0:0:
64,192,22543,128,0,22641:0:0:0:0:
320,192,22641,128,0,22739:0:0:0:0:
448,192,22641,128,0,22739:0:0:0:0:
192,192,22739,1,0,0:0:0:0:
64,192,22739,1,0,0:0:0:0:
320,192,22837,128,0,22886:0:0:0:0:
192,192,23033,128,0,23082:0:0:0:0:
64,192,23131,1,0,0:0:0:0:
448,192,23131,1,0,0:0:0:0:
320,192,23229,1,0,0:0:0:0:
192,192,23327,1,0,0:0:0:0:
448,192,23425,1,0,0:0:0:0:
64,192,23523,1,0,0:0:0:0:
192,192,23523,1,0,0:0:0:0:
320,192,23621,1,0,0:0:0:0:
448,192,23654,1,0,0:0:0:0:
192,192,23719,1,0,0:0:0:0:
64,192,23752,1,0,0:0:0:0:
320,192,23817,1,0,0:0:0:0:
448,192,23850,1,0,0:0:0:0:
64,192,23915,1,0,0:0:0:0:
192,192,23915,1,0,0:0:0:0:
192,192,24111,1,0,0:0:0:0:
320,192,24144,1,0,0:0:0:0:
64,192,24307,1,0,0:0:0:0:
192,192,24340,1,0,0:0:0:0:
448,192,24373,1,0,0:0:0:0:
320,192,24405,1,0,0:0:0:0:
192,192,24438,1,0,0:0:0:0:
64,192,24471,1,0,0:0:0:0:
448,192,24503,128,0,24601:0:0:0:0:
192,192,24601,1,0,0:0:0:0:
448,192,24699,1,0,0:0:0:0:
64,192,24699,1,0,0:0:0:0:
320,192,24797,1,0,0:0:0:0:
192,192,24895,1,0,0:0:0:0:
320,192,24994,1,0,0:0:0:0:
64,192,25092,128,0,25288:0:0:0:0:
192,192,25092,128,0,25288:0:0:0:0:
448,192,25288,1,0,0:0:0:0:
320,192,25337,1,0,0:0:0:0:
64,192,25386,1,0,0:0:0:0:
192,192,25435,1,0,0:0:0:0:
448,192,25484,128,0,25778:0:0:0:0:
320,192,25484,1,0,0:0:0:0:
64,192,25680,128,0,25876:0:0:0:0:
192,192,25778,128,0,25876:0:0:0:0:
320,192,25876,1,0,0:0:0:0:
448,192,25876,1,0,0:0:0:0:
64,192,25974,1,0,0:0:0:0:
192,192,26072,1,0,0:0:0:0:
320,192,26170,1,0,0:0:0:0:
64,192,26268,1,0,0:0:0:0:
448,192,26268,1,0,0:0:0:0:
320,192,26366,1,0,0:0:0:0:
192,192,26464,1,0,0:0:0:0:
64,192,26562,1,0,0:0:0:0:
448,192,26660,1,0,0:0:0:0:
320,192,26709,1,0,0:0:0:0:
192,192,26758,1,0,0:0:0:0:
64,192,26807,1,0,0:0:0:0:
320,192,26856,128,0,26954:0:0:0:0:
448,192,26856,128,0,26954:0:0:0:0:
192,192,26954,1,0,0:0:0:0:
64,192,26954,1,0,0:0:0:0:
320,192,27052,128,0,27150:0:0:0:0:
448,192,27052,128,0,27150:0:0:0:0:
192,192,27150,1,0,0:0:0:0:
64,192,27248,1,0,0:0:0:0:
192,192,27297,1,0,0:0:0:0:
320,192,27346,1,0,0:0:0:0:
448,192,27395,1,0,0:0:0:0:
64,192,27444,128,0,27543:0:0:0:0:
192,192,27444,128,0,27543:0:0:0:0:
320,192,27543,1,0,0:0:0:0:
448,192,27543,1,0,0:0:0:0:
64,192,27641,128,0,27739:0:0:0:0:
192,192,27641,128,0,27739:0:0:0:0:
320,192,27739,1,0,0:0:0:0:
192,192,27837,1,0,0:0:0:0:
64,192,27837,128,0,28033:0:0:0:0:
448,192,27837,128,0,28033:0:0:0:0:
320,192,28033,128,0,28229:0:0:0:0:
64,192,28229,1,0,0:0:0:0:
192,192,28229,1,0,0:0:0:0:
448,192,28425,1,0,0:0:0:0:
192,192,28425,1,0,0:0:0:0:
64,192,28621,128,0,28915:0:0:0:0:
448,192,28621,1,0,0:0:0:0:
448,192,28817,128,0,29013:0:0:0:0:
320,192,28915,128,0,29013:0:0:0:0:
64,192,29013,1,0,0:0:0:0:
192,192,29013,1,0,0:0:0:0:
320,192,29111,1,0,0:0:0:0:
320,192,29307,1,0,0:0:0:0:
64,192,29405,1,0,0:0:0:0:
448,192,29405,1,0,0:0:0:0:
192,192,29503,1,0,0:0:0:0:
320,192,29601,1,0,0:0:0:0:
192,192,29699,1,0,0:0:0:0:
64,192,29699,1,0,0:0:0:0:
320,192,29797,1,0,0:0:0:0:
448,192,29830,1,0,0:0:0:0:
192,192,29895,1,0,0:0:0:0:
64,192,29928,1,0,0:0:0:0:
320,192,29994,1,0,0:0:0:0:
448,192,30026,1,0,0:0:0:0:
192,192,30092,1,0,0:0:0:0:
64,192,30124,1,0,0:0:0:0:
448,192,30190,1,0,0:0:0:0:
320,192,30190,1,0,0:0:0:0:
192,192,30386,1,0,0:0:0:0:
320,192,30418,1,0,0:0:0:0:
64,192,30582,1,0,0:0:0:0:
192,192,30614,1,0,0:0:0:0:
448,192,30647,1,0,0:0:0:0:
320,192,30680,1,0,0:0:0:0:
192,192,30712,1,0,0:0:0:0:
64,192,30745,1,0,0:0:0:0:
448,192,30778,128,0,30876:0:0:0:0:
192,192,30876,1,0,0:0:0:0:
64,192,30974,1,0,0:0:0:0:
448,192,30974,1,0,0:0:0:0:
320,192,31072,1,0,0:0:0:0:
64,192,31170,1,0,0:0:0:0:
192,192,31219,1,0,0:0:0:0:
448,192,31268,1,0,0:0:0:0:
320,192,31317,1,0,0:0:0:0:
192,192,31366,1,0,0:0:0:0:
64,192,31366,1,0,0:0:0:0:
448,192,31562,1,0,0:0:0:0:
64,192,31562,1,0,0:0:0:0:
192,192,31611,1,0,0:0:0:0:
320,192,31660,1,0,0:0:0:0:
448,192,31709,1,0,0:0:0:0:
192,192,31758,1,0,0:0:0:0:
64,192,31758,1,0,0:0:0:0:
448,192,31856,128,0,32150:0:0:0:0:
320,192,31856,128,0,31954:0:0:0:0:
64,192,31954,128,0,32052:0:0:0:0:
192,192,32052,128,0,32150:0:0:0:0:
320,192,32150,1,0,0:0:0:0:
64,192,32150,1,0,0:0:0:0:
192,192,32248,1,0,0:0:0:0:
320,192,32346,1,0,0:0:0:0:
448,192,32444,1,0,0:0:0:0:
192,192,32543,1,0,0:0:0:0:
64,192,32543,1,0,0:0:0:0:
320,192,32641,1,0,0:0:0:0:
192,192,32739,1,0,0:0:0:0:
64,192,32837,1,0,0:0:0:0:
448,192,32837,1,0,0:0:0:0:
64,192,33033,1,0,0:0:0:0:
448,192,33033,1,0,0:0:0:0:
192,192,33131,1,0,0:0:0:0:
448,192,33229,1,0,0:0:0:0:
320,192,33327,1,0,0:0:0:0:
64,192,33327,1,0,0:0:0:0:
192,192,33523,1,0,0:0:0:0:
320,192,33556,1,0,0:0:0:0:
448,192,33719,1,0,0:0:0:0:
320,192,33768,1,0,0:0:0:0:
64,192,33817,1,0,0:0:0:0:
192,192,33866,1,0,0:0:0:0:
320,192,33915,1,0,0:0:0:0:
448,192,33964,1,0,0:0:0:0:
64,192,34013,1,0,0:0:0:0:
192,192,34062,1,0,0:0:0:0:
320,192,34111,128,0,34307:0:0:0:0:
448,192,34111,128,0,34503:0:0:0:0:
192,192,34503,1,0,0:0:0:0:
64,192,34503,1,0,0:0:0:0:
448,192,34601,1,0,0:0:0:0:
320,192,34699,1,0,0:0:0:0:
192,192,34797,1,0,0:0:0:0:
64,192,34895,1,0,0:0:0:0:
448,192,34895,1,0,0:0:0:0:
320,192,34994,1,0,0:0:0:0:
192,192,35092,1,0,0:0:0:0:
320,192,35190,1,0,0:0:0:0:
64,192,35288,1,0,0:0:0:0:
448,192,35288,1,0,0:0:0:0:
192,192,35386,1,0,0:0:0:0:
320,192,35484,1,0,0:0:0:0:
192,192,35582,1,0,0:0:0:0:
64,192,35680,128,0,35876:0:0:0:0:
448,192,35680,128,0,35876:0:0:0:0:
64,192,36072,1,0,0:0:0:0:
448,192,36072,1,0,0:0:0:0:
320,192,36170,1,0,0:0:0:0:
192,192,36268,1,0,0:0:0:0:
64,192,36366,1,0,0:0:0:0:
320,192,36464,1,0,0:0:0:0:
448,192,36464,1,0,0:0:0:0:
64,192,36562,1,0,0:0:0:0:
192,192,36660,1,0,0:0:0:0:
320,192,36758,1,0,0:0:0:0:
448,192,36856,1,0,0:0:0:0:
64,192,36856,1,0,0:0:0:0:
192,192,36954,1,0,0:0:0:0:
448,192,37052,1,0,0:0:0:0:
320,192,37150,1,0,0:0:0:0:
64,192,37248,1,0,0:0:0:0:
192,192,37297,1,0,0:0:0:0:
320,192,37346,1,0,0:0:0:0:
448,192,37395,1,0,0:0:0:0:
64,192,37444,1,0,0:0:0:0:
320,192,37543,1,0,0:0:0:0:
192,192,37641,1,0,0:0:0:0:
64,192,37641,1,0,0:0:0:0:
448,192,37641,1,0,0:0:0:0:
320,192,37837,1,0,0:0:0:0:
192,192,37935,1,0,0:0:0:0:
64,192,37935,1,0,0:0:0:0:
448,192,37935,1,0,0:0:0:0:
320,192,38131,1,0,0:0:0:0:
192,192,38229,1,0,0:0:0:0:
64,192,38229,1,0,0:0:0:0:
448,192,38229,1,0,0:0:0:0:
320,192,38425,1,0,0:0:0:0:
64,192,38523,1,0,0:0:0:0:
192,192,38523,1,0,0:0:0:0:
448,192,38523,1,0,0:0:0:0:
448,192,38817,1,0,0:0:0:0:
320,192,38850,1,0,0:0:0:0:
192,192,38882,1,0,0:0:0:0:
64,192,38915,1,0,0:0:0:0:
320,192,39013,1,0,0:0:0:0:
448,192,39013,1,0,0:0:0:0:
192,192,39111,1,0,0:0:0:0:
64,192,39111,1,0,0:0:0:0:
448,192,39209,1,0,0:0:0:0:
320,192,39258,1,0,0:0:0:0:
64,192,39307,1,0,0:0:0:0:
192,192,39356,1,0,0:0:0:0:
320,192,39405,1,0,0:0:0:0:
448,192,39405,1,0,0:0:0:0:
64,192,39503,1,0,0:0:0:0:
448,192,39601,1,0,0:0:0:0:
192,192,39601,1,0,0:0:0:0:
320,192,39699,1,0,0:0:0:0:
64,192,39797,1,0,0:0:0:0:
192,192,39846,1,0,0:0:0:0:
448,192,39895,1,0,0:0:0:0:
320,192,39944,1,0,0:0:0:0:
64,192,39994,1,0,0:0:0:0:
192,192,39994,1,0,0:0:0:0:
448,192,40092,1,0,0:0:0:0:
320,192,40190,1,0,0:0:0:0:
64,192,40190,1,0,0:0:0:0:
192,192,40288,1,0,0:0:0:0:
448,192,40386,128,0,40484:0:0:0:0:
192,192,40484,128,0,40582:0:0:0:0:
320,192,40582,128,0,40680:0:0:0:0:
64,192,40680,128,0,40778:0:0:0:0:
192,192,40778,1,0,0:0:0:0:
448,192,40778,1,0,0:0:0:0:
320,192,41170,1,0,0:0:0:0:
192,192,41562,1,0,0:0:0:0:
320,192,41758,1,0,0:0:0:0:
64,192,42150,1,0,0:0:0:0:
320,192,42543,1,0,0:0:0:0:
192,192,42739,1,0,0:0:0:0:
448,192,42935,1,0,0:0:0:0:
64,192,42935,1,0,0:0:0:0:
320,192,43523,1,0,0:0:0:0:
448,192,43523,1,0,0:0:0:0:
192,192,43572,1,0,0:0:0:0:
320,192,44111,1,0,0:0:0:0:
192,192,44307,1,0,0:0:0:0:
64,192,44699,1,0,0:0:0:0:
448,192,45288,1,0,0:0:0:0:
192,192,45484,1,0,0:0:0:0:
320,192,45876,1,0,0:0:0:0:
192,192,46072,1,0,0:0:0:0:
64,192,46072,1,0,0:0:0:0:
320,192,46464,1,0,0:0:0:0:
64,192,46660,1,0,0:0:0:0:
192,192,46856,1,0,0:0:0:0:
320,192,47052,1,0,0:0:0:0:
448,192,47052,128,0,47444:0:0:0:0:
64,192,47444,128,0,47837:0:0:0:0:
192,192,47444,1,0,0:0:0:0:
192,192,47837,128,0,48229:0:0:0:0:
448,192,47837,1,0,0:0:0:0:
320,192,48229,128,0,48621:0:0:0:0:
64,192,48229,1,0,0:0:0:0:
448,192,48621,128,0,49013:0:0:0:0:
64,192,48621,1,0,0:0:0:0:
192,192,49013,128,0,49405:0:0:0:0:
320,192,49013,1,0,0:0:0:0:
64,192,49405,128,0,49797:0:0:0:0:
448,192,49405,1,0,0:0:0:0:
320,192,49797,128,0,50190:0:0:0:0:
448,192,49797,1,0,0:0:0:0:
192,192,50190,128,0,51758:0:0:0:0:
64,192,50190,1,0,0:0:0:0:
320,192,50974,1,0,0:0:0:0:
448,192,51758,128,0,51954:0:0:0:0:
320,192,51758,1,0,0:0:0:0:
64,192,51758,1,0,0:0:0:0:
192,192,51954,1,0,0:0:0:0:
64,192,52052,1,0,0:0:0:0:
192,192,52150,1,0,0:0:0:0:
320,192,52248,1,0,0:0:0:0:
448,192,52346,1,0,0:0:0:0:
64,192,52346,1,0,0:0:0:0:
192,192,52444,1,0,0:0:0:0:
64,192,52543,1,0,0:0:0:0:
448,192,52543,1,0,0:0:0:0:
320,192,52641,1,0,0:0:0:0:
192,192,52739,1,0,0:0:0:0:
64,192,52837,1,0,0:0:0:0:
448,192,52935,1,0,0:0:0:0:
320,192,52935,1,0,0:0:0:0:
64,192,53033,1,0,0:0:0:0:
192,192,53131,1,0,0:0:0:0:
320,192,53229,1,0,0:0:0:0:
64,192,53327,1,0,0:0:0:0:
192,192,53376,1,0,0:0:0:0:
320,192,53425,1,0,0:0:0:0:
448,192,53474,1,0,0:0:0:0:
64,192,53523,1,0,0:0:0:0:
448,192,53621,1,0,0:0:0:0:
192,192,53719,1,0,0:0:0:0:
64,192,53719,1,0,0:0:0:0:
448,192,53817,1,0,0:0:0:0:
320,192,53915,1,0,0:0:0:0:
64,192,53964,1,0,0:0:0:0:
192,192,54013,1,0,0:0:0:0:
320,192,54062,1,0,0:0:0:0:
64,192,54111,1,0,0:0:0:0:
448,192,54111,1,0,0:0:0:0:
192,192,54209,1,0,0:0:0:0:
320,192,54307,1,0,0:0:0:0:
192,192,54405,1,0,0:0:0:0:
448,192,54503,1,0,0:0:0:0:
320,192,54552,1,0,0:0:0:0:
192,192,54601,1,0,0:0:0:0:
64,192,54650,1,0,0:0:0:0:
448,192,54699,1,0,0:0:0:0:
192,192,54797,1,0,0:0:0:0:
320,192,54895,1,0,0:0:0:0:
448,192,54895,1,0,0:0:0:0:
64,192,54994,1,0,0:0:0:0:
192,192,55092,1,0,0:0:0:0:
448,192,55141,1,0,0:0:0:0:
320,192,55190,1,0,0:0:0:0:
192,192,55239,1,0,0:0:0:0:
64,192,55288,1,0,0:0:0:0:
448,192,55288,1,0,0:0:0:0:
320,192,55386,1,0,0:0:0:0:
64,192,55484,1,0,0:0:0:0:
320,192,55582,1,0,0:0:0:0:
64,192,55680,1,0,0:0:0:0:
192,192,55729,1,0,0:0:0:0:
320,192,55778,1,0,0:0:0:0:
448,192,55827,1,0,0:0:0:0:
64,192,55876,1,0,0:0:0:0:
192,192,55974,1,0,0:0:0:0:
448,192,56072,1,0,0:0:0:0:
320,192,56072,1,0,0:0:0:0:
192,192,56170,1,0,0:0:0:0:
448,192,56268,1,0,0:0:0:0:
192,192,56366,1,0,0:0:0:0:
448,192,56464,1,0,0:0:0:0:
320,192,56513,1,0,0:0:0:0:
192,192,56562,1,0,0:0:0:0:
64,192,56611,1,0,0:0:0:0:
320,192,56660,1,0,0:0:0:0:
64,192,56758,1,0,0:0:0:0:
192,192,56856,1,0,0:0:0:0:
448,192,56856,1,0,0:0:0:0:
320,192,56954,1,0,0:0:0:0:
64,192,57052,1,0,0:0:0:0:
192,192,57101,1,0,0:0:0:0:
320,192,57150,1,0,0:0:0:0:
448,192,57199,1,0,0:0:0:0:
192,192,57248,1,0,0:0:0:0:
64,192,57248,1,0,0:0:0:0:
448,192,57346,1,0,0:0:0:0:
192,192,57445,1,0,0:0:0:0:
320,192,57543,1,0,0:0:0:0:
64,192,57641,1,0,0:0:0:0:
192,192,57690,1,0,0:0:0:0:
448,192,57739,1,0,0:0:0:0:
320,192,57788,1,0,0:0:0:0:
64,192,57837,1,0,0:0:0:0:
192,192,57935,1,0,0:0:0:0:
320,192,58033,1,0,0:0:0:0:
448,192,58033,1,0,0:0:0:0:
64,192,58131,1,0,0:0:0:0:
192,192,58229,1,0,0:0:0:0:
448,192,58278,1,0,0:0:0:0:
320,192,58327,1,0,0:0:0:0:
192,192,58376,1,0,0:0:0:0:
448,192,58425,1,0,0:0:0:0:
64,192,58425,1,0,0:0:0:0:
320,192,58523,1,0,0:0:0:0:
192,192,58621,1,0,0:0:0:0:
320,192,58719,1,0,0:0:0:0:
64,192,58817,1,0,0:0:0:0:
192,192,58866,1,0,0:0:0:0:
320,192,58915,1,0,0:0:0:0:
448,192,58964,1,0,0:0:0:0:
64,192,59013,1,0,0:0:0:0:
448,192,59111,1,0,0:0:0:0:
192,192,59209,1,0,0:0:0:0:
64,192,59209,1,0,0:0:0:0:
320,192,59307,1,0,0:0:0:0:
192,192,59405,1,0,0:0:0:0:
320,192,59503,1,0,0:0:0:0:
64,192,59601,1,0,0:0:0:0:
448,192,59601,1,0,0:0:0:0:
192,192,59699,1,0,0:0:0:0:
320,192,59797,1,0,0:0:0:0:
192,192,59895,1,0,0:0:0:0:
64,192,59994,1,0,0:0:0:0:
448,192,59994,1,0,0:0:0:0:
320,192,60092,1,0,0:0:0:0:
64,192,60190,1,0,0:0:0:0:
192,192,60239,1,0,0:0:0:0:
320,192,60288,1,0,0:0:0:0:
448,192,60337,1,0,0:0:0:0:
192,192,60386,1,0,0:0:0:0:
64,192,60386,1,0,0:0:0:0:
448,192,60484,1,0,0:0:0:0:
320,192,60582,1,0,0:0:0:0:
192,192,60680,1,0,0:0:0:0:
64,192,60778,1,0,0:0:0:0:
448,192,60778,1,0,0:0:0:0:
320,192,60876,1,0,0:0:0:0:
192,192,60974,1,0,0:0:0:0:
320,192,61072,1,0,0:0:0:0:
448,192,61170,1,0,0:0:0:0:
64,192,61170,1,0,0:0:0:0:
192,192,61268,1,0,0:0:0:0:
448,192,61366,1,0,0:0:0:0:
320,192,61415,1,0,0:0:0:0:
192,192,61464,1,0,0:0:0:0:
64,192,61513,1,0,0:0:0:0:
320,192,61562,1,0,0:0:0:0:
448,192,61562,1,0,0:0:0:0:
64,192,61660,1,0,0:0:0:0:
192,192,61758,1,0,0:0:0:0:
320,192,61856,1,0,0:0:0:0:
64,192,61954,1,0,0:0:0:0:
448,192,61954,1,0,0:0:0:0:
192,192,62052,1,0,0:0:0:0:
320,192,62150,1,0,0:0:0:0:
192,192,62248,1,0,0:0:0:0:
64,192,62346,1,0,0:0:0:0:
448,192,62346,1,0,0:0:0:0:
320,192,62445,1,0,0:0:0:0:
64,192,62543,1,0,0:0:0:0:
192,192,62592,1,0,0:0:0:0:
448,192,62641,1,0,0:0:0:0:
320,192,62690,1,0,0:0:0:0:
192,192,62739,1,0,0:0:0:0:
64,192,62739,1,0,0:0:0:0:
448,192,62837,1,0,0:0:0:0:
320,192,62935,1,0,0:0:0:0:
192,192,62935,1,0,0:0:0:0:
64,192,63033,1,0,0:0:0:0:
320,192,63131,1,0,0:0:0:0:
448,192,63131,1,0,0:0:0:0:
64,192,63229,1,0,0:0:0:0:
192,192,63327,1,0,0:0:0:0:
448,192,63327,1,0,0:0:0:0:
320,192,63425,1,0,0:0:0:0:
192,192,63523,1,0,0:0:0:0:
64,192,63523,1,0,0:0:0:0:
320,192,63621,1,0,0:0:0:0:
448,192,63719,1,0,0:0:0:0:
64,192,63719,1,0,0:0:0:0:
192,192,63817,1,0,0:0:0:0:
320,192,63915,1,0,0:0:0:0:
448,192,63915,1,0,0:0:0:0:
64,192,64013,1,0,0:0:0:0:
192,192,64111,1,0,0:0:0:0:
320,192,64111,1,0,0:0:0:0:
448,192,64209,1,0,0:0:0:0:
192,192,64307,1,0,0:0:0:0:
64,192,64307,1,0,0:0:0:0:
448,192,64503,1,0,0:0:0:0:
64,192,64601,1,0,0:0:0:0:
448,192,64699,1,0,0:0:0:0:
64,192,64797,1,0,0:0:0:0:
320,192,64895,1,0,0:0:0:0:
448,192,64895,1,0,0:0:0:0:
64,192,64994,1,0,0:0:0:0:
320,192,65092,1,0,0:0:0:0:
192,192,65190,1,0,0:0:0:0:
448,192,65288,1,0,0:0:0:0:
320,192,65386,1,0,0:0:0:0:
192,192,65484,1,0,0:0:0:0:
64,192,65484,1,0,0:0:0:0:
448,192,65484,1,0,0:0:0:0:
64,192,65876,1,0,0:0:0:0:
320,192,65876,1,0,0:0:0:0:
448,192,65876,1,0,0:0:0:0:
448,192,66072,1,0,0:0:0:0:
320,192,66072,1,0,0:0:0:0:
64,192,66072,1,0,0:0:0:0:
192,192,66268,1,0,0:0:0:0:
320,192,66366,1,0,0:0:0:0:
448,192,66464,1,0,0:0:0:0:
64,192,66562,1,0,0:0:0:0:
448,192,66758,128,0,66856:0:0:0:0:
320,192,66758,128,0,66856:0:0:0:0:
192,192,66954,128,0,67052:0:0:0:0:
64,192,67052,128,0,67150:0:0:0:0:
448,192,67052,128,0,67150:0:0:0:0:
320,192,67150,1,0,0:0:0:0:
192,192,67248,1,0,0:0:0:0:
448,192,67248,1,0,0:0:0:0:
64,192,67248,1,0,0:0:0:0:
192,192,67445,1,0,0:0:0:0:
64,192,67445,1,0,0:0:0:0:
448,192,67445,1,0,0:0:0:0:
64,192,67641,1,0,0:0:0:0:
192,192,67641,1,0,0:0:0:0:
448,192,67641,1,0,0:0:0:0:
320,192,67837,1,0,0:0:0:0:
192,192,67935,1,0,0:0:0:0:
64,192,68033,1,0,0:0:0:0:
320,192,68131,1,0,0:0:0:0:
64,192,68229,1,0,0:0:0:0:
448,192,68229,1,0,0:0:0:0:
192,192,68229,1,0,0:0:0:0:
320,192,68327,1,0,0:0:0:0:
192,192,68425,1,0,0:0:0:0:
64,192,68523,1,0,0:0:0:0:
320,192,68523,1,0,0:0:0:0:
448,192,68523,1,0,0:0:0:0:
192,192,68621,1,0,0:0:0:0:
320,192,68719,1,0,0:0:0:0:
448,192,68817,1,0,0:0:0:0:
64,192,68817,1,0,0:0:0:0:
192,192,68915,1,0,0:0:0:0:
320,192,69013,1,0,0:0:0:0:
448,192,69013,1,0,0:0:0:0:
64,192,69013,1,0,0:0:0:0:
64,192,69209,1,0,0:0:0:0:
320,192,69209,1,0,0:0:0:0:
448,192,69209,1,0,0:0:0:0:
192,192,69503,1,0,0:0:0:0:
448,192,69601,1,0,0:0:0:0:
320,192,69699,1,0,0:0:0:0:
192,192,69797,1,0,0:0:0:0:
64,192,69797,1,0,0:0:0:0:
448,192,69797,1,0,0:0:0:0:
192,192,69994,1,0,0:0:0:0:
64,192,69994,1,0,0:0:0:0:
448,192,69994,1,0,0:0:0:0:
320,192,70288,1,0,0:0:0:0:
64,192,70386,1,0,0:0:0:0:
192,192,70484,1,0,0:0:0:0:
64,192,70582,1,0,0:0:0:0:
448,192,70582,1,0,0:0:0:0:
320,192,70582,1,0,0:0:0:0:
192,192,70876,1,0,0:0:0:0:
448,192,70876,1,0,0:0:0:0:
192,192,71170,1,0,0:0:0:0:
64,192,71170,1,0,0:0:0:0:
320,192,71170,1,0,0:0:0:0:
448,192,71464,1,0,0:0:0:0:
64,192,71464,1,0,0:0:0:0:
192,192,71660,1,0,0:0:0:0:
320,192,71660,1,0,0:0:0:0:
448,192,71758,1,0,0:0:0:0:
64,192,71758,1,0,0:0:0:0:
320,192,71824,1,0,0:0:0:0:
192,192,71889,1,0,0:0:0:0:
64,192,71954,1,0,0:0:0:0:
448,192,71954,1,0,0:0:0:0:
320,192,72020,1,0,0:0:0:0:
192,192,72085,1,0,0:0:0:0:
320,192,72150,1,0,0:0:0:0:
448,192,72150,1,0,0:0:0:0:
64,192,72150,1,0,0:0:0:0:
320,192,72346,1,0,0:0:0:0:
448,192,72346,1,0,0:0:0:0:
64,192,72346,1,0,0:0:0:0:
192,192,72543,1,0,0:0:0:0:
320,192,72641,1,0,0:0:0:0:
448,192,72739,1,0,0:0:0:0:
64,192,72837,1,0,0:0:0:0:
448,192,73033,128,0,73131:0:0:0:0:
320,192,73033,128,0,73131:0:0:0:0:
192,192,73229,128,0,73327:0:0:0:0:
64,192,73327,128,0,73425:0:0:0:0:
448,192,73327,128,0,73425:0:0:0:0:
320,192,73425,1,0,0:0:0:0:
192,192,73523,1,0,0:0:0:0:
448,192,73523,1,0,0:0:0:0:
64,192,73523,1,0,0:0:0:0:
192,192,73719,1,0,0:0:0:0:
64,192,73719,1,0,0:0:0:0:
448,192,73719,1,0,0:0:0:0:
64,192,73915,1,0,0:0:0:0:
192,192,73915,1,0,0:0:0:0:
448,192,73915,1,0,0:0:0:0:
320,192,74111,1,0,0:0:0:0:
192,192,74177,1,0,0:0:0:0:
64,192,74242,1,0,0:0:0:0:
448,192,74307,1,0,0:0:0:0:
320,192,74405,1,0,0:0:0:0:
64,192,74503,1,0,0:0:0:0:
448,192,74503,1,0,0:0:0:0:
192,192,74503,1,0,0:0:0:0:
320,192,74601,1,0,0:0:0:0:
192,192,74699,1,0,0:0:0:0:
64,192,74797,1,0,0:0:0:0:
320,192,74797,1,0,0:0:0:0:
448,192,74797,1,0,0:0:0:0:
192,192,74895,1,0,0:0:0:0:
320,192,74994,1,0,0:0:0:0:
448,192,75092,1,0,0:0:0:0:
64,192,75092,1,0,0:0:0:0:
192,192,75190,1,0,0:0:0:0:
320,192,75288,1,0,0:0:0:0:
448,192,75288,1,0,0:0:0:0:
192,192,75386,1,0,0:0:0:0:
64,192,75386,1,0,0:0:0:0:
320,192,75484,1,0,0:0:0:0:
448,192,75484,1,0,0:0:0:0:
192,192,75582,1,0,0:0:0:0:
64,192,75582,1,0,0:0:0:0:
320,192,75680,1,0,0:0:0:0:
448,192,75680,1,0,0:0:0:0:
192,192,75778,1,0,0:0:0:0:
64,192,75778,1,0,0:0:0:0:
320,192,75876,1,0,0:0:0:0:
448,192,75876,1,0,0:0:0:0:
192,192,75974,1,0,0:0:0:0:
64,192,75974,1,0,0:0:0:0:
448,192,76072,1,0,0:0:0:0:
320,192,76121,1,0,0:0:0:0:
192,192,76170,1,0,0:0:0:0:
64,192,76219,1,0,0:0:0:0:
448,192,76268,1,0,0:0:0:0:
320,192,76317,1,0,0:0:0:0:
192,192,76366,1,0,0:0:0:0:
64,192,76415,1,0,0:0:0:0:
448,192,76464,1,0,0:0:0:0:
320,192,76497,1,0,0:0:0:0:
64,192,76529,1,0,0:0:0:0:
192,192,76562,1,0,0:0:0:0:
448,192,76595,1,0,0:0:0:0:
320,192,76628,1,0,0:0:0:0:
64,192,76660,1,0,0:0:0:0:
192,192,76693,1,0,0:0:0:0:
448,192,76726,1,0,0:0:0:0:
320,192,76758,1,0,0:0:0:0:
64,192,76791,1,0,0:0:0:0:
192,192,76824,1,0,0:0:0:0:
320,192,76856,1,0,0:0:0:0:
448,192,76856,1,0,0:0:0:0:
192,192,77052,1,0,0:0:0:0:
64,192,77150,1,0,0:0:0:0:
448,192,77150,1,0,0:0:0:0:
320,192,77248,1,0,0:0:0:0:
320,192,77445,1,0,0:0:0:0:
192,192,77543,1,0,0:0:0:0:
64,192,77543,1,0,0:0:0:0:
448,192,77641,1,0,0:0:0:0:
192,192,77739,1,0,0:0:0:0:
320,192,77837,1,0,0:0:0:0:
448,192,77837,1,0,0:0:0:0:
192,192,77935,1,0,0:0:0:0:
64,192,78033,1,0,0:0:0:0:
448,192,78033,128,0,78131:0:0:0:0:
320,192,78131,128,0,78229:0:0:0:0:
192,192,78229,128,0,78327:0:0:0:0:
64,192,78327,128,0,78425:0:0:0:0:
448,192,78425,1,0,0:0:0:0:
320,192,78425,128,0,78817:0:0:0:0:
192,192,78621,1,0,0:0:0:0:
64,192,78817,128,0,78915:0:0:0:0:
448,192,78817,1,0,0:0:0:0:
192,192,78915,128,0,79013:0:0:0:0:
320,192,79013,128,0,79111:0:0:0:0:
448,192,79111,128,0,79209:0:0:0:0:
192,192,79209,1,0,0:0:0:0:
64,192,79209,128,0,79405:0:0:0:0:
320,192,79405,1,0,0:0:0:0:
192,192,79601,128,0,79797:0:0:0:0:
320,192,79601,1,0,0:0:0:0:
448,192,79797,128,0,79994:0:0:0:0:
64,192,79994,1,0,0:0:0:0:
320,192,79994,1,0,0:0:0:0:
192,192,80190,128,0,80386:0:0:0:0:
448,192,80386,128,0,80484:0:0:0:0:
64,192,80386,1,0,0:0:0:0:
320,192,80484,128,0,80582:0:0:0:0:
192,192,80582,128,0,80680:0:0:0:0:
64,192,80680,128,0,80778:0:0:0:0:
320,192,80778,1,0,0:0:0:0:
448,192,80778,1,0,0:0:0:0:
192,192,80843,1,0,0:0:0:0:
64,192,80909,1,0,0:0:0:0:
448,192,80974,1,0,0:0:0:0:
320,192,81039,1,0,0:0:0:0:
192,192,81105,1,0,0:0:0:0:
448,192,81170,1,0,0:0:0:0:
64,192,81170,128,0,81268:0:0:0:0:
192,192,81268,128,0,81366:0:0:0:0:
320,192,81366,128,0,81464:0:0:0:0:
448,192,81464,128,0,81562:0:0:0:0:
64,192,81562,128,0,81758:0:0:0:0:
192,192,81562,128,0,81758:0:0:0:0:
320,192,81758,1,0,0:0:0:0:
448,192,81856,1,0,0:0:0:0:
64,192,81954,128,0,82150:0:0:0:0:
192,192,81954,128,0,82150:0:0:0:0:
448,192,82150,1,0,0:0:0:0:
64,192,82248,128,0,82346:0:0:0:0:
192,192,82248,128,0,82346:0:0:0:0:
320,192,82346,128,0,82445:0:0:0:0:
448,192,82346,128,0,82445:0:0:0:0:
448,192,82543,128,0,82739:0:0:0:0:
64,192,82543,128,0,82641:0:0:0:0:
192,192,82739,1,0,0:0:0:0:
320,192,82739,1,0,0:0:0:0:
64,192,82837,1,0,0:0:0:0:
192,192,82935,128,0,83131:0:0:0:0:
448,192,82935,128,0,83131:0:0:0:0:
64,192,83131,1,0,0:0:0:0:
320,192,83131,1,0,0:0:0:0:
192,192,83229,1,0,0:0:0:0:
320,192,83327,128,0,83425:0:0:0:0:
448,192,83327,128,0,83425:0:0:0:0:
64,192,83425,1,0,0:0:0:0:
320,192,83523,128,0,83719:0:0:0:0:
448,192,83523,128,0,83719:0:0:0:0:
192,192,83719,1,0,0:0:0:0:
64,192,83915,128,0,84209:0:0:0:0:
448,192,83915,128,0,84111:0:0:0:0:
64,192,84307,128,0,84503:0:0:0:0:
320,192,84307,128,0,84601:0:0:0:0:
192,192,84699,128,0,85092:0:0:0:0:
448,192,84699,1,0,0:0:0:0:
320,192,84895,1,0,0:0:0:0:
64,192,85092,1,0,0:0:0:0:
448,192,85092,128,0,85190:0:0:0:0:
320,192,85190,128,0,85288:0:0:0:0:
192,192,85288,128,0,85386:0:0:0:0:
64,192,85386,128,0,85484:0:0:0:0:
320,192,85484,128,0,85876:0:0:0:0:
448,192,85484,1,0,0:0:0:0:
192,192,85680,1,0,0:0:0:0:
64,192,85876,128,0,85974:0:0:0:0:
448,192,85876,1,0,0:0:0:0:
192,192,85974,128,0,86072:0:0:0:0:
320,192,86072,128,0,86170:0:0:0:0:
448,192,86170,128,0,86268:0:0:0:0:
192,192,86268,1,0,0:0:0:0:
64,192,86268,128,0,86464:0:0:0:0:
320,192,86464,128,0,86660:0:0:0:0:
448,192,86464,128,0,86660:0:0:0:0:
64,192,86660,128,0,86758:0:0:0:0:
192,192,86758,128,0,86856:0:0:0:0:
320,192,86856,128,0,86954:0:0:0:0:
448,192,86954,128,0,87052:0:0:0:0:
192,192,87052,1,0,0:0:0:0:
64,192,87052,1,0,0:0:0:0:
448,192,87118,1,0,0:0:0:0:
320,192,87183,1,0,0:0:0:0:
64,192,87248,1,0,0:0:0:0:
192,192,87314,1,0,0:0:0:0:
320,192,87379,1,0,0:0:0:0:
448,192,87445,1,0,0:0:0:0:
64,192,87445,128,0,87543:0:0:0:0:
320,192,87543,128,0,87641:0:0:0:0:
192,192,87641,128,0,87739:0:0:0:0:
448,192,87739,128,0,87837:0:0:0:0:
320,192,87837,1,0,0:0:0:0:
64,192,87837,128,0,87935:0:0:0:0:
192,192,87935,128,0,88033:0:0:0:0:
320,192,88033,128,0,88131:0:0:0:0:
448,192,88131,128,0,88229:0:0:0:0:
64,192,88229,128,0,88425:0:0:0:0:
192,192,88229,1,0,0:0:0:0:
448,192,88425,128,0,88523:0:0:0:0:
192,192,88523,128,0,88621:0:0:0:0:
320,192,88621,128,0,88719:0:0:0:0:
448,192,88621,1,0,0:0:0:0:
64,192,88719,128,0,88817:0:0:0:0:
192,192,88817,128,0,89013:0:0:0:0:
320,192,89013,1,0,0:0:0:0:
448,192,89013,128,0,89111:0:0:0:0:
64,192,89111,128,0,89209:0:0:0:0:
192,192,89209,128,0,89307:0:0:0:0:
320,192,89307,128,0,89405:0:0:0:0:
448,192,89405,128,0,89601:0:0:0:0:
64,192,89405,1,0,0:0:0:0:
192,192,89601,128,0,89797:0:0:0:0:
320,192,89797,128,0,89994:0:0:0:0:
448,192,89797,1,0,0:0:0:0:
64,192,89994,128,0,90092:0:0:0:0:
448,192,90092,128,0,90190:0:0:0:0:
320,192,90190,1,0,0:0:0:0:
64,192,90190,1,0,0:0:0:0:
192,192,90255,1,0,0:0:0:0:
320,192,90320,1,0,0:0:0:0:
448,192,90386,1,0,0:0:0:0:
64,192,90451,1,0,0:0:0:0:
192,192,90516,1,0,0:0:0:0:
448,192,90582,1,0,0:0:0:0:
320,192,90582,128,0,90680:0:0:0:0:
64,192,90680,128,0,90778:0:0:0:0:
448,192,90778,128,0,90876:0:0:0:0:
192,192,90876,128,0,90974:0:0:0:0:
64,192,90974,1,0,0:0:0:0:
448,192,90974,1,0,0:0:0:0:
320,192,91170,128,0,91268:0:0:0:0:
192,192,91268,128,0,91366:0:0:0:0:
64,192,91366,1,0,0:0:0:0:
448,192,91366,128,0,91464:0:0:0:0:
320,192,91464,128,0,91562:0:0:0:0:
64,192,91562,128,0,91660:0:0:0:0:
192,192,91758,128,0,91856:0:0:0:0:
64,192,91758,1,0,0:0:0:0:
320,192,91856,128,0,91954:0:0:0:0:
64,192,91954,128,0,92052:0:0:0:0:
192,192,92052,128,0,92150:0:0:0:0:
320,192,92150,128,0,92248:0:0:0:0:
448,192,92150,1,0,0:0:0:0:
320,192,92346,128,0,92445:0:0:0:0:
192,192,92445,128,0,92543:0:0:0:0:
64,192,92543,1,0,0:0:0:0:
448,192,92543,128,0,92641:0:0:0:0:
320,192,92641,128,0,92739:0:0:0:0:
64,192,92739,128,0,92837:0:0:0:0:
192,192,92935,128,0,93033:0:0:0:0:
64,192,92935,1,0,0:0:0:0:
320,192,93033,128,0,93131:0:0:0:0:
64,192,93131,128,0,93229:0:0:0:0:
192,192,93229,128,0,93327:0:0:0:0:
448,192,93327,128,0,93523:0:0:0:0:
320,192,93327,1,0,0:0:0:0:
192,192,93523,128,0,93621:0:0:0:0:
320,192,93719,128,0,93915:0:0:0:0:
448,192,93719,1,0,0:0:0:0:
192,192,93915,128,0,94013:0:0:0:0:
64,192,94111,1,0,0:0:0:0:
448,192,94111,1,0,0:0:0:0:
192,192,94307,128,0,94405:0:0:0:0:
320,192,94405,128,0,94503:0:0:0:0:
64,192,94503,128,0,94601:0:0:0:0:
448,192,94503,1,0,0:0:0:0:
192,192,94601,128,0,94699:0:0:0:0:
448,192,94699,128,0,94797:0:0:0:0:
448,192,94895,1,0,0:0:0:0:
320,192,94895,128,0,94994:0:0:0:0:
192,192,94994,128,0,95092:0:0:0:0:
448,192,95092,128,0,95190:0:0:0:0:
320,192,95190,128,0,95288:0:0:0:0:
64,192,95288,1,0,0:0:0:0:
192,192,95288,128,0,95386:0:0:0:0:
192,192,95484,128,0,95582:0:0:0:0:
320,192,95582,128,0,95680:0:0:0:0:
64,192,95680,128,0,95778:0:0:0:0:
448,192,95680,1,0,0:0:0:0:
192,192,95778,128,0,95876:0:0:0:0:
448,192,95876,128,0,95974:0:0:0:0:
320,192,95974,128,0,96072:0:0:0:0:
192,192,96072,128,0,96170:0:0:0:0:
64,192,96170,128,0,96268:0:0:0:0:
448,192,96268,1,0,0:0:0:0:
320,192,96333,1,0,0:0:0:0:
64,192,96399,1,0,0:0:0:0:
192,192,96464,1,0,0:0:0:0:
448,192,96464,128,0,96660:0:0:0:0:
64,192,96660,1,0,0:0:0:0:
320,192,96856,128,0,97052:0:0:0:0:
448,192,96856,1,0,0:0:0:0:
192,192,97052,128,0,97248:0:0:0:0:
64,192,97248,1,0,0:0:0:0:
448,192,97248,1,0,0:0:0:0:
320,192,97346,1,0,0:0:0:0:
64,192,97445,1,0,0:0:0:0:
192,192,97445,1,0,0:0:0:0:
448,192,97543,1,0,0:0:0:0:
320,192,97641,1,0,0:0:0:0:
192,192,97641,1,0,0:0:0:0:
64,192,97739,1,0,0:0:0:0:
320,192,97837,1,0,0:0:0:0:
448,192,97837,1,0,0:0:0:0:
64,192,97935,1,0,0:0:0:0:
192,192,98033,1,0,0:0:0:0:
448,192,98033,1,0,0:0:0:0:
320,192,98131,1,0,0:0:0:0:
192,192,98229,1,0,0:0:0:0:
64,192,98229,1,0,0:0:0:0:
448,192,98327,1,0,0:0:0:0:
64,192,98425,1,0,0:0:0:0:
192,192,98474,1,0,0:0:0:0:
320,192,98523,1,0,0:0:0:0:
448,192,98572,1,0,0:0:0:0:
64,192,98621,1,0,0:0:0:0:
192,192,98719,1,0,0:0:0:0:
320,192,98817,1,0,0:0:0:0:
448,192,98817,1,0,0:0:0:0:
192,192,98915,1,0,0:0:0:0:
64,192,99013,1,0,0:0:0:0:
448,192,99013,1,0,0:0:0:0:
320,192,99111,1,0,0:0:0:0:
192,192,99209,1,0,0:0:0:0:
64,192,99209,1,0,0:0:0:0:
320,192,99307,1,0,0:0:0:0:
448,192,99405,1,0,0:0:0:0:
192,192,99405,1,0,0:0:0:0:
64,192,99503,1,0,0:0:0:0:
320,192,99601,1,0,0:0:0:0:
448,192,99601,1,0,0:0:0:0:
64,192,99699,1,0,0:0:0:0:
192,192,99797,1,0,0:0:0:0:
320,192,99797,1,0,0:0:0:0:
448,192,99895,1,0,0:0:0:0:
64,192,99994,1,0,0:0:0:0:
192,192,100043,1,0,0:0:0:0:
448,192,100092,1,0,0:0:0:0:
320,192,100141,1,0,0:0:0:0:
192,192,100190,1,0,0:0:0:0:
448,192,100288,1,0,0:0:0:0:
320,192,100386,1,0,0:0:0:0:
64,192,100386,1,0,0:0:0:0:
192,192,100484,128,0,100582:0:0:0:0:
320,192,100582,128,0,100680:0:0:0:0:
448,192,100582,128,0,100680:0:0:0:0:
320,192,100778,128,0,100876:0:0:0:0:
448,192,100778,128,0,100876:0:0:0:0:
448,192,100974,1,0,0:0:0:0:
320,192,101023,1,0,0:0:0:0:
192,192,101072,1,0,0:0:0:0:
64,192,101121,1,0,0:0:0:0:
448,192,101170,1,0,0:0:0:0:
320,192,101170,128,0,101268:0:0:0:0:
192,192,101268,128,0,101366:0:0:0:0:
64,192,101366,128,0,101464:0:0:0:0:
448,192,101366,128,0,101464:0:0:0:0:
320,192,101464,128,0,101562:0:0:0:0:
64,192,101562,1,0,0:0:0:0:
192,192,101595,1,0,0:0:0:0:
320,192,101628,1,0,0:0:0:0:
448,192,101660,1,0,0:0:0:0:
64,192,101758,1,0,0:0:0:0:
192,192,101758,1,0,0:0:0:0:
320,192,101856,1,0,0:0:0:0:
448,192,101856,1,0,0:0:0:0:
64,192,101954,1,0,0:0:0:0:
192,192,101954,1,0,0:0:0:0:
320,192,102052,1,0,0:0:0:0:
448,192,102085,1,0,0:0:0:0:
192,192,102150,1,0,0:0:0:0:
64,192,102183,1,0,0:0:0:0:
320,192,102248,1,0,0:0:0:0:
448,192,102281,1,0,0:0:0:0:
64,192,102346,1,0,0:0:0:0:
192,192,102395,1,0,0:0:0:0:
320,192,102445,1,0,0:0:0:0:
448,192,102543,1,0,0:0:0:0:
320,192,102592,1,0,0:0:0:0:
192,192,102641,1,0,0:0:0:0:
64,192,102739,1,0,0:0:0:0:
448,192,102739,1,0,0:0:0:0:
320,192,102837,1,0,0:0:0:0:
192,192,102935,1,0,0:0:0:0:
64,192,103033,1,0,0:0:0:0:
448,192,103033,1,0,0:0:0:0:
320,192,103131,1,0,0:0:0:0:
192,192,103196,1,0,0:0:0:0:
320,192,103262,1,0,0:0:0:0:
448,192,103327,1,0,0:0:0:0:
64,192,103392,1,0,0:0:0:0:
192,192,103458,1,0,0:0:0:0:
320,192,103523,128,0,103654:0:0:0:0:
448,192,103523,128,0,103654:0:0:0:0:
64,192,103719,1,0,0:0:0:0:
192,192,103719,1,0,0:0:0:0:
448,192,103719,1,0,0:0:0:0:
64,192,104013,1,0,0:0:0:0:
192,192,104013,1,0,0:0:0:0:
448,192,104013,1,0,0:0:0:0:
64,192,104307,128,0,105680:0:0:0:0:
192,192,104307,128,0,105582:0:0:0:0:
448,192,104307,128,0,105484:0:0:0:0:
448,192,105680,1,0,0:0:0:0:
320,192,105729,1,0,0:0:0:0:
192,192,105778,1,0,0:0:0:0:
64,192,105827,1,0,0:0:0:0:
448,192,105876,1,0,0:0:0:0:
320,192,105876,1,0,0:0:0:0:
64,192,105974,1,0,0:0:0:0:
192,192,106072,1,0,0:0:0:0:
448,192,106072,1,0,0:0:0:0:
320,192,106170,1,0,0:0:0:0:
64,192,106268,1,0,0:0:0:0:
192,192,106268,128,0,106366:0:0:0:0:
448,192,106366,128,0,106464:0:0:0:0:
320,192,106464,1,0,0:0:0:0:
64,192,106464,128,0,106562:0:0:0:0:
192,192,106562,128,0,106660:0:0:0:0:
448,192,106660,128,0,106807:0:0:0:0:
320,192,106660,128,0,106807:0:0:0:0:
64,192,106856,1,0,0:0:0:0:
192,192,106856,1,0,0:0:0:0:
448,192,106856,1,0,0:0:0:0:
64,192,107150,1,0,0:0:0:0:
192,192,107150,1,0,0:0:0:0:
448,192,107150,1,0,0:0:0:0:
64,192,107445,128,0,108163:0:0:0:0:
320,192,107445,128,0,108163:0:0:0:0:
448,192,107445,128,0,108163:0:0:0:0:
64,192,108229,128,0,108817:0:0:0:0:
448,192,108229,128,0,108817:0:0:0:0:
320,192,108817,1,0,0:0:0:0:
64,192,108882,1,0,0:0:0:0:
192,192,108948,1,0,0:0:0:0:
320,192,109013,1,0,0:0:0:0:
448,192,109013,1,0,0:0:0:0:
64,192,109111,128,0,109209:0:0:0:0:
192,192,109209,1,0,0:0:0:0:
448,192,109209,1,0,0:0:0:0:
64,192,109307,1,0,0:0:0:0:
320,192,109307,1,0,0:0:0:0:
192,192,109405,128,0,109503:0:0:0:0:
320,192,109503,1,0,0:0:0:0:
448,192,109503,1,0,0:0:0:0:
64,192,109601,1,0,0:0:0:0:
192,192,109601,1,0,0:0:0:0:
320,192,109699,128,0,109797:0:0:0:0:
448,192,109797,128,0,109895:0:0:0:0:
64,192,109797,1,0,0:0:0:0:
192,192,109994,1,0,0:0:0:0:
448,192,110092,128,0,110190:0:0:0:0:
320,192,110190,1,0,0:0:0:0:
64,192,110190,1,0,0:0:0:0:
192,192,110288,1,0,0:0:0:0:
448,192,110386,128,0,110582:0:0:0:0:
192,192,110582,1,0,0:0:0:0:
64,192,110582,1,0,0:0:0:0:
448,192,110680,128,0,110778:0:0:0:0:
320,192,110876,1,0,0:0:0:0:
64,192,110974,128,0,111072:0:0:0:0:
448,192,110974,1,0,0:0:0:0:
192,192,111170,1,0,0:0:0:0:
64,192,111268,128,0,111366:0:0:0:0:
448,192,111366,1,0,0:0:0:0:
320,192,111366,1,0,0:0:0:0:
192,192,111464,1,0,0:0:0:0:
64,192,111562,128,0,111758:0:0:0:0:
192,192,111758,1,0,0:0:0:0:
448,192,111758,1,0,0:0:0:0:
64,192,111856,128,0,111954:0:0:0:0:
320,192,111954,1,0,0:0:0:0:
192,192,112150,128,0,112248:0:0:0:0:
448,192,112150,128,0,112346:0:0:0:0:
64,192,112543,128,0,112739:0:0:0:0:
320,192,112543,128,0,112641:0:0:0:0:
64,192,112935,1,0,0:0:0:0:
448,192,112935,1,0,0:0:0:0:
448,192,113131,1,0,0:0:0:0:
320,192,113180,1,0,0:0:0:0:
64,192,113229,1,0,0:0:0:0:
192,192,113278,1,0,0:0:0:0:
320,192,113327,1,0,0:0:0:0:
448,192,113327,1,0,0:0:0:0:
64,192,113425,1,0,0:0:0:0:
448,192,113523,1,0,0:0:0:0:
192,192,113523,1,0,0:0:0:0:
320,192,113621,1,0,0:0:0:0:
64,192,113719,1,0,0:0:0:0:
448,192,113817,1,0,0:0:0:0:
192,192,113915,1,0,0:0:0:0:
64,192,113915,1,0,0:0:0:0:
320,192,114013,1,0,0:0:0:0:
448,192,114111,1,0,0:0:0:0:
64,192,114111,1,0,0:0:0:0:
192,192,114209,1,0,0:0:0:0:
320,192,114307,1,0,0:0:0:0:
448,192,114405,1,0,0:0:0:0:
64,192,114503,1,0,0:0:0:0:
192,192,114503,1,0,0:0:0:0:
448,192,114601,1,0,0:0:0:0:
320,192,114699,1,0,0:0:0:0:
192,192,114797,1,0,0:0:0:0:
448,192,114896,1,0,0:0:0:0:
64,192,114896,1,0,0:0:0:0:
192,192,114994,1,0,0:0:0:0:
448,192,115092,1,0,0:0:0:0:
320,192,115092,1,0,0:0:0:0:
64,192,115190,1,0,0:0:0:0:
192,192,115288,1,0,0:0:0:0:
320,192,115288,1,0,0:0:0:0:
448,192,115386,128,0,115484:0:0:0:0:
64,192,115386,1,0,0:0:0:0:
320,192,115484,128,0,115582:0:0:0:0:
192,192,115582,128,0,115680:0:0:0:0:
448,192,115680,1,0,0:0:0:0:
64,192,115680,128,0,115778:0:0:0:0:
320,192,115778,128,0,115876:0:0:0:0:
192,192,115876,128,0,115974:0:0:0:0:
448,192,115974,128,0,116072:0:0:0:0:
192,192,116072,1,0,0:0:0:0:
64,192,116072,128,0,116464:0:0:0:0:
