osu file format v14

[General]
AudioFilename: audio.mp3
AudioLeadIn: 0
PreviewTime: 40069
Countdown: 0
SampleSet: Normal
StackLeniency: 0.7
Mode: 1
LetterboxInBreaks: 0
WidescreenStoryboard: 1

[Editor]
Bookmarks: 13926,27640
DistanceSpacing: 0.1
BeatDivisor: 4
GridSize: 32
TimelineZoom: 1

[Metadata]
Title:Intergalactic Bound
TitleUnicode:Intergalactic Bound
Artist:Yunosuke & CircusP feat. Hatsune Miku
ArtistUnicode:雄之助 & CircusP feat. 初音ミク
Creator:SN707
Version:Muzukashii
Source:MIKU EXPO 10th
Tags:electronic english vocaloid pop Anniversary Theme Song 2024
BeatmapID:4452416
BeatmapSetID:2119565

[Difficulty]
HPDrainRate:6
CircleSize:5
OverallDifficulty:4.5
ApproachRate:5
SliderMultiplier:1.4
SliderTickRate:1

[Events]
//Background and Video events
0,0,"bg.jpg",0,60
Video,-20,"output.mp4"
//Break Periods
2,113353,118496
//Storyboard Layer 0 (Background)
//Storyboard Layer 1 (Fail)
//Storyboard Layer 2 (Pass)
//Storyboard Layer 3 (Foreground)
//Storyboard Layer 4 (Overlay)
//Storyboard Sound Samples

[TimingPoints]
212,428.571428571429,4,1,0,85,1,0
212,-142.857142857143,4,1,0,75,0,0
13658,-125,4,1,0,80,0,0
25872,-125,4,1,0,80,0,0
26301,-121.209979503852,4,1,0,80,0,0
26729,-117.651094189477,4,1,0,80,0,0
27158,-114.287618286019,4,1,0,80,0,0
27587,-111.111111111111,4,1,0,85,0,0
39587,-111.111111111111,4,1,0,85,0,0
39801,-109.590792838875,4,1,0,85,0,0
40016,-108.104698833176,4,1,0,85,0,0
40230,-106.665007156637,4,1,0,85,0,0
40337,-105.959446092977,4,1,0,85,0,0
40444,-105.263157894737,4,1,0,85,0,0
40659,-103.891380773427,4,1,0,85,0,0
40873,-102.561033987554,4,1,0,85,0,0
41087,-101.264327070779,4,1,0,85,0,0
41301,-90.9090909090909,4,1,0,95,0,0
41354,-90.9090909090909,4,1,0,95,0,1
42372,-83.3333333333333,4,1,0,95,0,1
42801,-100,4,1,0,95,0,1
44729,-90.9090909090909,4,1,0,95,0,1
45801,-83.3333333333333,4,1,0,95,0,1
46229,-100,4,1,0,95,0,1
51587,-90.9090909090909,4,1,0,95,0,1
52658,-83.3333333333333,4,1,0,95,0,1
53087,-100,4,1,0,95,0,1
68783,-100,4,1,0,15,0,0
70390,-125,4,1,0,85,0,0
70497,428.571428571429,4,1,0,85,1,0
70497,-125,4,1,0,85,0,0
82872,-125,4,1,0,85,0,0
83087,-122.441207274112,4,1,0,85,0,0
83301,-119.996267612205,4,1,0,85,0,0
83516,-117.636297109404,4,1,0,85,0,0
83730,-115.377713978109,4,1,0,85,0,0
83944,-113.204225352113,4,1,0,85,0,0
84158,-111.111111111111,4,1,0,85,0,0
85925,428.571428571429,4,1,0,85,1,0
85925,-111.111111111111,4,1,0,85,0,0
97872,-111.111111111111,4,1,0,85,0,0
98086,-109.591667199182,4,1,0,85,0,0
98300,-108.113219441468,4,1,0,85,0,0
98515,-106.667495957209,4,1,0,85,0,0
98622,-105.962310781588,4,1,0,85,0,0
98729,-105.26638841149,4,1,0,85,0,0
98943,-103.901611535199,4,1,0,85,0,0
99158,-102.565636026553,4,1,0,85,0,0
99372,-101.269560082669,4,1,0,85,0,0
99587,-90.9090909090909,4,1,0,95,0,0
99639,-90.9090909090909,4,1,0,95,0,1
100658,-83.3333333333333,4,1,0,95,0,1
101087,-100,4,1,0,95,0,1
103015,-90.9090909090909,4,1,0,95,0,1
104087,-83.3333333333333,4,1,0,95,0,1
104515,-100,4,1,0,95,0,1
109872,-90.9090909090909,4,1,0,95,0,1
110944,-83.3333333333333,4,1,0,95,0,1
111372,-100,4,1,0,95,0,1
113353,-100,4,1,0,60,0,0
114956,-108.110664459683,4,1,0,60,0,0
116778,-117.647058823529,4,1,0,70,0,0
118492,-129.028616582943,4,1,0,70,0,0
120158,-142.857142857143,4,1,0,80,0,0
125944,-155.337167700738,4,1,0,80,0,0
126051,-157.628676470588,4,1,0,80,0,0
126159,-160.011196118679,4,1,0,80,0,0
126480,-167.537732623455,4,1,0,80,0,0
126801,-175.807278318811,4,1,0,80,0,0
127015,-181.818181818182,4,1,0,80,0,0
139015,-181.818181818182,4,1,0,80,0,0
139336,-172.982792551849,4,1,0,80,0,0
139658,-164.942501082616,4,1,0,80,0,0
139979,-157.638186333119,4,1,0,80,0,0
140300,-150.953366506671,4,1,0,80,0,0
140515,-146.78427678342,4,1,0,80,0,0
140729,-142.857142857143,4,1,0,80,0,0
141104,-125,4,1,0,80,0,0
145872,-125,4,1,0,80,0,0
146086,-126.981775077789,4,1,0,80,0,0
146515,-131.150049736017,4,1,0,80,0,0
146729,-133.333333333333,4,1,0,80,0,0
146943,-135.590538723202,4,1,0,80,0,0
147158,-137.936584580718,4,1,0,80,0,0
147586,-142.857142857143,4,1,0,80,0,0
152729,-142.857142857143,4,1,0,80,0,0
153158,-137.925484831416,4,1,0,80,0,0
153586,-133.333333333333,4,1,0,80,0,0
154015,-129.027401385125,4,1,0,80,0,0
154444,-125,4,1,0,80,0,0
154872,-124.323642555338,4,1,0,80,0,0
155086,-123.988980993472,4,1,0,80,0,0
155300,-123.656116317288,4,1,0,80,0,0
155729,-122.994185321055,4,1,0,80,0,0
155943,-122.666633481009,4,1,0,80,0,0
156158,-122.339303223244,4,1,0,80,0,0
156372,-122.015225598812,4,1,0,80,0,0
156586,-121.692860405684,4,1,0,80,0,0
156800,-121.372194106855,4,1,0,80,0,0
157015,-121.051726678784,4,1,0,80,0,0
157443,-120.418784206411,4,1,0,80,0,0
157658,-120.10332516967,4,1,0,80,0,0
157872,-119.790970407729,4,1,0,80,0,0
158086,-119.480236124074,4,1,0,80,0,0
158300,-119.171109740911,4,1,0,80,0,0
158515,-118.862145475593,4,1,0,80,0,0
158729,-118.556205046787,4,1,0,80,0,0
159158,-117.947613406565,4,1,0,80,0,0
159372,-117.646356746434,4,1,0,80,0,0
159586,-117.346635078989,4,1,0,80,0,0
159800,-117.048436702172,4,1,0,80,0,0
160015,-116.750367176766,4,1,0,80,0,0
160443,-116.16149712454,4,1,0,80,0,0
160872,-115.577182388462,4,1,0,80,0,0
161300,-115.000058334208,4,1,0,80,0,0
161515,-114.712317288893,4,1,0,80,0,0
161729,-114.427340902231,4,1,0,80,0,0
161943,-114.143776923433,4,1,0,80,0,0
162158,-113.860299638447,4,1,0,80,0,0
162586,-113.30015287532,4,1,0,80,0,0
162800,-113.022141194547,4,1,0,80,0,0
163015,-112.74420094249,4,1,0,80,0,0
163229,-112.468907601378,4,1,0,80,0,0
163443,-112.194955381533,4,1,0,80,0,0
163658,-111.921063687252,4,1,0,80,0,0
163872,-111.649770629212,4,1,0,80,0,0
164301,-111.111111111111,4,1,0,75,0,0
164515,-112.357783253814,4,1,0,75,0,0
164729,-113.632748289941,4,1,0,75,0,0
165158,-116.277807921866,4,1,0,75,0,0
165372,-117.643829600351,4,1,0,75,0,0
165587,-119.04894172546,4,1,0,75,0,0
166015,-121.948443635122,4,1,0,75,0,0
166229,-123.451811740308,4,1,0,75,0,0
166444,-125,4,1,0,75,0,0
167515,-100,4,1,0,85,0,0
168158,-96.1538461538461,4,1,0,95,0,0
168479,-93.4579439252336,4,1,0,95,0,0
168639,-90.9090909090909,4,1,0,95,0,1
169229,-83.3333333333333,4,1,0,95,0,1
169658,-100,4,1,0,95,0,1
171587,-90.9090909090909,4,1,0,95,0,1
172658,-83.3333333333333,4,1,0,95,0,1
173087,-100,4,1,0,95,0,1
178444,-90.9090909090909,4,1,0,95,0,1
179515,-83.3333333333333,4,1,0,95,0,1
179944,-100,4,1,0,95,0,1
195587,-125,4,1,0,80,0,1
195639,-125,4,1,0,80,0,0
207587,-125,4,1,0,70,0,0
208872,-125,4,1,0,60,0,0

[HitObjects]
256,192,212,5,0,0:0:0:0:
256,192,640,1,0,0:0:0:0:
256,192,962,1,8,0:0:0:0:
256,192,1283,1,0,0:0:0:0:
256,192,1926,1,8,0:0:0:0:
256,192,2247,1,8,0:0:0:0:
256,192,2569,1,0,0:0:0:0:
256,192,3212,1,8,0:0:0:0:
256,192,3640,1,0,0:0:0:0:
256,192,4069,1,0,0:0:0:0:
256,192,4390,1,8,0:0:0:0:
256,192,4712,1,0,0:0:0:0:
256,192,5140,1,8,0:0:0:0:
256,192,5354,1,8,0:0:0:0:
256,192,5676,1,0,0:0:0:0:
256,192,5997,1,8,0:0:0:0:
256,192,6640,1,8,0:0:0:0:
256,192,6854,5,8,0:0:0:0:
256,192,7069,1,0,0:0:0:0:
256,192,7497,1,0,0:0:0:0:
256,192,7819,1,8,0:0:0:0:
256,192,8140,1,0,0:0:0:0:
256,192,8783,1,8,0:0:0:0:
256,192,9104,1,8,0:0:0:0:
256,192,9426,1,0,0:0:0:0:
256,192,10069,1,8,0:0:0:0:
256,192,10283,1,8,0:0:0:0:
256,192,10497,1,8,0:0:0:0:
256,192,10926,1,0,0:0:0:0:
256,192,11247,1,8,0:0:0:0:
256,192,11569,1,0,0:0:0:0:
160,192,11997,1,8,0:0:0:0:
256,192,12212,1,8,0:0:0:0:
256,192,12533,1,8,0:0:0:0:
256,192,12854,1,0,0:0:0:0:
256,192,13712,1,8,0:0:0:0:
256,192,13926,1,0,0:0:0:0:
256,192,14569,1,0,0:0:0:0:
256,192,14783,1,8,0:0:0:0:
256,192,15104,1,0,0:0:0:0:
256,192,15426,1,0,0:0:0:0:
256,192,15640,1,8,0:0:0:0:
256,192,15962,1,8,0:0:0:0:
256,192,16283,1,0,0:0:0:0:
256,192,16497,1,8,0:0:0:0:
256,192,16926,1,0,0:0:0:0:
256,192,17354,1,0,0:0:0:0:
256,192,17997,1,0,0:0:0:0:
256,192,18212,1,8,0:0:0:0:
256,192,18533,1,8,0:0:0:0:
256,192,18854,1,0,0:0:0:0:
256,192,19069,1,8,0:0:0:0:
256,192,19390,1,8,0:0:0:0:
256,192,19712,1,8,0:0:0:0:
256,192,19926,1,0,0:0:0:0:
256,192,20354,1,8,0:0:0:0:
256,192,20783,1,0,0:0:0:0:
256,192,21426,1,0,0:0:0:0:
256,192,21640,1,8,0:0:0:0:
256,192,21962,1,8,0:0:0:0:
256,192,22283,1,0,0:0:0:0:
256,160,22497,1,8,0:0:0:0:
256,160,22819,1,8,0:0:0:0:
256,160,23140,1,0,0:0:0:0:
256,160,23354,1,8,0:0:0:0:
256,160,23783,1,8,0:0:0:0:
224,160,24212,1,8,0:0:0:0:
256,160,24854,1,0,0:0:0:0:
256,160,25069,1,8,0:0:0:0:
256,160,25390,1,8,0:0:0:0:
224,160,25712,1,0,0:0:0:0:
256,160,25926,1,8,0:0:0:0:
256,160,26354,1,8,0:0:0:0:
256,160,26783,1,0,0:0:0:0:
256,160,27212,1,8,0:0:0:0:
256,160,27640,1,8,0:0:0:0:
256,160,28069,1,8,0:0:0:0:
256,160,28283,1,0,0:0:0:0:
256,160,28497,1,0,0:0:0:0:
256,160,28712,1,0,0:0:0:0:
256,160,28926,1,8,0:0:0:0:
256,160,29354,1,8,0:0:0:0:
256,160,29569,1,8,0:0:0:0:
256,160,29783,1,0,0:0:0:0:
256,160,30212,1,0,0:0:0:0:
256,160,30426,1,0,0:0:0:0:
256,160,30640,1,8,0:0:0:0:
256,160,30854,1,0,0:0:0:0:
256,192,31069,1,8,0:0:0:0:
256,192,31497,1,8,0:0:0:0:
256,160,31712,1,8,0:0:0:0:
256,160,31926,1,0,0:0:0:0:
256,192,32140,1,8,0:0:0:0:
256,160,32354,1,0,0:0:0:0:
256,192,32783,1,0,0:0:0:0:
256,192,32997,1,0,0:0:0:0:
256,192,33212,1,8,0:0:0:0:
256,192,33640,1,0,0:0:0:0:
256,192,33854,1,8,0:0:0:0:
256,192,34069,1,8,0:0:0:0:
256,192,34497,1,8,0:0:0:0:
256,192,34926,1,0,0:0:0:0:
256,192,35354,1,8,0:0:0:0:
256,192,35569,1,8,0:0:0:0:
256,192,35783,1,0,0:0:0:0:
256,192,35997,1,8,0:0:0:0:
261,192,36212,1,0,0:0:0:0:
256,192,36640,1,8,0:0:0:0:
256,192,36854,1,8,0:0:0:0:
256,192,37069,1,0,0:0:0:0:
256,192,37497,1,8,0:0:0:0:
256,192,37712,1,8,0:0:0:0:
256,192,37926,1,4,0:0:0:0:
256,192,38354,1,0,0:0:0:0:
256,192,38569,1,12,0:0:0:0:
256,192,38997,1,0,0:0:0:0:
256,192,39426,1,8,0:0:0:0:
256,192,39640,1,8,0:0:0:0:
288,192,39854,1,0,0:0:0:0:
288,192,40069,1,0,0:0:0:0:
320,192,40283,1,8,0:0:0:0:
320,192,40390,1,8,0:0:0:0:
320,192,40497,1,8,0:0:0:0:
320,192,40712,1,0,0:0:0:0:
320,192,40926,1,8,0:0:0:0:
320,192,41140,1,0,0:0:0:0:
320,192,41354,1,12,0:0:0:0:
320,192,41676,1,12,0:0:0:0:
320,192,41997,1,4,0:0:0:0:
320,192,42426,1,12,0:0:0:0:
320,192,42854,1,0,0:0:0:0:
288,160,42962,1,0,0:0:0:0:
288,160,43069,1,0,0:0:0:0:
288,160,43283,1,8,0:0:0:0:
320,192,43497,1,0,0:0:0:0:
288,160,43712,1,8,0:0:0:0:
288,160,44140,1,8,0:0:0:0:
294,188,44354,1,0,0:0:0:0:
288,160,44783,1,12,0:0:0:0:
288,160,45104,1,12,0:0:0:0:
288,160,45426,1,4,0:0:0:0:
288,160,45854,1,12,0:0:0:0:
288,160,46283,1,0,0:0:0:0:
286,155,46390,1,0,0:0:0:0:
288,160,46497,1,0,0:0:0:0:
288,160,46712,1,8,0:0:0:0:
286,155,46926,1,0,0:0:0:0:
290,145,47140,1,8,0:0:0:0:
288,160,47247,1,8,0:0:0:0:
290,145,47354,1,8,0:0:0:0:
303,155,47569,1,0,0:0:0:0:
303,154,47783,1,12,0:0:0:0:
298,144,48212,1,4,0:0:0:0:
311,126,48640,1,12,0:0:0:0:
298,144,49069,1,4,0:0:0:0:
301,144,49497,1,12,0:0:0:0:
298,144,49926,1,0,0:0:0:0:
288,128,50033,1,0,0:0:0:0:
279,123,50140,1,0,0:0:0:0:
301,144,50354,1,0,0:0:0:0:
301,137,50569,1,0,0:0:0:0:
279,115,50783,1,8,0:0:0:0:
286,147,50997,1,8,0:0:0:0:
288,128,51212,1,0,0:0:0:0:
288,128,51426,1,0,0:0:0:0:
288,133,51640,1,12,0:0:0:0:
288,132,51962,1,12,0:0:0:0:
288,132,52283,1,4,0:0:0:0:
312,137,52712,1,12,0:0:0:0:
276,122,53140,1,0,0:0:0:0:
279,122,53247,1,0,0:0:0:0:
279,122,53354,1,0,0:0:0:0:
276,122,53569,1,0,0:0:0:0:
270,113,53783,1,8,0:0:0:0:
270,113,53890,1,8,0:0:0:0:
270,114,53997,1,8,0:0:0:0:
270,113,54212,1,8,0:0:0:0:
270,114,54426,1,0,0:0:0:0:
270,113,54640,1,12,0:0:0:0:
253,121,55069,1,0,0:0:0:0:
253,120,55283,1,0,0:0:0:0:
64,64,55497,1,0,0:0:0:0:
253,121,55712,1,8,0:0:0:0:
260,131,55819,1,8,0:0:0:0:
284,128,55926,1,8,0:0:0:0:
448,64,56140,1,8,0:0:0:0:
64,64,56354,1,0,0:0:0:0:
273,113,56783,1,8,0:0:0:0:
266,114,56997,1,8,0:0:0:0:
448,64,57212,1,8,0:0:0:0:
273,113,57426,1,0,0:0:0:0:
237,124,57533,1,0,0:0:0:0:
270,97,57640,1,0,0:0:0:0:
64,64,57854,1,0,0:0:0:0:
448,64,58069,1,8,0:0:0:0:
262,109,58497,1,12,0:0:0:0:
256,192,58926,1,0,0:0:0:0:
256,192,59354,1,12,0:0:0:0:
256,192,59783,1,0,0:0:0:0:
256,192,59997,1,0,0:0:0:0:
256,192,60104,1,0,0:0:0:0:
256,192,60212,1,0,0:0:0:0:
256,192,60426,1,0,0:0:0:0:
256,192,60640,1,8,0:0:0:0:
256,192,60747,1,8,0:0:0:0:
256,160,60854,1,8,0:0:0:0:
256,160,61069,1,8,0:0:0:0:
256,192,61283,1,0,0:0:0:0:
256,192,61497,1,12,0:0:0:0:
256,160,61926,1,0,0:0:0:0:
256,160,62140,1,0,0:0:0:0:
448,64,62354,1,8,0:0:0:0:
256,160,62569,1,8,0:0:0:0:
247,166,62676,1,8,0:0:0:0:
256,160,62783,1,8,0:0:0:0:
64,64,62997,1,0,0:0:0:0:
256,160,63212,1,8,0:0:0:0:
256,160,63640,1,8,0:0:0:0:
256,160,63854,1,8,0:0:0:0:
64,64,64069,1,0,0:0:0:0:
256,160,64283,1,0,0:0:0:0:
236,175,64390,1,0,0:0:0:0:
256,160,64497,1,0,0:0:0:0:
448,64,64712,1,8,0:0:0:0:
64,64,64926,1,0,0:0:0:0:
256,160,65354,1,4,0:0:0:0:
256,160,65783,1,8,0:0:0:0:
256,160,66212,1,4,0:0:0:0:
256,160,66640,1,8,0:0:0:0:
256,160,66854,1,0,0:0:0:0:
256,160,66962,1,0,0:0:0:0:
256,160,67069,1,0,0:0:0:0:
256,160,67283,1,0,0:0:0:0:
256,160,67497,1,8,0:0:0:0:
256,160,67604,1,8,0:0:0:0:
256,160,67712,1,8,0:0:0:0:
256,160,67926,1,8,0:0:0:0:
256,160,68140,1,0,0:0:0:0:
256,160,68354,1,12,0:0:0:0:
256,192,70497,1,0,0:0:0:0:
256,192,70925,1,0,0:0:0:0:
256,192,71139,1,0,0:0:0:0:
256,192,71354,1,8,0:0:0:0:
256,192,71568,1,8,0:0:0:0:
256,192,71997,1,0,0:0:0:0:
224,192,72211,1,8,0:0:0:0:
224,192,72532,1,0,0:0:0:0:
256,224,72854,1,8,0:0:0:0:
256,224,73068,1,8,0:0:0:0:
224,160,73497,1,8,0:0:0:0:
256,192,73925,1,0,0:0:0:0:
256,192,74354,1,8,0:0:0:0:
256,192,74568,1,0,0:0:0:0:
256,192,74675,1,0,0:0:0:0:
256,192,74782,1,0,0:0:0:0:
256,192,74997,1,8,0:0:0:0:
256,192,75425,1,0,0:0:0:0:
256,192,75639,1,8,0:0:0:0:
256,192,75854,1,0,0:0:0:0:
256,192,75961,1,0,0:0:0:0:
256,192,76282,1,8,0:0:0:0:
256,192,76497,1,8,0:0:0:0:
256,192,76925,1,8,0:0:0:0:
256,192,77354,1,0,0:0:0:0:
256,192,77782,1,8,0:0:0:0:
256,192,77997,1,0,0:0:0:0:
256,192,78104,1,0,0:0:0:0:
256,192,78211,1,0,0:0:0:0:
256,192,78425,1,8,0:0:0:0:
224,160,78854,1,0,0:0:0:0:
224,224,78961,1,0,0:0:0:0:
224,224,79068,1,0,0:0:0:0:
256,192,79389,1,8,0:0:0:0:
256,192,79711,1,0,0:0:0:0:
256,192,79925,1,8,0:0:0:0:
256,192,80354,1,0,0:0:0:0:
256,192,80782,1,0,0:0:0:0:
256,192,81211,1,8,0:0:0:0:
256,160,81425,1,0,0:0:0:0:
256,192,81532,1,0,0:0:0:0:
256,192,81639,1,0,0:0:0:0:
256,192,81854,1,0,0:0:0:0:
288,160,82282,1,8,0:0:0:0:
288,160,82497,1,0,0:0:0:0:
288,192,82711,1,8,0:0:0:0:
288,160,82818,1,8,0:0:0:0:
256,160,83139,1,0,0:0:0:0:
288,160,83354,1,8,0:0:0:0:
288,160,83568,1,8,0:0:0:0:
288,160,83782,1,0,0:0:0:0:
288,160,83997,1,0,0:0:0:0:
288,160,84211,1,8,0:0:0:0:
288,160,84639,1,0,0:0:0:0:
288,160,85068,1,8,0:0:0:0:
288,160,85497,1,8,0:0:0:0:
288,160,85925,1,0,0:0:0:0:
288,160,86353,1,12,0:0:0:0:
288,160,86567,1,0,0:0:0:0:
320,160,86782,1,8,0:0:0:0:
288,160,86996,1,8,0:0:0:0:
288,160,87210,1,0,0:0:0:0:
288,160,87639,1,0,0:0:0:0:
288,160,88067,1,8,0:0:0:0:
288,128,88175,1,8,0:0:0:0:
288,160,88282,1,8,0:0:0:0:
292,163,88496,1,8,0:0:0:0:
288,160,88710,1,0,0:0:0:0:
288,128,88925,1,8,0:0:0:0:
288,160,89353,1,0,0:0:0:0:
288,160,89782,1,0,0:0:0:0:
288,160,89996,1,8,0:0:0:0:
288,160,90210,1,0,0:0:0:0:
288,160,90425,1,0,0:0:0:0:
288,160,90639,1,8,0:0:0:0:
288,160,91067,1,8,0:0:0:0:
288,160,91496,1,8,0:0:0:0:
288,160,91603,1,8,0:0:0:0:
288,160,91710,1,8,0:0:0:0:
262,189,91925,1,0,0:0:0:0:
288,160,92139,1,0,0:0:0:0:
288,160,92353,1,8,0:0:0:0:
288,160,92782,1,0,0:0:0:0:
288,160,93210,1,8,0:0:0:0:
288,160,93639,1,8,0:0:0:0:
256,160,93746,1,8,0:0:0:0:
288,160,93853,1,8,0:0:0:0:
288,160,94067,1,0,0:0:0:0:
288,160,94282,1,8,0:0:0:0:
288,160,94496,1,8,0:0:0:0:
288,160,94925,1,0,0:0:0:0:
288,160,95139,1,0,0:0:0:0:
288,160,95353,1,8,0:0:0:0:
288,160,95782,1,8,0:0:0:0:
288,160,95996,1,8,0:0:0:0:
256,160,96210,1,4,0:0:0:0:
288,160,96639,1,0,0:0:0:0:
288,160,96853,1,12,0:0:0:0:
256,192,97282,1,8,0:0:0:0:
256,192,97710,1,8,0:0:0:0:
256,192,97925,1,8,0:0:0:0:
288,192,98139,1,0,0:0:0:0:
288,192,98353,1,8,0:0:0:0:
320,192,98567,1,0,0:0:0:0:
320,192,98675,1,0,0:0:0:0:
320,192,98782,1,0,0:0:0:0:
320,192,98996,1,8,0:0:0:0:
320,192,99210,1,8,0:0:0:0:
320,192,99425,1,0,0:0:0:0:
320,192,99639,1,12,0:0:0:0:
320,192,99960,1,12,0:0:0:0:
320,192,100282,1,4,0:0:0:0:
320,192,100710,1,12,0:0:0:0:
320,192,101139,1,0,0:0:0:0:
288,160,101246,1,0,0:0:0:0:
288,160,101353,1,0,0:0:0:0:
288,160,101567,1,8,0:0:0:0:
320,192,101782,1,0,0:0:0:0:
288,160,101996,1,8,0:0:0:0:
288,160,102425,1,8,0:0:0:0:
305,140,102639,1,0,0:0:0:0:
288,160,103067,1,12,0:0:0:0:
288,160,103389,1,12,0:0:0:0:
288,160,103710,1,4,0:0:0:0:
288,160,104139,1,12,0:0:0:0:
288,160,104567,1,0,0:0:0:0:
286,155,104675,1,0,0:0:0:0:
288,160,104782,1,0,0:0:0:0:
286,155,104996,1,8,0:0:0:0:
286,155,105210,1,0,0:0:0:0:
290,145,105425,1,8,0:0:0:0:
288,160,105532,1,8,0:0:0:0:
290,145,105639,1,8,0:0:0:0:
303,155,105853,1,0,0:0:0:0:
303,154,106067,1,12,0:0:0:0:
298,144,106496,1,4,0:0:0:0:
311,126,106925,1,12,0:0:0:0:
298,144,107353,1,4,0:0:0:0:
301,144,107782,1,12,0:0:0:0:
298,144,108210,1,0,0:0:0:0:
288,128,108317,1,0,0:0:0:0:
279,123,108425,1,0,0:0:0:0:
301,144,108639,1,8,0:0:0:0:
301,137,108853,1,0,0:0:0:0:
279,115,109067,1,8,0:0:0:0:
286,147,109282,1,8,0:0:0:0:
288,128,109496,1,0,0:0:0:0:
288,128,109710,1,0,0:0:0:0:
288,133,109925,1,12,0:0:0:0:
288,132,110246,1,12,0:0:0:0:
288,132,110567,1,4,0:0:0:0:
312,137,110996,1,12,0:0:0:0:
276,122,111425,1,0,0:0:0:0:
279,122,111532,1,0,0:0:0:0:
279,122,111639,1,0,0:0:0:0:
276,122,111853,1,0,0:0:0:0:
270,113,112067,1,8,0:0:0:0:
270,113,112175,1,8,0:0:0:0:
270,114,112282,1,8,0:0:0:0:
270,113,112496,1,8,0:0:0:0:
270,114,112710,1,0,0:0:0:0:
270,113,112925,1,12,0:0:0:0:
256,192,120210,5,0,0:0:0:0:
256,192,120639,1,8,0:0:0:0:
256,192,120960,1,8,0:0:0:0:
256,192,121282,1,0,0:0:0:0:
224,192,121925,1,8,0:0:0:0:
224,192,122246,1,0,0:0:0:0:
224,192,122567,1,8,0:0:0:0:
256,224,123210,1,8,0:0:0:0:
224,192,123639,1,0,0:0:0:0:
224,192,124067,1,0,0:0:0:0:
224,192,124389,1,8,0:0:0:0:
224,192,124710,1,0,0:0:0:0:
192,192,125353,1,0,0:0:0:0:
224,160,125996,1,8,0:0:0:0:
192,160,126103,1,8,0:0:0:0:
192,160,126210,1,8,0:0:0:0:
224,160,126532,1,0,0:0:0:0:
224,160,126853,1,0,0:0:0:0:
224,160,127067,1,0,0:0:0:0:
224,160,127282,1,8,0:0:0:0:
224,160,127496,1,8,0:0:0:0:
224,160,127710,1,0,0:0:0:0:
224,160,127925,1,8,0:0:0:0:
224,160,128353,1,0,0:0:0:0:
224,160,128567,1,8,0:0:0:0:
224,160,129210,1,0,0:0:0:0:
224,160,129317,1,0,0:0:0:0:
224,160,129425,1,0,0:0:0:0:
224,160,129639,1,8,0:0:0:0:
224,160,130067,1,8,0:0:0:0:
224,160,130496,1,0,0:0:0:0:
224,160,130710,1,8,0:0:0:0:
224,160,130925,1,8,0:0:0:0:
224,160,131139,1,0,0:0:0:0:
224,160,131353,1,8,0:0:0:0:
224,160,131782,1,0,0:0:0:0:
224,160,131996,1,8,0:0:0:0:
192,160,132425,1,8,0:0:0:0:
192,160,132639,1,8,0:0:0:0:
224,160,132853,1,0,0:0:0:0:
224,160,133067,1,8,0:0:0:0:
224,160,133496,1,0,0:0:0:0:
224,160,133925,1,0,0:0:0:0:
224,160,134139,1,8,0:0:0:0:
224,160,134353,1,8,0:0:0:0:
224,160,134567,1,0,0:0:0:0:
224,160,134782,1,8,0:0:0:0:
224,160,135210,1,0,0:0:0:0:
224,160,135425,1,8,0:0:0:0:
224,160,136067,1,0,0:0:0:0:
224,160,136175,1,0,0:0:0:0:
224,160,136282,1,0,0:0:0:0:
224,160,136496,1,8,0:0:0:0:
224,160,136925,1,0,0:0:0:0:
224,160,137353,1,0,0:0:0:0:
224,160,137567,1,8,0:0:0:0:
224,160,137782,1,8,0:0:0:0:
224,160,137996,1,0,0:0:0:0:
224,160,138210,1,8,0:0:0:0:
224,160,138639,1,0,0:0:0:0:
224,160,138853,1,8,0:0:0:0:
192,160,139067,1,0,0:0:0:0:
192,160,139389,1,8,0:0:0:0:
224,160,139710,1,0,0:0:0:0:
224,160,140032,1,8,0:0:0:0:
224,160,140353,1,8,0:0:0:0:
224,160,140567,1,8,0:0:0:0:
224,160,140782,1,0,0:0:0:0:
224,160,141210,1,12,0:0:0:0:
224,160,141425,1,8,0:0:0:0:
224,160,141853,1,0,0:0:0:0:
224,160,142067,1,8,0:0:0:0:
224,160,142282,1,8,0:0:0:0:
224,160,142496,1,0,0:0:0:0:
224,160,142925,1,8,0:0:0:0:
224,160,143353,1,0,0:0:0:0:
224,160,143782,1,8,0:0:0:0:
224,160,144210,1,0,0:0:0:0:
224,160,144425,1,0,0:0:0:0:
192,160,144639,1,8,0:0:0:0:
192,160,144853,1,8,0:0:0:0:
192,160,145067,1,0,0:0:0:0:
224,160,145496,1,8,0:0:0:0:
224,160,145925,1,0,0:0:0:0:
224,160,146139,1,8,0:0:0:0:
224,160,146567,1,0,0:0:0:0:
227,170,146782,1,8,0:0:0:0:
224,160,146996,1,8,0:0:0:0:
224,160,147210,1,0,0:0:0:0:
224,160,147639,1,0,0:0:0:0:
224,160,147853,1,8,0:0:0:0:
224,160,148067,1,0,0:0:0:0:
192,160,148282,1,0,0:0:0:0:
217,171,148496,1,8,0:0:0:0:
192,160,148925,1,0,0:0:0:0:
192,160,149139,1,8,0:0:0:0:
192,160,149353,1,0,0:0:0:0:
192,160,149782,1,8,0:0:0:0:
192,160,150210,1,8,0:0:0:0:
192,160,150639,1,8,0:0:0:0:
192,160,151067,1,0,0:0:0:0:
192,160,151282,1,8,0:0:0:0:
192,160,151496,1,0,0:0:0:0:
192,160,151710,1,0,0:0:0:0:
192,160,151925,1,8,0:0:0:0:
192,160,152353,1,0,0:0:0:0:
192,160,152782,1,8,0:0:0:0:
192,160,153210,1,8,0:0:0:0:
192,160,153639,1,8,0:0:0:0:
192,160,154067,1,8,0:0:0:0:
192,160,154496,1,0,0:0:0:0:
192,128,154925,1,8,0:0:0:0:
192,128,155139,1,0,0:0:0:0:
192,128,155353,1,8,0:0:0:0:
192,128,155782,1,0,0:0:0:0:
192,128,155996,1,0,0:0:0:0:
192,128,156210,1,8,0:0:0:0:
192,128,156425,1,8,0:0:0:0:
192,128,156639,1,0,0:0:0:0:
192,128,156853,1,0,0:0:0:0:
192,128,157067,1,8,0:0:0:0:
192,128,157496,1,0,0:0:0:0:
192,128,157710,1,8,0:0:0:0:
192,128,157925,1,0,0:0:0:0:
192,128,158139,1,8,0:0:0:0:
192,128,158353,1,8,0:0:0:0:
64,64,158567,1,0,0:0:0:0:
192,128,158782,1,8,0:0:0:0:
192,128,159210,1,0,0:0:0:0:
192,128,159425,1,8,0:0:0:0:
192,128,159639,1,8,0:0:0:0:
192,128,159853,1,0,0:0:0:0:
192,128,160067,1,8,0:0:0:0:
192,128,160496,1,8,0:0:0:0:
192,128,160925,1,0,0:0:0:0:
192,128,161353,1,0,0:0:0:0:
192,128,161567,1,8,0:0:0:0:
192,128,161782,1,8,0:0:0:0:
192,128,161996,1,0,0:0:0:0:
192,128,162210,1,8,0:0:0:0:
160,128,162639,1,0,0:0:0:0:
160,128,162853,1,8,0:0:0:0:
160,128,163067,1,8,0:0:0:0:
160,128,163282,1,8,0:0:0:0:
160,128,163496,1,0,0:0:0:0:
160,128,163710,1,0,0:0:0:0:
160,128,163925,1,8,0:0:0:0:
224,160,164353,1,0,0:0:0:0:
224,160,164567,1,8,0:0:0:0:
224,160,164782,1,8,0:0:0:0:
224,160,165210,1,8,0:0:0:0:
224,160,165425,1,0,0:0:0:0:
224,160,165639,1,8,0:0:0:0:
224,160,166067,1,8,0:0:0:0:
224,160,166282,1,8,0:0:0:0:
224,160,166496,1,0,0:0:0:0:
192,160,167567,1,8,0:0:0:0:
192,160,167782,1,0,0:0:0:0:
192,160,167996,1,0,0:0:0:0:
192,160,168210,1,12,0:0:0:0:
192,160,168532,1,12,0:0:0:0:
192,160,168853,1,4,0:0:0:0:
192,160,169282,1,12,0:0:0:0:
320,192,169710,1,0,0:0:0:0:
288,160,169817,1,0,0:0:0:0:
288,160,169925,1,0,0:0:0:0:
288,160,170139,1,8,0:0:0:0:
320,192,170353,1,8,0:0:0:0:
288,160,170567,1,0,0:0:0:0:
320,160,170996,1,0,0:0:0:0:
303,148,171210,1,8,0:0:0:0:
288,160,171639,1,12,0:0:0:0:
288,160,171960,1,12,0:0:0:0:
288,160,172282,1,4,0:0:0:0:
288,160,172710,1,12,0:0:0:0:
288,160,173139,1,8,0:0:0:0:
286,155,173246,1,8,0:0:0:0:
288,160,173353,1,8,0:0:0:0:
288,160,173567,1,0,0:0:0:0:
286,155,173782,1,8,0:0:0:0:
290,145,173996,1,0,0:0:0:0:
288,160,174103,1,0,0:0:0:0:
290,145,174210,1,0,0:0:0:0:
303,155,174425,1,0,0:0:0:0:
303,154,174639,1,12,0:0:0:0:
298,144,175067,1,4,0:0:0:0:
311,126,175496,1,12,0:0:0:0:
298,144,175925,1,4,0:0:0:0:
301,144,176353,1,12,0:0:0:0:
298,144,176782,1,8,0:0:0:0:
288,128,176889,1,8,0:0:0:0:
279,123,176996,1,8,0:0:0:0:
301,144,177210,1,0,0:0:0:0:
301,137,177425,1,8,0:0:0:0:
280,143,177532,1,8,0:0:0:0:
279,115,177639,1,8,0:0:0:0:
286,147,177853,1,0,0:0:0:0:
286,147,178067,1,0,0:0:0:0:
286,147,178282,1,0,0:0:0:0:
288,133,178496,1,12,0:0:0:0:
288,132,178817,1,12,0:0:0:0:
288,132,179139,1,4,0:0:0:0:
312,137,179567,1,12,0:0:0:0:
276,122,179996,1,8,0:0:0:0:
279,122,180103,1,8,0:0:0:0:
279,122,180210,1,8,0:0:0:0:
276,122,180425,1,8,0:0:0:0:
270,113,180639,1,0,0:0:0:0:
270,113,180746,1,0,0:0:0:0:
270,114,180853,1,0,0:0:0:0:
270,113,181067,1,0,0:0:0:0:
270,114,181282,1,8,0:0:0:0:
270,113,181496,1,4,0:0:0:0:
253,121,181925,1,0,0:0:0:0:
256,128,182032,1,0,0:0:0:0:
253,120,182139,1,0,0:0:0:0:
237,115,182353,1,8,0:0:0:0:
253,121,182567,1,8,0:0:0:0:
237,115,182675,1,8,0:0:0:0:
284,128,182782,1,8,0:0:0:0:
237,115,182996,1,0,0:0:0:0:
267,114,183210,1,8,0:0:0:0:
273,113,183639,1,8,0:0:0:0:
270,97,183746,1,8,0:0:0:0:
266,114,183853,1,8,0:0:0:0:
275,110,184067,1,0,0:0:0:0:
273,113,184282,1,0,0:0:0:0:
275,106,184389,1,0,0:0:0:0:
270,97,184496,1,0,0:0:0:0:
262,109,184710,1,8,0:0:0:0:
262,109,184925,1,0,0:0:0:0:
262,109,185353,1,12,0:0:0:0:
256,192,185782,1,0,0:0:0:0:
256,192,186210,1,12,0:0:0:0:
256,192,186639,1,0,0:0:0:0:
256,192,186853,1,8,0:0:0:0:
256,192,186960,1,8,0:0:0:0:
256,192,187067,1,8,0:0:0:0:
256,192,187282,1,8,0:0:0:0:
256,192,187496,1,0,0:0:0:0:
256,192,187603,1,0,0:0:0:0:
256,160,187710,1,0,0:0:0:0:
256,192,187925,1,0,0:0:0:0:
256,192,188139,1,8,0:0:0:0:
256,192,188353,1,4,0:0:0:0:
256,160,188782,1,0,0:0:0:0:
256,160,188889,1,0,0:0:0:0:
256,160,188996,1,0,0:0:0:0:
256,160,189210,1,8,0:0:0:0:
256,160,189425,1,0,0:0:0:0:
256,160,189532,1,0,0:0:0:0:
256,160,189639,1,0,0:0:0:0:
256,160,189853,1,0,0:0:0:0:
256,160,190067,1,8,0:0:0:0:
256,160,190496,1,8,0:0:0:0:
256,160,190603,1,8,0:0:0:0:
256,160,190710,1,8,0:0:0:0:
256,160,190925,1,0,0:0:0:0:
256,160,191139,1,8,0:0:0:0:
256,160,191246,1,8,0:0:0:0:
256,160,191353,1,8,0:0:0:0:
256,160,191567,1,8,0:0:0:0:
256,160,191782,1,0,0:0:0:0:
256,160,192210,1,4,0:0:0:0:
256,160,192639,1,8,0:0:0:0:
256,160,193067,1,4,0:0:0:0:
256,160,193496,1,8,0:0:0:0:
256,160,193710,1,8,0:0:0:0:
256,160,193817,1,8,0:0:0:0:
256,160,193925,1,8,0:0:0:0:
256,160,194139,1,8,0:0:0:0:
256,160,194353,1,0,0:0:0:0:
256,160,194460,1,0,0:0:0:0:
256,160,194567,1,0,0:0:0:0:
256,160,194782,1,0,0:0:0:0:
256,160,194996,1,8,0:0:0:0:
256,160,195210,1,4,0:0:0:0:
256,160,195639,1,0,0:0:0:0:
256,192,196067,1,8,0:0:0:0:
256,192,196389,1,0,0:0:0:0:
256,192,196710,1,8,0:0:0:0:
256,192,197353,1,8,0:0:0:0:
256,192,197675,1,0,0:0:0:0:
256,192,197996,1,0,0:0:0:0:
256,192,198639,1,8,0:0:0:0:
256,192,199067,1,0,0:0:0:0:
256,192,199496,1,0,0:0:0:0:
256,192,199817,1,8,0:0:0:0:
256,192,200139,1,0,0:0:0:0:
256,192,200567,1,8,0:0:0:0:
256,192,200782,1,8,0:0:0:0:
256,192,201103,1,0,0:0:0:0:
256,192,201425,1,8,0:0:0:0:
256,192,202067,1,8,0:0:0:0:
256,192,202282,5,8,0:0:0:0:
256,192,202496,1,0,0:0:0:0:
256,192,202925,1,8,0:0:0:0:
256,192,203246,1,8,0:0:0:0:
256,192,203567,1,0,0:0:0:0:
256,192,204210,1,8,0:0:0:0:
256,192,204532,1,0,0:0:0:0:
256,192,204853,1,8,0:0:0:0:
256,192,205496,1,8,0:0:0:0:
256,192,205710,1,8,0:0:0:0:
256,192,205925,1,0,0:0:0:0:
256,192,206353,1,8,0:0:0:0:
256,192,206675,1,8,0:0:0:0:
256,192,206996,1,0,0:0:0:0:
256,192,207425,1,8,0:0:0:0:
256,192,207639,1,8,0:0:0:0:
256,192,207960,1,8,0:0:0:0:
256,192,208282,1,0,0:0:0:0:
256,192,208925,1,8,0:0:0:0:
256,192,209139,5,8,0:0:0:0:
