osu file format v14

[General]
AudioFilename: audio.mp3
AudioLeadIn: 0
PreviewTime: 40069
Countdown: 0
SampleSet: Normal
StackLeniency: 0.7
Mode: 1
LetterboxInBreaks: 0
WidescreenStoryboard: 1

[Editor]
Bookmarks: 13926,27640
DistanceSpacing: 0.1
BeatDivisor: 4
GridSize: 32
TimelineZoom: 1

[Metadata]
Title:Intergalactic Bound
TitleUnicode:Intergalactic Bound
Artist:Yunosuke & CircusP feat. Hatsune Miku
ArtistUnicode:雄之助 & CircusP feat. 初音ミク
Creator:SN707
Version:Kantan
Source:MIKU EXPO 10th
Tags:electronic english vocaloid pop Anniversary Theme Song 2024
BeatmapID:4452415
BeatmapSetID:2119565

[Difficulty]
HPDrainRate:8
CircleSize:5
OverallDifficulty:3
ApproachRate:5
SliderMultiplier:1.4
SliderTickRate:1

[Events]
//Background and Video events
0,0,"bg.jpg",0,60
Video,-20,"output.mp4"
//Break Periods
2,113353,118496
//Storyboard Layer 0 (Background)
//Storyboard Layer 1 (Fail)
//Storyboard Layer 2 (Pass)
//Storyboard Layer 3 (Foreground)
//Storyboard Layer 4 (Overlay)
//Storyboard Sound Samples

[TimingPoints]
212,428.571428571429,4,1,0,75,1,0
212,-100,4,1,0,75,0,0
13658,-100,4,1,0,80,0,0
27587,-100,4,1,0,85,0,0
39587,-100,4,1,0,85,0,0
39801,-100,4,1,0,85,0,0
40016,-100,4,1,0,85,0,0
40659,-100,4,1,0,85,0,0
40873,-100,4,1,0,85,0,0
41087,-100,4,1,0,85,0,0
41301,-100,4,1,0,95,0,0
41354,-100,4,1,0,95,0,1
68783,-100,4,1,0,15,0,0
70390,-100,4,1,0,85,0,0
70497,428.571428571429,4,1,0,85,1,0
84158,-100,4,1,0,85,0,0
85925,428.571428571429,4,1,0,85,1,0
85926,-100,4,1,0,85,0,0
97872,-100,4,1,0,85,0,0
98086,-100,4,1,0,85,0,0
98300,-100,4,1,0,85,0,0
98943,-100,4,1,0,85,0,0
99158,-100,4,1,0,85,0,0
99372,-100,4,1,0,85,0,0
99587,-100,4,1,0,95,0,0
99639,-100,4,1,0,95,0,1
113353,-100,4,1,0,60,0,0
115069,-100,4,1,0,60,0,0
116783,-100,4,1,0,70,0,0
118497,-100,4,1,0,70,0,0
120158,-100,4,1,0,80,0,0
126158,-100,4,1,0,80,0,0
126800,-100,4,1,0,80,0,0
127015,-100,4,1,0,80,0,0
139015,-100,4,1,0,80,0,0
139336,-100,4,1,0,80,0,0
139658,-100,4,1,0,80,0,0
139979,-100,4,1,0,80,0,0
140300,-100,4,1,0,80,0,0
140729,-100,4,1,0,80,0,0
152729,-100,4,1,0,80,0,0
153158,-100,4,1,0,80,0,0
153586,-100,4,1,0,80,0,0
154015,-100,4,1,0,80,0,0
154444,-100,4,1,0,80,0,0
167515,-100,4,1,0,85,0,0
168158,-100,4,1,0,95,0,0
168639,-100,4,1,0,95,0,1
195587,-100,4,1,0,80,0,1
195639,-100,4,1,0,80,0,0
207587,-100,4,1,0,70,0,0
208872,-100,4,1,0,60,0,0

[HitObjects]
256,192,212,5,0,0:0:0:0:
256,192,640,1,0,0:0:0:0:
256,192,1926,1,8,0:0:0:0:
256,192,3212,1,8,0:0:0:0:
256,192,3640,1,0,0:0:0:0:
256,192,4069,1,0,0:0:0:0:
256,192,5354,1,8,0:0:0:0:
256,192,7069,1,0,0:0:0:0:
256,192,7497,1,8,0:0:0:0:
256,192,8783,1,8,0:0:0:0:
256,192,10069,1,8,0:0:0:0:
256,192,10497,1,8,0:0:0:0:
256,192,10926,1,0,0:0:0:0:
256,192,12212,1,8,0:0:0:0:
256,192,13926,1,0,0:0:0:0:
256,192,14783,1,8,0:0:0:0:
256,192,15640,1,8,0:0:0:0:
256,192,16497,1,8,0:0:0:0:
256,192,16926,1,0,0:0:0:0:
256,192,17354,1,0,0:0:0:0:
256,192,18212,1,8,0:0:0:0:
256,192,19069,1,8,0:0:0:0:
256,192,19926,1,0,0:0:0:0:
256,192,20354,1,8,0:0:0:0:
256,192,20783,1,0,0:0:0:0:
256,192,21640,1,8,0:0:0:0:
256,160,22497,1,0,0:0:0:0:
256,160,23354,1,0,0:0:0:0:
256,160,23783,1,8,0:0:0:0:
224,160,24212,1,8,0:0:0:0:
256,160,25069,1,0,0:0:0:0:
256,160,25926,1,8,0:0:0:0:
256,192,27212,1,8,0:0:0:0:
256,160,27640,1,8,0:0:0:0:
256,160,28497,1,0,0:0:0:0:
256,160,29354,1,8,0:0:0:0:
256,160,29783,1,0,0:0:0:0:
256,160,30640,1,8,0:0:0:0:
256,192,31069,1,8,0:0:0:0:
256,160,31926,1,0,0:0:0:0:
256,192,32783,1,0,0:0:0:0:
256,192,33212,1,8,0:0:0:0:
256,192,34069,1,8,0:0:0:0:
256,192,34497,1,8,0:0:0:0:
256,192,35354,1,8,0:0:0:0:
256,192,36212,5,0,0:0:0:0:
256,192,37069,1,0,0:0:0:0:
256,192,37926,1,4,0:0:0:0:
256,192,38569,1,12,0:0:0:0:
256,192,39640,1,8,0:0:0:0:
320,192,40712,1,0,0:0:0:0:
320,192,41354,1,12,0:0:0:0:
320,192,41997,1,4,0:0:0:0:
320,192,42426,1,12,0:0:0:0:
288,160,43069,1,8,0:0:0:0:
288,160,43712,1,0,0:0:0:0:
288,160,44783,1,12,0:0:0:0:
288,160,45426,1,4,0:0:0:0:
288,160,45854,1,12,0:0:0:0:
288,160,46497,1,8,0:0:0:0:
290,145,47140,1,8,0:0:0:0:
303,154,47783,1,4,0:0:0:0:
311,126,48640,1,12,0:0:0:0:
301,144,49497,1,12,0:0:0:0:
298,144,49926,1,0,0:0:0:0:
301,137,50569,1,8,0:0:0:0:
288,133,51640,1,12,0:0:0:0:
288,132,52283,1,4,0:0:0:0:
312,137,52712,1,12,0:0:0:0:
276,122,53354,1,0,0:0:0:0:
276,122,53783,1,8,0:0:0:0:
270,113,54212,1,0,0:0:0:0:
270,113,54640,1,12,0:0:0:0:
253,120,55069,1,0,0:0:0:0:
253,121,55712,1,8,0:0:0:0:
273,113,56783,1,8,0:0:0:0:
273,113,57426,1,0,0:0:0:0:
448,64,58069,1,8,0:0:0:0:
262,109,58497,1,12,0:0:0:0:
256,192,59354,1,12,0:0:0:0:
256,192,60212,1,0,0:0:0:0:
256,192,60640,1,8,0:0:0:0:
256,160,61069,1,0,0:0:0:0:
256,192,61497,1,12,0:0:0:0:
256,160,61926,1,0,0:0:0:0:
256,160,62569,1,8,0:0:0:0:
256,160,63640,1,8,0:0:0:0:
256,160,64283,1,0,0:0:0:0:
64,64,64926,1,8,0:0:0:0:
256,160,65354,1,4,0:0:0:0:
256,160,66212,1,4,0:0:0:0:
256,160,67069,1,0,0:0:0:0:
256,160,67497,1,8,0:0:0:0:
256,160,67926,1,0,0:0:0:0:
256,160,68354,1,12,0:0:0:0:
256,192,70497,1,0,0:0:0:0:
256,192,71354,1,8,0:0:0:0:
224,192,72211,1,8,0:0:0:0:
256,192,72639,1,0,0:0:0:0:
256,224,73068,1,8,0:0:0:0:
256,192,73925,1,0,0:0:0:0:
256,192,74782,1,0,0:0:0:0:
256,192,75639,1,8,0:0:0:0:
256,192,76068,1,0,0:0:0:0:
256,192,76497,1,8,0:0:0:0:
256,192,77354,1,0,0:0:0:0:
256,192,78211,1,8,0:0:0:0:
224,224,79068,1,0,0:0:0:0:
256,192,79497,1,8,0:0:0:0:
256,192,79925,1,8,0:0:0:0:
256,192,80782,1,0,0:0:0:0:
256,192,81639,1,0,0:0:0:0:
288,160,82497,1,8,0:0:0:0:
288,160,84211,1,8,0:0:0:0:
288,160,85497,1,8,0:0:0:0:
288,160,85925,1,0,0:0:0:0:
288,160,86353,1,12,0:0:0:0:
288,160,87210,1,0,0:0:0:0:
320,160,87639,1,8,0:0:0:0:
288,160,88067,1,8,0:0:0:0:
288,128,88925,1,8,0:0:0:0:
288,160,89353,1,0,0:0:0:0:
288,160,90210,1,0,0:0:0:0:
288,160,91067,1,8,0:0:0:0:
288,160,91496,1,8,0:0:0:0:
288,160,92353,1,8,0:0:0:0:
288,160,92782,1,0,0:0:0:0:
288,160,93639,1,8,0:0:0:0:
288,160,94496,1,0,0:0:0:0:
288,160,95353,1,8,0:0:0:0:
256,160,96210,1,4,0:0:0:0:
288,160,96853,1,12,0:0:0:0:
256,192,97925,1,8,0:0:0:0:
320,192,98996,1,0,0:0:0:0:
320,192,99639,1,12,0:0:0:0:
320,192,100282,1,4,0:0:0:0:
320,192,100710,1,12,0:0:0:0:
288,160,101353,1,8,0:0:0:0:
288,160,101996,1,0,0:0:0:0:
288,160,103067,1,12,0:0:0:0:
288,160,103710,1,4,0:0:0:0:
288,160,104139,1,12,0:0:0:0:
286,155,104782,1,8,0:0:0:0:
290,145,105425,1,8,0:0:0:0:
303,154,106067,1,4,0:0:0:0:
311,126,106925,1,12,0:0:0:0:
301,144,107782,1,12,0:0:0:0:
298,144,108210,1,0,0:0:0:0:
301,144,108853,1,0,0:0:0:0:
288,133,109925,1,12,0:0:0:0:
288,132,110567,1,4,0:0:0:0:
312,137,110996,1,12,0:0:0:0:
276,122,111639,1,0,0:0:0:0:
270,113,112067,1,8,0:0:0:0:
270,113,112496,1,0,0:0:0:0:
270,113,112925,1,12,0:0:0:0:
256,192,120210,5,0,0:0:0:0:
256,192,120639,1,8,0:0:0:0:
224,192,121925,1,8,0:0:0:0:
256,224,123210,1,8,0:0:0:0:
224,192,123639,1,0,0:0:0:0:
224,192,124067,1,0,0:0:0:0:
192,192,125353,1,0,0:0:0:0:
192,160,126210,1,8,0:0:0:0:
224,160,127496,1,0,0:0:0:0:
224,160,127925,1,8,0:0:0:0:
224,160,128567,1,8,0:0:0:0:
224,160,129639,1,8,0:0:0:0:
224,160,130067,1,0,0:0:0:0:
224,160,130925,1,0,0:0:0:0:
224,160,131353,1,8,0:0:0:0:
224,160,131996,1,0,0:0:0:0:
192,160,132639,1,8,0:0:0:0:
224,160,133067,1,8,0:0:0:0:
224,160,134353,1,0,0:0:0:0:
224,160,134782,1,8,0:0:0:0:
224,160,135425,1,8,0:0:0:0:
224,160,136496,1,8,0:0:0:0:
224,160,136925,1,0,0:0:0:0:
224,160,137782,1,8,0:0:0:0:
224,160,138210,1,8,0:0:0:0:
192,160,139067,1,0,0:0:0:0:
224,160,139710,1,0,0:0:0:0:
224,160,140353,1,8,0:0:0:0:
224,160,141210,1,12,0:0:0:0:
224,160,142067,1,8,0:0:0:0:
224,160,142496,1,0,0:0:0:0:
224,160,142925,1,0,0:0:0:0:
224,160,143353,1,8,0:0:0:0:
192,160,144639,1,8,0:0:0:0:
192,160,145067,1,0,0:0:0:0:
224,160,145496,1,8,0:0:0:0:
224,160,145925,1,0,0:0:0:0:
224,160,146567,1,0,0:0:0:0:
224,160,148067,1,0,0:0:0:0:
217,171,148496,1,8,0:0:0:0:
192,160,148925,1,0,0:0:0:0:
192,160,149353,1,0,0:0:0:0:
192,160,150210,1,8,0:0:0:0:
192,160,151496,1,0,0:0:0:0:
192,160,151925,1,8,0:0:0:0:
192,160,152353,1,0,0:0:0:0:
190,188,152782,1,8,0:0:0:0:
192,160,153639,1,8,0:0:0:0:
192,160,154496,1,0,0:0:0:0:
192,128,155353,1,8,0:0:0:0:
192,128,155782,1,0,0:0:0:0:
192,128,156210,1,8,0:0:0:0:
192,128,157067,1,8,0:0:0:0:
192,128,157496,1,0,0:0:0:0:
192,128,157925,1,0,0:0:0:0:
192,128,158782,1,8,0:0:0:0:
192,128,159639,1,8,0:0:0:0:
192,128,160067,1,0,0:0:0:0:
192,128,160496,1,8,0:0:0:0:
192,128,161353,1,0,0:0:0:0:
192,128,161782,1,8,0:0:0:0:
192,128,162210,1,8,0:0:0:0:
160,128,163067,1,8,0:0:0:0:
160,128,163496,1,0,0:0:0:0:
160,128,163925,1,8,0:0:0:0:
224,160,164782,1,8,0:0:0:0:
224,160,165639,1,0,0:0:0:0:
224,160,166496,1,8,0:0:0:0:
192,160,167567,1,0,0:0:0:0:
192,160,168210,1,12,0:0:0:0:
192,160,168853,1,4,0:0:0:0:
192,160,169282,1,12,0:0:0:0:
288,160,169925,1,8,0:0:0:0:
288,160,170567,1,0,0:0:0:0:
320,160,171210,1,0,0:0:0:0:
288,160,171639,1,12,0:0:0:0:
288,160,172282,1,4,0:0:0:0:
288,160,172710,1,12,0:0:0:0:
288,160,173353,1,0,0:0:0:0:
290,145,173996,1,0,0:0:0:0:
303,154,174639,1,12,0:0:0:0:
311,126,175496,1,12,0:0:0:0:
301,144,176353,1,12,0:0:0:0:
298,144,176782,1,8,0:0:0:0:
301,137,177425,1,0,0:0:0:0:
286,147,178067,1,8,0:0:0:0:
288,133,178496,1,12,0:0:0:0:
288,132,179139,1,4,0:0:0:0:
312,137,179567,1,12,0:0:0:0:
276,122,180210,1,0,0:0:0:0:
270,113,180639,1,8,0:0:0:0:
270,113,181067,1,0,0:0:0:0:
270,113,181496,1,12,0:0:0:0:
253,121,181925,1,0,0:0:0:0:
253,121,182567,1,8,0:0:0:0:
273,113,183639,1,8,0:0:0:0:
273,113,184282,1,0,0:0:0:0:
262,109,184925,1,0,0:0:0:0:
262,109,185353,1,12,0:0:0:0:
256,192,186210,1,12,0:0:0:0:
256,192,187067,1,0,0:0:0:0:
256,192,187496,1,8,0:0:0:0:
256,192,187925,1,0,0:0:0:0:
256,192,188353,1,12,0:0:0:0:
256,160,188782,1,0,0:0:0:0:
256,160,189425,1,8,0:0:0:0:
256,160,190496,1,8,0:0:0:0:
256,160,191139,1,0,0:0:0:0:
256,160,191782,1,8,0:0:0:0:
256,160,192210,1,4,0:0:0:0:
256,160,193067,1,4,0:0:0:0:
256,160,193925,1,0,0:0:0:0:
256,160,194353,1,8,0:0:0:0:
256,160,194782,1,0,0:0:0:0:
256,160,195210,1,12,0:0:0:0:
256,160,195639,1,0,0:0:0:0:
256,192,196067,1,0,0:0:0:0:
256,192,197353,1,8,0:0:0:0:
256,192,198639,1,8,0:0:0:0:
256,192,199067,1,0,0:0:0:0:
256,192,199496,1,0,0:0:0:0:
256,192,200782,1,8,0:0:0:0:
256,192,202496,1,0,0:0:0:0:
256,192,202925,1,0,0:0:0:0:
256,192,204210,1,8,0:0:0:0:
256,192,205496,1,8,0:0:0:0:
256,192,205925,1,8,0:0:0:0:
256,192,206353,1,0,0:0:0:0:
256,192,207639,1,8,0:0:0:0:
256,192,208925,1,8,0:0:0:0:
