osu file format v14

[General]
AudioFilename: audio.mp3
AudioLeadIn: 0
PreviewTime: 40069
Countdown: 0
SampleSet: Normal
StackLeniency: 0.7
Mode: 1
LetterboxInBreaks: 0
WidescreenStoryboard: 1

[Editor]
Bookmarks: 13926,27640
DistanceSpacing: 0.1
BeatDivisor: 4
GridSize: 32
TimelineZoom: 1

[Metadata]
Title:Intergalactic Bound
TitleUnicode:Intergalactic Bound
Artist:Yunosuke & CircusP feat. Hatsune Miku
ArtistUnicode:雄之助 & CircusP feat. 初音ミク
Creator:SN707
Version:Futsuu
Source:MIKU EXPO 10th
Tags:electronic english vocaloid pop Anniversary Theme Song 2024
BeatmapID:4452414
BeatmapSetID:2119565

[Difficulty]
HPDrainRate:7
CircleSize:5
OverallDifficulty:3.9
ApproachRate:5
SliderMultiplier:1.4
SliderTickRate:1

[Events]
//Background and Video events
0,0,"bg.jpg",0,60
Video,-20,"output.mp4"
//Break Periods
2,113353,118496
//Storyboard Layer 0 (Background)
//Storyboard Layer 1 (Fail)
//Storyboard Layer 2 (Pass)
//Storyboard Layer 3 (Foreground)
//Storyboard Layer 4 (Overlay)
//Storyboard Sound Samples

[TimingPoints]
212,428.571428571429,4,1,0,75,1,0
212,-125,4,1,0,75,0,0
13658,-117.647058823529,4,1,0,80,0,0
27587,-111.111111111111,4,1,0,85,0,0
40015,-111.111111111111,4,1,0,85,0,0
40658,-105.263157894737,4,1,0,85,0,0
40872,-103.451049794868,4,1,0,85,0,0
41301,-100,4,1,0,95,0,0
41354,-100,4,1,0,95,0,1
68783,-100,4,1,0,15,0,0
70390,-125,4,1,0,85,0,0
70497,428.571428571429,4,1,0,85,1,0
70497,-125,4,1,0,85,0,0
84158,-111.111111111111,4,1,0,85,0,0
85925,428.571428571429,4,1,0,85,1,0
85925,-111.111111111111,4,1,0,85,0,0
98301,-111.111111111111,4,1,0,85,0,0
98943,-105.964087657452,4,1,0,85,0,0
99158,-104.345354703154,4,1,0,85,0,0
99372,-102.782526970415,4,1,0,85,0,0
99587,-100,4,1,0,95,0,0
99639,-100,4,1,0,95,0,1
113353,-100,4,1,0,60,0,0
114956,-105.308775731311,4,1,0,60,0,0
116778,-111.209179170344,4,1,0,70,0,0
118492,-117.810021816671,4,1,0,70,0,0
120158,-125,4,1,0,80,0,0
126158,-125,4,1,0,80,0,0
126800,-137.914386868362,4,1,0,80,0,0
127015,-142.857142857143,4,1,0,80,0,0
139015,-142.857142857143,4,1,0,80,0,0
139336,-139.134670021917,4,1,0,80,0,0
139658,-135.590538723202,4,1,0,80,0,0
139979,-132.232680141953,4,1,0,80,0,0
140300,-129.037115109538,4,1,0,80,0,0
140729,-125,4,1,0,80,0,0
152729,-125,4,1,0,80,0,0
153158,-121.209979503852,4,1,0,80,0,0
153586,-117.651094189477,4,1,0,80,0,0
154015,-114.287618286019,4,1,0,80,0,0
154444,-111.111111111111,4,1,0,80,0,0
167515,-100,4,1,0,85,0,0
168158,-100,4,1,0,95,0,0
168639,-100,4,1,0,95,0,1
195587,-100,4,1,0,80,0,1
195639,-111.111111111111,4,1,0,80,0,0
207587,-111.111111111111,4,1,0,70,0,0
208872,-111.111111111111,4,1,0,60,0,0

[HitObjects]
256,192,212,5,0,0:0:0:0:
256,192,640,1,0,0:0:0:0:
256,192,1283,1,0,0:0:0:0:
256,192,1926,1,8,0:0:0:0:
256,192,2569,1,0,0:0:0:0:
256,192,3212,1,8,0:0:0:0:
256,192,3640,1,0,0:0:0:0:
256,192,4069,1,0,0:0:0:0:
256,192,4712,1,0,0:0:0:0:
256,192,5354,1,8,0:0:0:0:
256,192,5997,1,8,0:0:0:0:
256,192,7069,1,0,0:0:0:0:
256,192,7497,1,8,0:0:0:0:
256,192,8140,1,0,0:0:0:0:
256,192,8783,1,8,0:0:0:0:
256,192,9426,1,0,0:0:0:0:
256,192,10069,1,8,0:0:0:0:
256,192,10497,1,8,0:0:0:0:
256,192,10926,1,0,0:0:0:0:
256,192,11569,1,0,0:0:0:0:
256,192,12212,1,8,0:0:0:0:
256,192,12854,1,0,0:0:0:0:
256,192,13712,1,8,0:0:0:0:
256,192,13926,1,0,0:0:0:0:
256,192,14569,1,0,0:0:0:0:
256,192,14783,1,8,0:0:0:0:
256,192,15426,1,8,0:0:0:0:
256,192,15640,1,8,0:0:0:0:
256,192,16283,1,0,0:0:0:0:
256,192,16497,1,8,0:0:0:0:
256,192,16926,1,0,0:0:0:0:
256,192,17354,1,0,0:0:0:0:
256,192,17997,1,0,0:0:0:0:
256,192,18212,1,8,0:0:0:0:
256,192,18854,1,8,0:0:0:0:
256,192,19069,1,8,0:0:0:0:
256,192,19712,1,8,0:0:0:0:
256,192,19926,1,0,0:0:0:0:
257,201,20354,1,8,0:0:0:0:
256,192,20783,1,0,0:0:0:0:
256,192,21426,1,0,0:0:0:0:
256,192,21640,1,8,0:0:0:0:
256,192,22283,1,8,0:0:0:0:
256,160,22497,1,0,0:0:0:0:
256,160,23140,1,0,0:0:0:0:
256,160,23354,1,8,0:0:0:0:
256,160,23783,1,8,0:0:0:0:
224,160,24212,1,8,0:0:0:0:
256,160,24854,1,0,0:0:0:0:
256,160,25069,1,8,0:0:0:0:
224,160,25712,1,0,0:0:0:0:
256,160,25926,1,8,0:0:0:0:
256,160,26354,1,8,0:0:0:0:
256,160,26783,1,0,0:0:0:0:
251,156,27212,1,8,0:0:0:0:
256,160,27640,1,8,0:0:0:0:
256,160,28069,1,8,0:0:0:0:
256,160,28497,1,0,0:0:0:0:
256,160,28712,1,0,0:0:0:0:
256,160,28926,1,8,0:0:0:0:
256,160,29354,1,8,0:0:0:0:
256,160,29783,1,0,0:0:0:0:
256,160,30640,1,8,0:0:0:0:
256,192,31069,1,8,0:0:0:0:
256,192,31497,1,8,0:0:0:0:
256,160,31926,1,0,0:0:0:0:
256,192,32140,1,8,0:0:0:0:
256,160,32354,1,0,0:0:0:0:
256,192,32783,1,0,0:0:0:0:
256,192,33212,1,8,0:0:0:0:
256,192,34069,1,8,0:0:0:0:
256,192,34497,1,8,0:0:0:0:
256,192,34926,1,0,0:0:0:0:
256,192,35354,1,8,0:0:0:0:
256,192,35783,1,0,0:0:0:0:
256,192,35997,1,8,0:0:0:0:
249,193,36212,1,0,0:0:0:0:
256,192,36640,1,8,0:0:0:0:
256,192,37069,1,0,0:0:0:0:
256,192,37497,1,8,0:0:0:0:
256,192,37926,1,4,0:0:0:0:
256,192,38569,1,12,0:0:0:0:
263,171,38997,1,0,0:0:0:0:
255,199,39426,1,0,0:0:0:0:
256,192,39640,1,8,0:0:0:0:
275,196,39854,1,0,0:0:0:0:
288,192,40069,1,8,0:0:0:0:
320,192,40712,1,0,0:0:0:0:
320,192,40926,1,8,0:0:0:0:
320,192,41354,1,12,0:0:0:0:
320,192,41676,1,12,0:0:0:0:
320,192,41997,1,4,0:0:0:0:
320,192,42426,1,12,0:0:0:0:
320,192,42854,1,0,0:0:0:0:
256,160,43069,1,0,0:0:0:0:
288,160,43283,1,8,0:0:0:0:
320,192,43497,1,0,0:0:0:0:
288,160,43712,1,8,0:0:0:0:
288,160,44140,1,8,0:0:0:0:
284,190,44354,1,0,0:0:0:0:
288,160,44783,1,12,0:0:0:0:
288,160,45104,1,12,0:0:0:0:
288,160,45426,1,4,0:0:0:0:
288,160,45854,1,12,0:0:0:0:
288,160,46283,1,0,0:0:0:0:
288,160,46497,1,0,0:0:0:0:
288,160,46712,1,8,0:0:0:0:
290,145,46926,1,0,0:0:0:0:
290,145,47140,1,8,0:0:0:0:
286,155,47569,1,8,0:0:0:0:
303,154,47783,1,4,0:0:0:0:
311,126,48640,1,12,0:0:0:0:
301,144,49497,1,12,0:0:0:0:
298,144,49926,1,0,0:0:0:0:
279,123,50140,1,0,0:0:0:0:
301,144,50354,1,8,0:0:0:0:
301,137,50569,1,0,0:0:0:0:
286,147,50997,1,8,0:0:0:0:
288,128,51212,1,0,0:0:0:0:
288,133,51640,1,12,0:0:0:0:
288,132,51962,1,12,0:0:0:0:
288,132,52283,1,4,0:0:0:0:
312,137,52712,1,12,0:0:0:0:
276,122,53140,1,0,0:0:0:0:
279,122,53354,1,8,0:0:0:0:
276,122,53569,1,0,0:0:0:0:
270,113,53783,1,8,0:0:0:0:
270,114,53997,1,8,0:0:0:0:
270,113,54426,1,0,0:0:0:0:
270,113,54640,1,12,0:0:0:0:
253,121,55069,1,0,0:0:0:0:
253,120,55497,1,0,0:0:0:0:
253,121,55712,1,8,0:0:0:0:
284,128,56140,1,8,0:0:0:0:
64,64,56354,1,0,0:0:0:0:
273,113,56783,1,8,0:0:0:0:
266,114,57212,1,8,0:0:0:0:
273,113,57426,1,0,0:0:0:0:
270,97,57854,1,0,0:0:0:0:
448,64,58069,1,8,0:0:0:0:
262,109,58497,1,12,0:0:0:0:
256,192,59354,1,12,0:0:0:0:
256,192,59997,1,0,0:0:0:0:
256,192,60212,1,8,0:0:0:0:
256,192,60426,1,0,0:0:0:0:
256,192,60640,1,8,0:0:0:0:
256,192,60854,1,8,0:0:0:0:
256,160,61283,1,0,0:0:0:0:
256,192,61497,1,12,0:0:0:0:
256,160,61926,1,0,0:0:0:0:
256,160,62354,1,0,0:0:0:0:
256,160,62569,1,8,0:0:0:0:
256,160,62997,1,8,0:0:0:0:
256,160,63212,1,8,0:0:0:0:
256,160,63640,1,8,0:0:0:0:
256,160,64069,1,8,0:0:0:0:
256,160,64283,1,0,0:0:0:0:
256,160,64712,1,0,0:0:0:0:
64,64,64926,1,0,0:0:0:0:
256,160,65354,1,12,0:0:0:0:
256,160,66212,1,12,0:0:0:0:
256,160,66854,1,0,0:0:0:0:
256,160,67069,1,8,0:0:0:0:
256,160,67283,1,0,0:0:0:0:
256,160,67497,1,8,0:0:0:0:
256,160,67712,1,8,0:0:0:0:
256,160,68140,1,0,0:0:0:0:
256,160,68354,1,12,0:0:0:0:
256,192,70497,1,0,0:0:0:0:
256,192,70925,1,0,0:0:0:0:
256,192,71354,1,8,0:0:0:0:
256,192,71568,1,8,0:0:0:0:
256,192,71997,1,0,0:0:0:0:
224,192,72211,1,8,0:0:0:0:
256,224,72854,1,8,0:0:0:0:
256,224,73068,1,0,0:0:0:0:
256,192,73925,1,0,0:0:0:0:
256,192,74354,1,8,0:0:0:0:
256,192,74782,1,0,0:0:0:0:
256,192,74997,1,8,0:0:0:0:
256,192,75425,1,0,0:0:0:0:
256,192,75639,1,8,0:0:0:0:
256,192,76282,1,8,0:0:0:0:
256,192,76497,1,0,0:0:0:0:
256,192,77354,1,0,0:0:0:0:
256,192,77782,1,8,0:0:0:0:
256,192,78211,1,0,0:0:0:0:
256,192,78425,1,8,0:0:0:0:
224,160,78854,1,0,0:0:0:0:
224,224,79068,1,0,0:0:0:0:
256,192,79711,1,8,0:0:0:0:
256,192,79925,1,8,0:0:0:0:
256,192,80782,1,0,0:0:0:0:
256,192,81211,1,8,0:0:0:0:
256,192,81639,1,0,0:0:0:0:
256,192,81854,1,0,0:0:0:0:
288,160,82282,1,8,0:0:0:0:
288,160,82497,1,0,0:0:0:0:
288,192,82925,1,8,0:0:0:0:
256,160,83139,1,0,0:0:0:0:
288,160,83354,1,0,0:0:0:0:
288,160,84211,1,8,0:0:0:0:
288,160,85068,1,0,0:0:0:0:
288,160,85497,1,8,0:0:0:0:
288,160,85925,1,0,0:0:0:0:
288,160,86353,1,12,0:0:0:0:
320,160,86782,1,8,0:0:0:0:
288,160,86996,1,0,0:0:0:0:
288,160,87210,1,8,0:0:0:0:
288,160,87639,1,8,0:0:0:0:
288,160,88067,1,8,0:0:0:0:
288,166,88496,1,0,0:0:0:0:
288,166,88710,1,0,0:0:0:0:
288,128,88925,1,8,0:0:0:0:
288,160,89353,1,0,0:0:0:0:
288,160,89782,1,8,0:0:0:0:
288,160,90210,1,0,0:0:0:0:
288,160,90425,1,0,0:0:0:0:
288,160,90639,1,8,0:0:0:0:
288,160,91067,1,8,0:0:0:0:
288,160,91496,1,8,0:0:0:0:
288,160,92353,1,8,0:0:0:0:
288,160,92782,1,0,0:0:0:0:
288,160,93210,1,8,0:0:0:0:
288,160,93639,1,8,0:0:0:0:
288,160,94067,1,0,0:0:0:0:
288,160,94282,1,8,0:0:0:0:
288,160,94925,1,0,0:0:0:0:
288,160,95353,1,8,0:0:0:0:
288,160,95782,1,8,0:0:0:0:
256,160,96210,1,4,0:0:0:0:
288,160,96853,1,12,0:0:0:0:
262,210,97282,1,0,0:0:0:0:
288,192,97710,1,0,0:0:0:0:
256,192,97925,1,8,0:0:0:0:
288,192,98139,1,0,0:0:0:0:
252,186,98353,1,8,0:0:0:0:
320,192,98996,1,8,0:0:0:0:
320,192,99210,1,8,0:0:0:0:
320,192,99639,1,12,0:0:0:0:
320,192,99960,1,12,0:0:0:0:
320,192,100282,1,4,0:0:0:0:
320,192,100710,1,12,0:0:0:0:
320,192,101139,1,0,0:0:0:0:
288,160,101353,1,0,0:0:0:0:
288,160,101567,1,8,0:0:0:0:
320,192,101782,1,0,0:0:0:0:
288,160,101996,1,8,0:0:0:0:
288,160,102425,1,8,0:0:0:0:
294,174,102639,1,0,0:0:0:0:
288,160,103067,1,12,0:0:0:0:
288,160,103389,1,12,0:0:0:0:
288,160,103710,1,4,0:0:0:0:
288,160,104139,1,12,0:0:0:0:
288,160,104567,1,0,0:0:0:0:
288,160,104782,1,0,0:0:0:0:
286,155,104996,1,8,0:0:0:0:
286,155,105210,1,0,0:0:0:0:
290,145,105425,1,8,0:0:0:0:
303,155,105853,1,0,0:0:0:0:
303,154,106067,1,12,0:0:0:0:
311,126,106925,1,12,0:0:0:0:
301,144,107782,1,12,0:0:0:0:
298,144,108210,1,0,0:0:0:0:
279,123,108425,1,0,0:0:0:0:
301,144,108639,1,8,0:0:0:0:
301,137,108853,1,0,0:0:0:0:
286,147,109282,1,8,0:0:0:0:
288,128,109496,1,0,0:0:0:0:
288,133,109925,1,12,0:0:0:0:
288,132,110246,1,12,0:0:0:0:
288,132,110567,1,4,0:0:0:0:
312,137,110996,1,12,0:0:0:0:
276,122,111425,1,0,0:0:0:0:
279,122,111639,1,8,0:0:0:0:
276,122,111853,1,0,0:0:0:0:
270,113,112067,1,8,0:0:0:0:
270,114,112282,1,8,0:0:0:0:
270,113,112710,1,0,0:0:0:0:
270,113,112925,1,12,0:0:0:0:
256,192,120210,5,0,0:0:0:0:
256,192,120639,1,8,0:0:0:0:
256,192,121282,1,0,0:0:0:0:
224,192,121925,1,8,0:0:0:0:
224,192,122567,1,8,0:0:0:0:
256,224,123210,1,8,0:0:0:0:
224,192,123639,1,0,0:0:0:0:
224,192,124067,1,0,0:0:0:0:
224,192,124710,1,0,0:0:0:0:
192,192,125353,1,0,0:0:0:0:
192,160,126210,1,8,0:0:0:0:
224,160,127282,1,8,0:0:0:0:
224,160,127496,1,8,0:0:0:0:
224,160,127925,1,8,0:0:0:0:
224,160,128353,1,0,0:0:0:0:
224,160,128567,1,8,0:0:0:0:
224,160,129639,1,8,0:0:0:0:
224,160,130067,1,8,0:0:0:0:
224,160,130710,1,8,0:0:0:0:
224,160,130925,1,0,0:0:0:0:
224,160,131353,1,8,0:0:0:0:
224,160,131782,1,0,0:0:0:0:
224,160,131996,1,0,0:0:0:0:
192,160,132425,1,8,0:0:0:0:
192,160,132639,1,8,0:0:0:0:
224,160,133067,1,8,0:0:0:0:
224,160,133496,1,0,0:0:0:0:
224,160,134139,1,8,0:0:0:0:
224,160,134353,1,8,0:0:0:0:
224,160,134782,1,8,0:0:0:0:
224,160,135210,1,8,0:0:0:0:
224,160,135425,1,0,0:0:0:0:
224,160,136496,1,8,0:0:0:0:
224,160,136925,1,0,0:0:0:0:
224,160,137567,1,8,0:0:0:0:
224,160,137782,1,0,0:0:0:0:
224,160,138210,1,8,0:0:0:0:
224,160,138639,1,0,0:0:0:0:
192,160,139067,1,0,0:0:0:0:
192,160,139389,1,8,0:0:0:0:
224,160,139710,1,0,0:0:0:0:
224,160,140032,1,8,0:0:0:0:
224,160,140353,1,8,0:0:0:0:
224,160,141210,1,12,0:0:0:0:
224,160,141853,1,0,0:0:0:0:
224,160,142067,1,8,0:0:0:0:
224,160,142496,1,0,0:0:0:0:
224,160,142925,1,8,0:0:0:0:
224,160,143353,1,8,0:0:0:0:
224,160,144210,1,0,0:0:0:0:
224,160,144425,1,0,0:0:0:0:
192,160,144639,1,8,0:0:0:0:
192,160,145067,1,0,0:0:0:0:
224,160,145496,1,8,0:0:0:0:
224,160,145925,1,0,0:0:0:0:
224,160,146139,1,8,0:0:0:0:
224,160,146567,1,0,0:0:0:0:
224,160,147639,1,8,0:0:0:0:
224,160,148067,1,0,0:0:0:0:
224,160,148282,1,0,0:0:0:0:
217,171,148496,1,8,0:0:0:0:
192,160,148925,1,8,0:0:0:0:
192,160,149139,1,0,0:0:0:0:
192,160,149353,1,0,0:0:0:0:
192,160,149782,1,0,0:0:0:0:
192,160,150210,1,8,0:0:0:0:
192,160,151067,1,0,0:0:0:0:
192,160,151282,1,0,0:0:0:0:
192,160,151496,1,8,0:0:0:0:
192,160,151925,1,8,0:0:0:0:
192,160,152353,1,0,0:0:0:0:
64,64,152782,1,0,0:0:0:0:
192,160,153210,1,8,0:0:0:0:
192,160,153639,1,8,0:0:0:0:
192,160,154496,1,0,0:0:0:0:
192,128,154925,1,8,0:0:0:0:
192,128,155139,1,0,0:0:0:0:
192,128,155353,1,8,0:0:0:0:
192,128,155782,1,0,0:0:0:0:
192,128,156210,1,8,0:0:0:0:
192,128,156639,1,0,0:0:0:0:
192,128,157067,1,8,0:0:0:0:
192,128,157496,1,0,0:0:0:0:
192,128,157710,1,8,0:0:0:0:
192,128,157925,1,0,0:0:0:0:
192,128,158353,1,8,0:0:0:0:
64,64,158567,1,0,0:0:0:0:
192,128,158782,1,8,0:0:0:0:
192,128,159210,1,0,0:0:0:0:
192,128,159639,1,8,0:0:0:0:
192,128,160067,1,0,0:0:0:0:
192,128,160496,1,8,0:0:0:0:
192,128,161353,1,0,0:0:0:0:
192,128,161782,1,8,0:0:0:0:
195,117,161996,1,0,0:0:0:0:
192,128,162210,1,8,0:0:0:0:
160,128,162639,1,0,0:0:0:0:
160,128,163067,1,8,0:0:0:0:
160,128,163282,1,8,0:0:0:0:
160,128,163496,1,0,0:0:0:0:
160,128,163925,1,8,0:0:0:0:
224,160,164782,1,8,0:0:0:0:
224,160,165210,1,8,0:0:0:0:
224,160,165639,1,0,0:0:0:0:
224,160,166067,1,0,0:0:0:0:
224,160,166496,1,8,0:0:0:0:
192,160,167567,1,8,0:0:0:0:
192,160,167782,1,0,0:0:0:0:
192,160,168210,1,12,0:0:0:0:
192,160,168532,1,12,0:0:0:0:
192,160,168853,1,4,0:0:0:0:
192,160,169282,1,12,0:0:0:0:
320,192,169710,1,0,0:0:0:0:
288,160,169925,1,0,0:0:0:0:
288,160,170139,1,8,0:0:0:0:
320,192,170353,1,8,0:0:0:0:
288,160,170567,1,0,0:0:0:0:
320,160,170996,1,0,0:0:0:0:
293,169,171210,1,8,0:0:0:0:
288,160,171639,1,12,0:0:0:0:
288,160,171960,1,12,0:0:0:0:
288,160,172282,1,4,0:0:0:0:
288,160,172710,1,12,0:0:0:0:
288,160,173139,1,0,0:0:0:0:
288,160,173353,1,0,0:0:0:0:
288,160,173567,1,0,0:0:0:0:
286,155,173782,1,8,0:0:0:0:
290,145,173996,1,8,0:0:0:0:
303,155,174425,1,0,0:0:0:0:
303,154,174639,1,12,0:0:0:0:
311,126,175496,1,12,0:0:0:0:
301,144,176353,1,12,0:0:0:0:
298,144,176782,1,8,0:0:0:0:
279,123,176996,1,8,0:0:0:0:
301,144,177210,1,0,0:0:0:0:
301,137,177425,1,8,0:0:0:0:
286,147,177853,1,0,0:0:0:0:
286,147,178067,1,8,0:0:0:0:
288,133,178496,1,12,0:0:0:0:
288,132,178817,1,12,0:0:0:0:
288,132,179139,1,4,0:0:0:0:
312,137,179567,1,12,0:0:0:0:
276,122,179996,1,8,0:0:0:0:
279,122,180210,1,0,0:0:0:0:
276,122,180425,1,8,0:0:0:0:
270,113,180639,1,0,0:0:0:0:
270,114,180853,1,0,0:0:0:0:
270,113,181282,1,8,0:0:0:0:
270,113,181496,1,4,0:0:0:0:
253,121,181925,1,0,0:0:0:0:
253,120,182353,1,0,0:0:0:0:
253,121,182567,1,8,0:0:0:0:
237,115,182782,1,8,0:0:0:0:
237,115,182996,1,0,0:0:0:0:
267,114,183210,1,8,0:0:0:0:
273,113,183639,1,8,0:0:0:0:
266,114,184067,1,8,0:0:0:0:
273,113,184282,1,0,0:0:0:0:
270,97,184496,1,0,0:0:0:0:
262,109,184710,1,8,0:0:0:0:
262,109,184925,1,0,0:0:0:0:
262,109,185353,1,12,0:0:0:0:
256,192,186210,1,12,0:0:0:0:
256,192,186853,1,8,0:0:0:0:
256,192,187067,1,0,0:0:0:0:
256,192,187282,1,8,0:0:0:0:
256,192,187496,1,0,0:0:0:0:
256,192,187710,1,0,0:0:0:0:
256,192,188139,1,8,0:0:0:0:
256,192,188353,1,4,0:0:0:0:
256,160,188782,1,0,0:0:0:0:
256,160,189210,1,0,0:0:0:0:
256,160,189425,1,0,0:0:0:0:
256,160,189639,1,8,0:0:0:0:
256,160,189853,1,0,0:0:0:0:
256,160,190067,1,8,0:0:0:0:
256,160,190496,1,8,0:0:0:0:
256,160,190925,1,8,0:0:0:0:
256,160,191139,1,8,0:0:0:0:
256,160,191353,1,0,0:0:0:0:
256,160,191567,1,8,0:0:0:0:
256,160,191782,1,0,0:0:0:0:
256,160,192210,1,4,0:0:0:0:
256,160,193067,1,4,0:0:0:0:
256,160,193710,1,8,0:0:0:0:
256,160,193925,1,0,0:0:0:0:
256,160,194139,1,8,0:0:0:0:
256,160,194353,1,0,0:0:0:0:
256,160,194567,1,0,0:0:0:0:
256,160,194996,1,8,0:0:0:0:
256,160,195210,1,4,0:0:0:0:
256,160,195639,1,0,0:0:0:0:
256,192,196067,1,8,0:0:0:0:
256,192,196710,1,0,0:0:0:0:
256,192,197353,1,8,0:0:0:0:
256,192,197996,1,0,0:0:0:0:
256,192,198639,1,8,0:0:0:0:
256,192,199067,1,0,0:0:0:0:
256,192,199496,1,0,0:0:0:0:
256,192,200139,1,0,0:0:0:0:
256,192,200782,1,8,0:0:0:0:
256,192,201425,1,8,0:0:0:0:
256,192,202496,1,8,0:0:0:0:
256,192,202925,1,0,0:0:0:0:
256,192,203567,1,8,0:0:0:0:
256,192,204210,1,8,0:0:0:0:
256,192,204853,1,0,0:0:0:0:
256,192,205496,1,8,0:0:0:0:
256,192,205925,1,8,0:0:0:0:
256,192,206353,1,0,0:0:0:0:
256,192,206996,1,0,0:0:0:0:
256,192,207639,1,8,0:0:0:0:
256,192,208282,1,8,0:0:0:0:
256,192,208925,1,8,0:0:0:0:
256,192,209139,5,8,0:0:0:0:
