osu file format v14

[General]
AudioFilename: audio.mp3
AudioLeadIn: 0
PreviewTime: 40069
Countdown: 0
SampleSet: Normal
StackLeniency: 0.7
Mode: 1
LetterboxInBreaks: 0
WidescreenStoryboard: 0

[Editor]
Bookmarks: 13926,27640
DistanceSpacing: 0.1
BeatDivisor: 4
GridSize: 32
TimelineZoom: 1.6

[Metadata]
Title:Intergalactic Bound
TitleUnicode:Intergalactic Bound
Artist:Yunosuke & CircusP feat. Hatsune Miku
ArtistUnicode:雄之助 & CircusP feat. 初音ミク
Creator:SN707
Version:Epsilon-Delta
Source:MIKU EXPO 10th
Tags:electronic english vocaloid pop Anniversary Theme Song 2024
BeatmapID:4452413
BeatmapSetID:2119565

[Difficulty]
HPDrainRate:5.5
CircleSize:5
OverallDifficulty:5
ApproachRate:5
SliderMultiplier:1.4
SliderTickRate:1

[Events]
//Background and Video events
0,0,"bg.jpg",0,60
Video,-20,"output.mp4"
//Break Periods
2,113353,118496
//Storyboard Layer 0 (Background)
//Storyboard Layer 1 (Fail)
//Storyboard Layer 2 (Pass)
//Storyboard Layer 3 (Foreground)
//Storyboard Layer 4 (Overlay)
//Storyboard Sound Samples

[TimingPoints]
212,428.571428571429,4,1,0,75,1,0
212,-166.666666666667,4,1,0,75,0,0
587,-164.401106801513,4,1,0,75,0,0
908,-162.510152405523,4,1,0,75,0,0
1229,-160.662203171679,4,1,0,75,0,0
1872,-157.084141498107,4,1,0,75,0,0
2193,-155.356877790338,4,1,0,75,0,0
2515,-153.661979784291,4,1,0,75,0,0
3158,-150.375939849624,4,1,0,75,0,0
3372,-149.316246583324,4,1,0,75,0,0
3587,-148.266535827648,4,1,0,75,0,0
4015,-146.220207632695,4,1,0,75,0,0
4336,-144.732363203132,4,1,0,75,0,0
4658,-143.260260702929,4,1,0,75,0,0
5086,-141.349290448586,4,1,0,75,0,0
5300,-140.412796697626,4,1,0,75,0,0
5622,-139.026832607852,4,1,0,75,0,0
5943,-137.672140768398,4,1,0,75,0,0
6586,-135.036423906787,4,1,0,75,0,0
6800,-134.181459566075,4,1,0,75,0,0
7015,-133.333333333333,4,1,0,75,0,0
7444,-164.099986837539,4,1,0,75,0,0
7766,-162.224824633001,4,1,0,75,0,0
8087,-160.397660818713,4,1,0,75,0,0
8730,-156.858708208947,4,1,0,75,0,0
9051,-155.149787311069,4,1,0,75,0,0
9373,-153.472548624634,4,1,0,75,0,0
10016,-150.22949598519,4,1,0,75,0,0
10230,-149.180345701574,4,1,0,75,0,0
10444,-148.145747588338,4,1,0,75,0,0
10873,-146.114342943596,4,1,0,75,0,0
11194,-144.630408875671,4,1,0,75,0,0
11515,-144.634075788256,4,1,0,75,0,0
11944,-151.30661379328,4,1,0,75,0,0
12159,-154.887731687236,4,1,0,75,0,0
12479,-160.543140163899,4,1,0,75,0,0
12801,-166.666666666667,4,1,0,75,0,0
13658,-125,4,1,0,80,0,0
13872,-124.528900003522,4,1,0,80,0,0
14515,-123.134523291249,4,1,0,80,0,0
14729,-122.67735387498,4,1,0,80,0,0
15050,-121.997929606625,4,1,0,80,0,0
15372,-121.323907896091,4,1,0,80,0,0
15586,-120.880060175055,4,1,0,80,0,0
15908,-120.218300520249,4,1,0,80,0,0
16229,-119.565768782022,4,1,0,80,0,0
16443,-119.13466884572,4,1,0,80,0,0
16872,-118.279749757452,4,1,0,80,0,0
17300,-117.438963627304,4,1,0,80,0,0
17943,-116.198051041033,4,1,0,80,0,0
18158,-115.788956573001,4,1,0,80,0,0
18479,-115.183501930313,4,1,0,80,0,0
18801,-114.582489345498,4,1,0,80,0,0
19015,-114.18651594671,4,1,0,80,0,0
19336,-113.597660893873,4,1,0,80,0,0
19658,-113.01304181051,4,1,0,80,0,0
19872,-112.627823261444,4,1,0,80,0,0
20300,-111.865211200759,4,1,0,80,0,0
20515,-111.486007094994,4,1,0,80,0,0
20729,-111.111111111111,4,1,0,80,0,0
21372,-125,4,1,0,80,0,0
21586,-124.464292866584,4,1,0,80,0,0
21908,-123.66682585164,4,1,0,80,0,0
22229,-122.881942384878,4,1,0,80,0,0
22443,-122.364198381603,4,1,0,80,0,0
22765,-121.593332420324,4,1,0,80,0,0
23086,-120.834467472878,4,1,0,80,0,0
23300,-120.333798017348,4,1,0,80,0,0
23729,-119.342512049465,4,1,0,80,0,0
24158,-118.367424675275,4,1,0,80,0,0
24800,-116.937608188455,4,1,0,80,0,0
25015,-116.46646552855,4,1,0,80,0,0
25336,-115.77006184338,4,1,0,80,0,0
25658,-115.079805947487,4,1,0,80,0,0
25872,-114.625599409812,4,1,0,80,0,0
26300,-113.727858293076,4,1,0,80,0,0
26729,-112.842021170362,4,1,0,80,0,0
27158,-111.9698771304,4,1,0,80,0,0
27372,-111.53984206748,4,1,0,82,0,0
27586,-111.11309757929,4,1,0,85,0,0
27587,-111.111111111111,4,1,0,85,0,0
28015,-107.530120481928,4,1,0,85,0,0
28229,-105.824811027123,4,1,0,85,0,0
28443,-104.172745841844,4,1,0,85,0,0
28550,-103.365906623236,4,1,0,85,0,0
28765,-101.781895937277,4,1,0,85,0,0
28872,-101.011530027587,4,1,0,85,0,0
29086,-99.5052609574246,4,1,0,85,0,0
29300,-98.043254376931,4,1,0,85,0,0
29408,-97.3216111224698,4,1,0,85,0,0
29515,-96.617050067659,4,1,0,85,0,0
29729,-95.2380952380952,4,1,0,85,0,0
30157,-96.9671261930011,4,1,0,85,0,0
30372,-97.8595890410959,4,1,0,85,0,0
30586,-98.7643653331029,4,1,0,85,0,0
30693,-99.2230565562741,4,1,0,85,0,0
30800,-99.6860282574568,4,1,0,85,0,0
30801,-99.6909580301067,4,1,0,85,0,0
31015,-100.62914342063,4,1,0,85,0,0
31444,-102.564102564103,4,1,0,85,0,0
31659,-103.565441942645,4,1,0,85,0,0
31873,-104.579349467039,4,1,0,85,0,0
31980,-105.093784479588,4,1,0,85,0,0
32194,-106.137988671186,4,1,0,85,0,0
32301,-106.66791097009,4,1,0,85,0,0
32516,-107.74886877828,4,1,0,85,0,0
32730,-108.846776497476,4,1,0,85,0,0
32837,-109.40416367552,4,1,0,85,0,0
32944,-109.967288820473,4,1,0,85,0,0
33158,-110.595115239078,4,1,0,85,0,0
33587,-106.668878566689,4,1,0,85,0,0
33801,-104.80847595762,4,1,0,85,0,0
34016,-103.00360432519,4,1,0,85,0,0
34123,-102.12833545108,4,1,0,85,0,0
34230,-101.267816363493,4,1,0,85,0,0
34444,-100.310177327793,4,1,0,85,0,0
34872,-102.893504622404,4,1,0,85,0,0
35087,-104.23254682559,4,1,0,85,0,0
35301,-105.606900800986,4,1,0,85,0,0
35408,-106.314353057933,4,1,0,85,0,0
35515,-107.024664377146,4,1,0,85,0,0
35729,-108.474147205873,4,1,0,85,0,0
35837,-109.213712246719,4,1,0,85,0,0
35944,-109.963431064348,4,1,0,85,0,0
36158,-111.111111111111,4,1,0,85,0,0
36587,-111.111111111111,4,1,0,85,0,0
37872,-90.9090909090909,4,1,0,85,0,0
38301,-111.111111111111,4,1,0,85,0,0
38515,-90.9090909090909,4,1,0,85,0,0
38944,-111.111111111111,4,1,0,85,0,0
39158,-107.916890560631,4,1,0,85,0,0
39372,-104.901192652564,4,1,0,85,0,0
39479,-103.455677183945,4,1,0,85,0,0
39586,-102.04945799458,4,1,0,85,0,0
39800,-99.3486684805013,4,1,0,85,0,0
40015,-96.7754888969201,4,1,0,85,0,0
40122,-95.5439264192832,4,1,0,85,0,0
40229,-94.3433157173615,4,1,0,85,0,0
40336,-93.1725044459909,4,1,0,85,0,0
40443,-92.030396761752,4,1,0,85,0,0
40658,-89.8181276088253,4,1,0,85,0,0
40765,-88.7563068537547,4,1,0,85,0,0
40872,-87.719298245614,4,1,0,85,0,0
41086,-85.7163181106843,4,1,0,85,0,0
41354,-76.9230769230769,4,1,0,95,0,1
42372,-66.6666666666667,4,1,0,95,0,1
42801,-100,4,1,0,95,0,1
42908,-98.8611198987662,4,1,0,95,0,1
43015,-97.7580813347237,4,1,0,95,0,1
43229,-95.6242350061199,4,1,0,95,0,1
43336,-94.5918676218343,4,1,0,95,0,1
43443,-93.5815532042324,4,1,0,95,0,1
43550,-92.5925925925926,4,1,0,95,0,1
43658,-91.6153620639109,4,1,0,95,0,1
43872,-89.7386809610415,4,1,0,95,0,1
44086,-87.9373417127849,4,1,0,95,0,1
44193,-87.0635215453195,4,1,0,95,0,1
44300,-86.2068965517241,4,1,0,95,0,1
44515,-84.5356176735798,4,1,0,95,0,1
44729,-76.9230769230769,4,1,0,95,0,1
45801,-66.6666666666667,4,1,0,95,0,1
46229,-100,4,1,0,95,0,1
46337,-98.5804416403786,4,1,0,95,0,1
46444,-97.2132209980557,4,1,0,95,0,1
46658,-94.5894816496406,4,1,0,95,0,1
46765,-93.3300149328024,4,1,0,95,0,1
46873,-92.0923379174853,4,1,0,95,0,1
46979,-90.9090909090909,4,1,0,95,0,1
47087,-89.7343862167983,4,1,0,95,0,1
47194,-88.6001181334908,4,1,0,95,0,1
47302,-87.4839612737665,4,1,0,95,0,1
47516,-85.3533629224991,4,1,0,95,0,1
47729,-83.3333333333333,4,1,0,95,0,1
48158,-76.9230769230769,4,1,0,95,0,1
49872,-100,4,1,0,95,0,1
49979,-98.7675650771712,4,1,0,95,0,1
50086,-97.5651382409831,4,1,0,95,0,1
50300,-95.2460291014106,4,1,0,95,0,1
50408,-94.1170014268467,4,1,0,95,0,1
50515,-93.0245172488609,4,1,0,95,0,1
50622,-91.9571045576407,4,1,0,95,0,1
50729,-90.9139100932994,4,1,0,95,0,1
50943,-88.8969521044993,4,1,0,95,0,1
51050,-87.9216651286784,4,1,0,95,0,1
51157,-86.9675456389452,4,1,0,95,0,1
51372,-85.1116625310174,4,1,0,95,0,1
51587,-76.9230769230769,4,1,0,95,0,1
52658,-66.6666666666667,4,1,0,95,0,1
53087,-100,4,1,0,95,0,1
53194,-98.5934008150388,4,1,0,95,0,1
53301,-97.2258231786362,4,1,0,95,0,1
53516,-94.5894816496406,4,1,0,95,0,1
53622,-93.3416303671438,4,1,0,95,0,1
53730,-92.1036473044333,4,1,0,95,0,1
53837,-90.9090909090909,4,1,0,95,0,1
53944,-89.7451238482709,4,1,0,95,0,1
54051,-88.6105860113421,4,1,0,95,0,1
54159,-87.4941670555296,4,1,0,95,0,1
54373,-85.3630776234919,4,1,0,95,0,1
54587,-83.3333333333333,4,1,0,95,0,1
55015,-83.3333333333333,4,1,0,95,0,1
55122,-82.5968448005286,4,1,0,95,0,1
55229,-81.8732601932209,4,1,0,95,0,1
55443,-80.4634695848085,4,1,0,95,0,1
55658,-79.0951514672151,4,1,0,95,0,1
55765,-78.4313725490196,4,1,0,95,0,1
55872,-77.7786419849109,4,1,0,95,0,1
56086,-76.5052406089817,4,1,0,95,0,1
56300,-75.2728641324802,4,1,0,95,0,1
56729,-74.9990275022367,4,1,0,95,0,1
56836,-75.4702209696044,4,1,0,95,0,1
56943,-75.9473725675569,4,1,0,95,0,1
57158,-76.9246114868235,4,1,0,95,0,1
57372,-77.922602808932,4,1,0,95,0,1
57479,-78.4313725490196,4,1,0,95,0,1
57586,-78.9468296378191,4,1,0,95,0,1
57800,-79.9983402833966,4,1,0,95,0,1
58015,-81.0833543611742,4,1,0,95,0,1
58229,-82.1929487999318,4,1,0,95,0,1
58443,-83.3333333333333,4,1,0,95,0,1
58872,-100,4,1,0,95,0,1
59301,-83.3333333333333,4,1,0,95,0,1
59729,-100,4,1,0,95,0,1
59944,-97.5540386803185,4,1,0,95,0,1
60051,-96.3808025177026,4,1,0,95,0,1
60159,-95.2248750694059,4,1,0,95,0,1
60373,-93.0144267274108,4,1,0,95,0,1
60479,-91.9571045576407,4,1,0,95,0,1
60587,-90.904272235768,4,1,0,95,0,1
60694,-89.8846960167715,4,1,0,95,0,1
60801,-88.8877371203483,4,1,0,95,0,1
60909,-87.9036391594054,4,1,0,95,0,1
61016,-86.9499087406206,4,1,0,95,0,1
61230,-85.1032155617308,4,1,0,95,0,1
61444,-83.3333333333333,4,1,0,95,0,1
61872,-83.3333333333333,4,1,0,95,0,1
61979,-82.5968448005286,4,1,0,95,0,1
62086,-81.8732601932209,4,1,0,95,0,1
62300,-80.4634695848085,4,1,0,95,0,1
62515,-79.0951514672151,4,1,0,95,0,1
62622,-78.4313725490196,4,1,0,95,0,1
62729,-77.7786419849109,4,1,0,95,0,1
62943,-76.5052406089817,4,1,0,95,0,1
63158,-75.2671985548698,4,1,0,95,0,1
63587,-74.9990275022367,4,1,0,95,0,1
63694,-75.4702209696044,4,1,0,95,0,1
63801,-75.9473725675569,4,1,0,95,0,1
64016,-76.9246114868235,4,1,0,95,0,1
64230,-77.922602808932,4,1,0,95,0,1
64337,-78.4313725490196,4,1,0,95,0,1
64444,-78.9468296378191,4,1,0,95,0,1
64659,-80.0033196398191,4,1,0,95,0,1
64873,-81.0833543611742,4,1,0,95,0,1
65087,-82.1929487999318,4,1,0,95,0,1
65301,-83.3333333333333,4,1,0,95,0,1
65729,-100,4,1,0,95,0,1
66158,-83.3333333333333,4,1,0,95,0,1
66587,-100,4,1,0,95,0,1
66801,-97.563752276867,4,1,0,95,0,1
66909,-96.378767431399,4,1,0,95,0,1
67015,-95.2433874194266,4,1,0,95,0,1
67016,-95.2328036448494,4,1,0,95,0,1
67230,-93.0207315749485,4,1,0,95,0,1
67337,-91.9527896995708,4,1,0,95,0,1
67444,-90.9090909090909,4,1,0,95,0,1
67551,-89.8888189637088,4,1,0,95,0,1
67659,-88.8819746940469,4,1,0,95,0,1
67766,-87.9064519437891,4,1,0,95,0,1
67873,-86.9521103896104,4,1,0,95,0,1
68087,-85.1042701092354,4,1,0,95,0,1
68301,-83.3333333333333,4,1,0,95,0,1
68783,-83.3333333333333,4,1,0,15,0,0
70390,-125,4,1,0,85,0,0
70497,428.571428571429,4,1,0,85,1,0
70497,-125,4,1,0,85,0,0
70872,-123.075266501561,4,1,0,85,0,0
71086,-122.137132680321,4,1,0,85,0,0
71300,-121.213192406943,4,1,0,85,0,0
71515,-120.298905416784,4,1,0,85,0,0
71943,-118.519286603069,4,1,0,85,0,0
72158,-117.645040655985,4,1,0,85,0,0
72479,-116.363512963214,4,1,0,85,0,0
72800,-115.109604216322,4,1,0,85,0,0
73015,-114.284762031729,4,1,0,85,0,0
73443,-112.677444794953,4,1,0,85,0,0
73658,-111.886970992267,4,1,0,85,0,0
73872,-111.111111111111,4,1,0,85,0,0
74301,-123.079132557805,4,1,0,85,0,0
74516,-122.136316670823,4,1,0,85,0,0
74623,-121.672463973877,4,1,0,85,0,0
74730,-121.212121212121,4,1,0,85,0,0
74944,-120.30180733462,4,1,0,85,0,0
75373,-118.517494122528,4,1,0,85,0,0
75587,-117.647058823529,4,1,0,85,0,0
75801,-116.789315889888,4,1,0,85,0,0
75909,-116.361167684997,4,1,0,85,0,0
76230,-115.106947382559,4,1,0,85,0,0
76444,-114.285714285714,4,1,0,85,0,0
76873,-112.674204575335,4,1,0,85,0,0
77087,-111.887198903323,4,1,0,85,0,0
77301,-111.111111111111,4,1,0,85,0,0
77729,-123.075266501561,4,1,0,85,0,0
77943,-122.137132680321,4,1,0,85,0,0
78050,-121.673408558654,4,1,0,85,0,0
78158,-121.208907741251,4,1,0,85,0,0
78372,-120.298905416784,4,1,0,85,0,0
78800,-118.519286603069,4,1,0,85,0,0
78908,-118.078512396694,4,1,0,85,0,0
79015,-117.645040655985,4,1,0,85,0,0
79336,-116.363512963214,4,1,0,85,0,0
79658,-115.105740181269,4,1,0,85,0,0
79872,-114.284762031729,4,1,0,85,0,0
80300,-112.677444794953,4,1,0,85,0,0
80515,-111.886970992267,4,1,0,85,0,0
80729,-111.111111111111,4,1,0,85,0,0
81158,-122.446063723389,4,1,0,85,0,0
81372,-121.210692565178,4,1,0,85,0,0
81479,-120.602307908809,4,1,0,85,0,0
81586,-120,4,1,0,85,0,0
81800,-118.81325384722,4,1,0,85,0,0
82229,-116.503534529636,4,1,0,85,0,0
82443,-115.384615384615,4,1,0,85,0,0
82658,-114.281904253901,4,1,0,85,0,0
82765,-113.740930808706,4,1,0,85,0,0
83086,-112.148309705562,4,1,0,85,0,0
83301,-111.111111111111,4,1,0,85,0,0
83515,-108.111517598083,4,1,0,85,0,0
83516,-108.097880928355,4,1,0,85,0,0
83622,-106.671645506597,4,1,0,85,0,0
83730,-105.256693687055,4,1,0,85,0,0
83837,-103.891380773427,4,1,0,85,0,0
83944,-102.561033987554,4,1,0,85,0,0
84158,-100,4,1,0,85,0,0
84587,-102.03887195122,4,1,0,85,0,0
85016,-104.167679813257,4,1,0,85,0,0
85123,-104.712553773954,4,1,0,85,0,0
85230,-105.263157894737,4,1,0,85,0,0
85444,-106.381922026322,4,1,0,85,0,0
85551,-106.950269622528,4,1,0,85,0,0
85659,-107.530120481928,4,1,0,85,0,0
85925,428.571428571429,4,1,0,85,1,0
85925,-108.695652173913,4,1,0,85,0,0
86301,-111.111111111111,4,1,0,85,0,0
86515,-113.204225352113,4,1,0,85,0,0
86729,-115.377713978109,4,1,0,85,0,0
86943,-117.636297109404,4,1,0,85,0,0
87158,-119.996267612205,4,1,0,85,0,0
87587,-125,4,1,0,85,0,0
87800,-123.087971274686,4,1,0,85,0,0
88015,-121.216407355021,4,1,0,85,0,0
88122,-120.30602933951,4,1,0,85,0,0
88229,-119.409223909712,4,1,0,85,0,0
88443,-117.655134541461,4,1,0,85,0,0
88658,-115.943989717919,4,1,0,85,0,0
88872,-114.289524571581,4,1,0,85,0,0
89301,-111.111111111111,4,1,0,85,0,0
89729,-114.281904253901,4,1,0,85,0,0
89943,-115.936147186147,4,1,0,85,0,0
90158,-117.647058823529,4,1,0,85,0,0
90372,-119.400905607802,4,1,0,85,0,0
90586,-121.207835372322,4,1,0,85,0,0
91015,-125,4,1,0,85,0,0
91229,-123.079132557805,4,1,0,85,0,0
91443,-121.216407355021,4,1,0,85,0,0
91550,-120.30602933951,4,1,0,85,0,0
91658,-119.400905607802,4,1,0,85,0,0
92086,-115.943989717919,4,1,0,85,0,0
92300,-114.289524571581,4,1,0,85,0,0
92729,-111.111111111111,4,1,0,85,0,0
93158,-112.677444794953,4,1,0,85,0,0
93372,-113.475412006089,4,1,0,85,0,0
93586,-114.284762031729,4,1,0,85,0,0
93693,-114.693781984815,4,1,0,85,0,0
93800,-115.105740181269,4,1,0,85,0,0
94015,-115.942519019442,4,1,0,85,0,0
94229,-116.787575355063,4,1,0,85,0,0
94336,-117.214739864634,4,1,0,85,0,0
94443,-117.645040655985,4,1,0,85,0,0
94872,-111.111111111111,4,1,0,85,0,0
95729,-111.111111111111,4,1,0,85,0,0
96158,-90.9090909090909,4,1,0,85,0,0
96587,-111.111111111111,4,1,0,85,0,0
96801,-86.9565217391304,4,1,0,85,0,0
97229,-111.111111111111,4,1,0,85,0,0
97444,-107.387034273879,4,1,0,85,0,0
97658,-103.920174134178,4,1,0,85,0,0
97765,-102.269353128314,4,1,0,85,0,0
97872,-100.670160128604,4,1,0,85,0,0
98086,-97.6172642063283,4,1,0,85,0,0
98301,-94.7310518250756,4,1,0,85,0,0
98408,-93.3573406129601,4,1,0,85,0,0
98515,-92.0229007633588,4,1,0,85,0,0
98622,-90.7260719863027,4,1,0,85,0,0
98729,-89.4652862814947,4,1,0,85,0,0
98944,-87.0349981047958,4,1,0,85,0,0
99051,-85.8740561333523,4,1,0,85,0,0
99158,-84.7436776155076,4,1,0,85,0,0
99372,-82.5699070189558,4,1,0,85,0,0
99587,-82.5699070189558,4,1,0,95,0,0
99639,-74.0740740740741,4,1,0,95,0,1
100658,-64.5161290322581,4,1,0,95,0,1
101087,-95.2380952380952,4,1,0,95,0,1
101195,-94.2331647981241,4,1,0,95,0,1
101301,-93.2672549256618,4,1,0,95,0,1
101302,-93.2582368440136,4,1,0,95,0,1
101516,-91.3676731793961,4,1,0,95,0,1
101623,-90.4508475371017,4,1,0,95,0,1
101730,-89.5522388059701,4,1,0,95,0,1
101837,-88.6713093842653,4,1,0,95,0,1
101945,-87.7995493957807,4,1,0,95,0,1
102159,-86.1218385159721,4,1,0,95,0,1
102373,-84.5070422535211,4,1,0,95,0,1
102480,-83.7221414465832,4,1,0,95,0,1
102587,-82.9516867703025,4,1,0,95,0,1
102802,-81.445671219574,4,1,0,95,0,1
103016,-74.0740740740741,4,1,0,95,0,1
104087,-64.5161290322581,4,1,0,95,0,1
104515,-95.2380952380952,4,1,0,95,0,1
104622,-93.9614131796542,4,1,0,95,0,1
104729,-92.7185066139201,4,1,0,95,0,1
104943,-90.3287968204263,4,1,0,95,0,1
105051,-89.1689454286054,4,1,0,95,0,1
105158,-88.0488377553416,4,1,0,95,0,1
105265,-86.9565217391304,4,1,0,95,0,1
105372,-85.8909757214842,4,1,0,95,0,1
105479,-84.8512275144247,4,1,0,95,0,1
105587,-83.8269811109869,4,1,0,95,0,1
105801,-81.8687916166357,4,1,0,95,0,1
106015,-80,4,1,0,95,0,1
106444,-80,4,1,0,95,0,1
106445,-74.0740740740741,4,1,0,95,0,1
108158,-95.2380952380952,4,1,0,95,0,1
108265,-94.1189391027401,4,1,0,95,0,1
108372,-93.0257801899593,4,1,0,95,0,1
108586,-90.9139129051079,4,1,0,95,0,1
108694,-89.8841050920342,4,1,0,95,0,1
108801,-88.8865840377535,4,1,0,95,0,1
108908,-87.9109606606144,4,1,0,95,0,1
109015,-86.9565217391304,4,1,0,95,0,1
109229,-85.1084959531258,4,1,0,95,0,1
109336,-84.2136294403773,4,1,0,95,0,1
109443,-83.3373851315214,4,1,0,95,0,1
109658,-81.630709148926,4,1,0,95,0,1
109872,-74.0740740740741,4,1,0,95,0,1
110944,-64.5161290322581,4,1,0,95,0,1
111372,-95.2380952380952,4,1,0,95,0,1
111479,-93.9614131796542,4,1,0,95,0,1
111586,-92.7185066139201,4,1,0,95,0,1
111801,-90.3179190751445,4,1,0,95,0,1
111908,-89.1689454286054,4,1,0,95,0,1
112015,-88.0488377553416,4,1,0,95,0,1
112122,-86.9565217391304,4,1,0,95,0,1
112229,-85.8909757214842,4,1,0,95,0,1
112336,-84.8512275144247,4,1,0,95,0,1
112444,-83.8269811109869,4,1,0,95,0,1
112658,-81.8687916166357,4,1,0,95,0,1
112872,-80,4,1,0,95,0,1
113246,-83.3333333333333,4,1,0,95,0,1
113353,-83.3333333333333,4,1,0,60,0,0
115015,-90.9090909090909,4,1,0,60,0,0
116729,-100,4,1,0,70,0,0
118444,-111.111111111111,4,1,0,70,0,0
120158,-125,4,1,0,80,0,0
125301,-125,4,1,0,80,0,0
125622,-131.140015302219,4,1,0,80,0,0
125943,-137.914386868362,4,1,0,80,0,0
126050,-140.330767971181,4,1,0,80,0,0
126158,-142.857142857143,4,1,0,80,0,0
126479,-150.933427263121,4,1,0,80,0,0
126800,-159.977599402651,4,1,0,80,0,0
127015,-166.666666666667,4,1,0,80,0,0
139015,-166.666666666667,4,1,0,80,0,0
139337,-172.053804456936,4,1,0,80,0,0
139658,-177.782387719116,4,1,0,80,0,0
139980,-183.925313874879,4,1,0,80,0,0
140301,-190.486774838853,4,1,0,80,0,0
140516,-195.149721052032,4,1,0,80,0,0
140729,-200,4,1,0,80,0,0
141158,-123.89270891408,4,1,0,80,0,0
141373,-123.345119644766,4,1,0,80,0,0
141801,-122.269318552331,4,1,0,80,0,0
142016,-121.735954714225,4,1,0,80,0,0
142230,-121.209672531868,4,1,0,80,0,0
142444,-120.687921150558,4,1,0,80,0,0
142872,-119.660165131028,4,1,0,80,0,0
142979,-119.40417870196,4,1,0,80,0,0
143087,-119.146908137734,4,1,0,80,0,0
143301,-118.642727200823,4,1,0,80,0,0
143730,-117.644752063685,4,1,0,80,0,0
143944,-117.153177779947,4,1,0,80,0,0
144158,-116.658889407373,4,1,0,80,0,0
144265,-116.421211944816,4,1,0,80,0,0
144372,-116.184500987568,4,1,0,80,0,0
144586,-115.702798079334,4,1,0,80,0,0
144800,-115.227285821283,4,1,0,80,0,0
145015,-114.753471292507,4,1,0,80,0,0
145443,-113.821755131464,4,1,0,80,0,0
145872,-112.902922303972,4,1,0,80,0,0
146086,-112.450100268006,4,1,0,80,0,0
146515,-111.557340473003,4,1,0,80,0,0
146729,-114.002215811724,4,1,0,80,0,0
146837,-115.277221285595,4,1,0,80,0,0
146943,-116.556655450263,4,1,0,80,0,0
147158,-119.240964521475,4,1,0,80,0,0
147265,-120.62348840878,4,1,0,80,0,0
147372,-122.038447347639,4,1,0,80,0,0
147587,-124.984376952881,4,1,0,80,0,0
147800,-124.213440491413,4,1,0,80,0,0
148015,-123.444850559277,4,1,0,80,0,0
148122,-123.065876862323,4,1,0,80,0,0
148229,-122.689222929983,4,1,0,80,0,0
148443,-121.942789679366,4,1,0,80,0,0
148658,-121.201959121478,4,1,0,80,0,0
148765,-120.836611220287,4,1,0,80,0,0
148872,-120.473459289249,4,1,0,80,0,0
149086,-119.753664615847,4,1,0,80,0,0
149300,-119.042419995437,4,1,0,80,0,0
149729,-117.641752065381,4,1,0,80,0,0
149837,-117.294314428419,4,1,0,80,0,0
149943,-116.955300612106,4,1,0,80,0,0
150158,-116.273661690154,4,1,0,80,0,0
150586,-114.940105341467,4,1,0,80,0,0
150800,-114.284732797227,4,1,0,80,0,0
151015,-113.633781050431,4,1,0,80,0,0
151229,-112.993179299238,4,1,0,80,0,0
151337,-112.672619514819,4,1,0,80,0,0
151443,-112.359759745728,4,1,0,80,0,0
151658,-111.730491764876,4,1,0,80,0,0
151765,-111.419940664266,4,1,0,80,0,0
151872,-111.111111111111,4,1,0,80,0,0
152300,-117.636297109404,4,1,0,80,0,0
152301,-117.633219621221,4,1,0,80,0,0
152515,-121.204775468153,4,1,0,80,0,0
152729,-125,4,1,0,80,0,0
153051,-131.150884707562,4,1,0,80,0,0
153159,-133.35407269145,4,1,0,80,0,0
153587,-142.865078042549,4,1,0,80,0,0
154016,-153.864560899737,4,1,0,80,0,0
154444,-166.666666666667,4,1,0,80,0,0
154872,-161.770761839396,4,1,0,80,0,0
155086,-159.429112554113,4,1,0,80,0,0
155300,-157.154287238299,4,1,0,80,0,0
155729,-152.784079859986,4,1,0,80,0,0
155943,-150.693689661786,4,1,0,80,0,0
156158,-148.650353178608,4,1,0,80,0,0
156372,-146.670815183572,4,1,0,80,0,0
156586,-144.743306312945,4,1,0,80,0,0
156800,-142.865801915384,4,1,0,80,0,0
157015,-141.027942320349,4,1,0,80,0,0
157443,-137.506563211015,4,1,0,80,0,0
157658,-135.803180456326,4,1,0,80,0,0
157872,-134.149117814456,4,1,0,80,0,0
158086,-132.534862798021,4,1,0,80,0,0
158300,-130.958995443938,4,1,0,80,0,0
158515,-129.413056607917,4,1,0,80,0,0
158729,-127.91013187171,4,1,0,80,0,0
158943,-126.441714500295,4,1,0,80,0,0
159158,-125,4,1,0,80,0,0
159372,-123.597273203985,4,1,0,80,0,0
159586,-122.225679319643,4,1,0,80,0,0
159800,-120.88419325059,4,1,0,80,0,0
159908,-120.218300520249,4,1,0,80,0,0
160015,-119.565768782022,4,1,0,80,0,0
160229,-118.281728308325,4,1,0,80,0,0
160443,-117.024973933767,4,1,0,80,0,0
160872,-114.584346135148,4,1,0,80,0,0
161300,-112.248785598628,4,1,0,80,0,0
161515,-111.111111111111,4,1,0,80,0,0
161729,-110.001400102674,4,1,0,80,0,0
161943,-108.913636153597,4,1,0,80,0,0
162158,-107.84224011713,4,1,0,80,0,0
162586,-105.770956740262,4,1,0,80,0,0
162800,-104.764867988266,4,1,0,80,0,0
163015,-103.773169550478,4,1,0,80,0,0
163229,-102.804553583112,4,1,0,80,0,0
163443,-101.853852469643,4,1,0,80,0,0
163658,-100.916252783011,4,1,0,80,0,0
163872,-100.623867981485,4,1,0,80,0,0
164301,-104.006877070584,4,1,0,80,0,0
164515,-105.780927698736,4,1,0,80,0,0
164729,-107.616548680379,4,1,0,80,0,0
165158,-111.495149960977,4,1,0,80,0,0
165372,-113.536359180306,4,1,0,80,0,0
165587,-115.663781038209,4,1,0,80,0,0
166015,-120.145359067859,4,1,0,80,0,0
166229,-122.51895542587,4,1,0,80,0,0
166444,-125,4,1,0,80,0,0
167515,-111.111111111111,4,1,0,85,0,0
167729,-104.485929228197,4,1,0,85,0,0
167836,-101.461038961039,4,1,0,85,0,0
167943,-98.6063633973179,4,1,0,85,0,0
168158,-93.3300149328024,4,1,0,95,0,0
168479,-86.4254436506107,4,1,0,95,0,0
168639,-83.3333333333333,4,1,0,95,0,1
169229,-62.5,4,1,0,95,0,1
169658,-90.9090909090909,4,1,0,95,0,1
169766,-89.9925317401046,4,1,0,95,0,1
169872,-89.1107413569976,4,1,0,95,0,1
170087,-87.3742409136228,4,1,0,95,0,1
170194,-86.5350089766607,4,1,0,95,0,1
170301,-85.7117453543167,4,1,0,95,0,1
170408,-84.903998590805,4,1,0,95,0,1
170516,-84.1039958122492,4,1,0,95,0,1
170730,-82.5625214114423,4,1,0,95,0,1
170944,-81.0765349032801,4,1,0,95,0,1
171051,-80.3534216887555,4,1,0,95,0,1
171158,-79.6430931923331,4,1,0,95,0,1
171373,-78.2531049598182,4,1,0,95,0,1
171586,-71.4285714285714,4,1,0,95,0,1
172658,-62.5,4,1,0,95,0,1
173087,-90.9008271975275,4,1,0,95,0,1
173194,-89.7376448163678,4,1,0,95,0,1
173301,-88.6038548820074,4,1,0,95,0,1
173515,-86.4201058796092,4,1,0,95,0,1
173622,-85.3681058496218,4,1,0,95,0,1
173730,-84.3319311556842,4,1,0,95,0,1
173837,-83.329861255781,4,1,0,95,0,1
173944,-82.3513257986994,4,1,0,95,0,1
174051,-81.3955053184908,4,1,0,95,0,1
174159,-80.4529911027574,4,1,0,95,0,1
174373,-78.6484463733471,4,1,0,95,0,1
174587,-76.9230769230769,4,1,0,95,0,1
175015,-71.4285714285714,4,1,0,95,0,1
176729,-90.9090909090909,4,1,0,95,0,1
176836,-89.8793917147352,4,1,0,95,0,1
176943,-88.8819746940469,4,1,0,95,0,1
177157,-86.9521103896104,4,1,0,95,0,1
177265,-86.0096346848655,4,1,0,95,0,1
177372,-85.0958196802701,4,1,0,95,0,1
177479,-84.2012183140106,4,1,0,95,0,1
177586,-83.3252309188138,4,1,0,95,0,1
177800,-81.6268216020573,4,1,0,95,0,1
177907,-80.8033188761079,4,1,0,95,0,1
178014,-79.9962662186129,4,1,0,95,0,1
178229,-78.4224011713031,4,1,0,95,0,1
178444,-71.4285714285714,4,1,0,95,0,1
179515,-62.5,4,1,0,95,0,1
179944,-90.9008271975275,4,1,0,95,0,1
180051,-89.7376448163678,4,1,0,95,0,1
180158,-88.6038548820074,4,1,0,95,0,1
180373,-86.4101540917714,4,1,0,95,0,1
180479,-85.3681058496218,4,1,0,95,0,1
180587,-84.3319311556842,4,1,0,95,0,1
180694,-83.329861255781,4,1,0,95,0,1
180801,-82.3513257986994,4,1,0,95,0,1
180908,-81.3955053184908,4,1,0,95,0,1
181016,-80.4529911027574,4,1,0,95,0,1
181230,-78.6484463733471,4,1,0,95,0,1
181444,-76.9230769230769,4,1,0,95,0,1
181871,-76.9230769230769,4,1,0,95,0,1
181872,-76.9230769230769,4,1,0,95,0,1
181979,-76.2951094834821,4,1,0,95,0,1
182086,-75.6773119418798,4,1,0,95,0,1
182192,-75.0750750750751,4,1,0,95,0,1
182300,-74.471254095919,4,1,0,95,0,1
182515,-73.2976618045884,4,1,0,95,0,1
182622,-72.7272727272727,4,1,0,95,0,1
182729,-72.1656924298189,4,1,0,95,0,1
182835,-71.6178471675141,4,1,0,95,0,1
182943,-71.0681543600313,4,1,0,95,0,1
183157,-70.0035001750088,4,1,0,95,0,1
183587,-69.7699652777778,4,1,0,95,0,1
183694,-70.1773533424284,4,1,0,95,0,1
183801,-70.5895268415853,4,1,0,95,0,1
183908,-71.0065705924576,4,1,0,95,0,1
184016,-71.4325390212742,4,1,0,95,0,1
184230,-72.2918657597392,4,1,0,95,0,1
184337,-72.7293292613958,4,1,0,95,0,1
184443,-73.167956304051,4,1,0,95,0,1
184550,-73.6161199839716,4,1,0,95,0,1
184658,-74.0740740740741,4,1,0,95,0,1
184873,-75.0029161320425,4,1,0,95,0,1
185087,-75.9508622726199,4,1,0,95,0,1
185300,-76.9184759854058,4,1,0,95,0,1
185729,-90.9090909090909,4,1,0,95,0,1
186158,-76.9230769230769,4,1,0,95,0,1
186587,-90.9090909090909,4,1,0,95,0,1
186801,-88.8911938595581,4,1,0,95,0,1
186908,-87.9154698399672,4,1,0,95,0,1
187016,-86.9521103896104,4,1,0,95,0,1
187230,-85.1042701092354,4,1,0,95,0,1
187337,-84.2094919917461,4,1,0,95,0,1
187444,-83.3333333333333,4,1,0,95,0,1
187551,-82.4752189394668,4,1,0,95,0,1
187658,-81.6345970661078,4,1,0,95,0,1
187766,-80.8033188761079,4,1,0,95,0,1
187873,-79.9962662186129,4,1,0,95,0,1
188087,-78.4295781092706,4,1,0,95,0,1
188301,-76.9230769230769,4,1,0,95,0,1
188729,-76.9230769230769,4,1,0,95,0,1
188836,-76.2951094834821,4,1,0,95,0,1
188943,-75.6773119418798,4,1,0,95,0,1
189049,-75.0750750750751,4,1,0,95,0,1
189157,-74.471254095919,4,1,0,95,0,1
189372,-73.2976618045884,4,1,0,95,0,1
189479,-72.7272727272727,4,1,0,95,0,1
189585,-72.1709006928406,4,1,0,95,0,1
189692,-71.6178471675141,4,1,0,95,0,1
189799,-71.0732054015636,4,1,0,95,0,1
190015,-69.9986000279994,4,1,0,95,0,1
190443,-69.7661802202572,4,1,0,95,0,1
190551,-70.1773533424284,4,1,0,95,0,1
190658,-70.5895268415853,4,1,0,95,0,1
190765,-71.0065705924576,4,1,0,95,0,1
190873,-71.4325390212742,4,1,0,95,0,1
191087,-72.2918657597392,4,1,0,95,0,1
191194,-72.7293292613958,4,1,0,95,0,1
191301,-73.172119487909,4,1,0,95,0,1
191408,-73.620334325624,4,1,0,95,0,1
191516,-74.0783410138249,4,1,0,95,0,1
191729,-74.9985420190121,4,1,0,95,0,1
191944,-75.9508622726199,4,1,0,95,0,1
192158,-76.9230769230769,4,1,0,95,0,1
192587,-90.9090909090909,4,1,0,95,0,1
193015,-76.9230769230769,4,1,0,95,0,1
193444,-90.9090909090909,4,1,0,95,0,1
193658,-88.8911938595581,4,1,0,95,0,1
193766,-87.9064519437891,4,1,0,95,0,1
193872,-86.960933536276,4,1,0,95,0,1
194087,-85.1042701092354,4,1,0,95,0,1
194194,-84.2094919917461,4,1,0,95,0,1
194301,-83.3333333333333,4,1,0,95,0,1
194408,-82.4752189394668,4,1,0,95,0,1
194516,-81.6268216020573,4,1,0,95,0,1
194623,-80.8033188761079,4,1,0,95,0,1
194730,-79.9962662186129,4,1,0,95,0,1
194944,-78.4295781092706,4,1,0,95,0,1
195158,-76.9230769230769,4,1,0,95,0,1
195587,-142.857142857143,4,1,0,80,0,1
195639,-142.857142857143,4,1,0,80,0,0
196015,-140.952736086511,4,1,0,80,0,0
196336,-139.560642422005,4,1,0,80,0,0
196658,-138.191567145991,4,1,0,80,0,0
197301,-135.538086202223,4,1,0,80,0,0
197622,-134.398010079416,4,1,0,80,0,0
197944,-133.273490266178,4,1,0,80,0,0
198586,-131.086675592485,4,1,0,80,0,0
198801,-130.370284375742,4,1,0,80,0,0
199015,-129.664958782839,4,1,0,80,0,0
199443,-128.27695810516,4,1,0,80,0,0
199765,-127.252145946377,4,1,0,80,0,0
200087,-125.124131082423,4,1,0,80,0,0
200515,-123.660750797416,4,1,0,80,0,0
200729,-122.943488277544,4,1,0,80,0,0
201051,-121.883061049011,4,1,0,80,0,0
201372,-120.837551281368,4,1,0,80,0,0
202015,-118.802545768838,4,1,0,80,0,0
202229,-118.140382862352,4,1,0,80,0,0
202444,-117.647058823529,4,1,0,80,0,0
202872,-140.971608313974,4,1,0,80,0,0
203193,-139.589801007685,4,1,0,80,0,0
203515,-138.230639747609,4,1,0,80,0,0
204158,-135.594225825588,4,1,0,80,0,0
204479,-134.315348226791,4,1,0,80,0,0
204801,-133.056496133658,4,1,0,80,0,0
205444,-130.612011657365,4,1,0,80,0,0
205658,-129.818250662628,4,1,0,80,0,0
205872,-129.034079147927,4,1,0,80,0,0
206301,-127.490262064349,4,1,0,80,0,0
206622,-126.359046179928,4,1,0,80,0,0
206944,-125.244296699483,4,1,0,80,0,0
207372,-123.792673900092,4,1,0,80,0,0
207587,-123.076923076923,4,1,0,70,0,0
207908,-129.415873075798,4,1,0,70,0,0
208229,-136.443241522051,4,1,0,70,0,0
208872,-153.095517222129,4,1,0,60,0,0
209086,-159.577315628382,4,1,0,60,0,0
209301,-166.666666666667,4,1,0,60,0,0

[HitObjects]
256,192,212,5,0,0:0:0:0:
256,192,640,1,0,0:0:0:0:
256,192,962,1,8,0:0:0:0:
256,192,1283,1,0,0:0:0:0:
256,192,1926,1,8,0:0:0:0:
256,192,2247,1,8,0:0:0:0:
256,192,2569,1,0,0:0:0:0:
256,192,3212,1,8,0:0:0:0:
237,184,3426,1,8,0:0:0:0:
256,192,3640,5,0,0:0:0:0:
256,192,4069,1,0,0:0:0:0:
256,192,4390,1,8,0:0:0:0:
256,192,4712,1,0,0:0:0:0:
256,192,5140,1,8,0:0:0:0:
256,192,5354,1,8,0:0:0:0:
256,192,5676,1,0,0:0:0:0:
256,192,5997,1,8,0:0:0:0:
256,192,6640,1,8,0:0:0:0:
256,192,6854,1,8,0:0:0:0:
256,192,7069,5,0,0:0:0:0:
256,192,7497,1,8,0:0:0:0:
256,192,7819,1,0,0:0:0:0:
256,192,8140,1,0,0:0:0:0:
256,192,8783,1,8,0:0:0:0:
256,192,9104,1,8,0:0:0:0:
256,192,9426,1,0,0:0:0:0:
256,192,10069,1,8,0:0:0:0:
256,192,10283,1,8,0:0:0:0:
256,192,10497,5,8,0:0:0:0:
256,192,10926,1,0,0:0:0:0:
256,192,11247,1,8,0:0:0:0:
256,192,11569,1,0,0:0:0:0:
160,192,11997,1,8,0:0:0:0:
256,192,12212,1,8,0:0:0:0:
256,192,12533,1,0,0:0:0:0:
256,192,12854,1,0,0:0:0:0:
256,192,13712,5,8,0:0:0:0:
256,192,13926,1,0,0:0:0:0:
256,192,14569,1,0,0:0:0:0:
256,192,14783,1,8,0:0:0:0:
256,192,15104,1,0,0:0:0:0:
256,192,15426,1,0,0:0:0:0:
256,192,15640,1,8,0:0:0:0:
256,192,15962,1,8,0:0:0:0:
256,192,16283,1,0,0:0:0:0:
256,192,16497,1,8,0:0:0:0:
256,192,16926,1,0,0:0:0:0:
256,192,17354,1,0,0:0:0:0:
256,192,17997,5,0,0:0:0:0:
256,192,18212,1,8,0:0:0:0:
256,192,18533,1,0,0:0:0:0:
256,192,18854,1,8,0:0:0:0:
256,192,19069,1,8,0:0:0:0:
256,192,19390,1,0,0:0:0:0:
256,192,19712,1,8,0:0:0:0:
256,192,19926,1,8,0:0:0:0:
256,192,20354,1,8,0:0:0:0:
256,192,20569,1,0,0:0:0:0:
256,192,20783,1,8,0:0:0:0:
256,192,21426,5,0,0:0:0:0:
256,192,21640,1,8,0:0:0:0:
256,192,21962,1,0,0:0:0:0:
256,192,22283,1,8,0:0:0:0:
256,160,22497,1,8,0:0:0:0:
256,160,22819,1,8,0:0:0:0:
256,160,23140,1,0,0:0:0:0:
256,160,23354,1,8,0:0:0:0:
256,160,23783,1,8,0:0:0:0:
224,160,24212,1,8,0:0:0:0:
256,160,24854,5,0,0:0:0:0:
256,160,25069,1,8,0:0:0:0:
256,160,25390,1,8,0:0:0:0:
224,160,25712,1,0,0:0:0:0:
256,160,25926,1,8,0:0:0:0:
256,160,26354,1,8,0:0:0:0:
256,160,26783,1,8,0:0:0:0:
256,160,27212,5,8,0:0:0:0:
247,170,27426,1,8,0:0:0:0:
256,160,27640,1,0,0:0:0:0:
256,160,28069,5,8,0:0:0:0:
256,160,28283,1,0,0:0:0:0:
256,160,28497,1,0,0:0:0:0:
256,160,28604,1,0,0:0:0:0:
256,160,28819,1,0,0:0:0:0:
256,160,28926,1,8,0:0:0:0:
256,160,29140,1,0,0:0:0:0:
256,160,29354,1,8,0:0:0:0:
256,160,29462,1,8,0:0:0:0:
256,160,29569,1,0,0:0:0:0:
256,160,29783,1,8,0:0:0:0:
256,160,30212,5,0,0:0:0:0:
256,160,30426,1,0,0:0:0:0:
256,160,30640,1,8,0:0:0:0:
256,160,30747,1,0,0:0:0:0:
256,160,30854,1,8,0:0:0:0:
256,192,31069,1,0,0:0:0:0:
256,192,31497,1,8,0:0:0:0:
256,160,31712,1,8,0:0:0:0:
256,160,31926,1,0,0:0:0:0:
256,160,32033,1,8,0:0:0:0:
256,192,32247,1,8,0:0:0:0:
256,160,32354,1,0,0:0:0:0:
256,192,32569,1,0,0:0:0:0:
256,192,32783,1,8,0:0:0:0:
256,192,32890,1,8,0:0:0:0:
256,192,32997,1,0,0:0:0:0:
256,192,33212,1,8,0:0:0:0:
256,192,33640,5,0,0:0:0:0:
256,192,33854,1,8,0:0:0:0:
256,192,34069,1,0,0:0:0:0:
256,192,34176,1,0,0:0:0:0:
256,192,34283,1,8,0:0:0:0:
256,192,34497,1,0,0:0:0:0:
256,192,34926,1,0,0:0:0:0:
258,206,35140,1,0,0:0:0:0:
256,192,35354,1,8,0:0:0:0:
256,192,35462,1,0,0:0:0:0:
256,192,35569,1,8,0:0:0:0:
256,192,35783,1,0,0:0:0:0:
256,192,35890,1,8,0:0:0:0:
256,192,35997,1,0,0:0:0:0:
256,192,36212,1,8,0:0:0:0:
256,192,36640,5,8,0:0:0:0:
224,192,36747,1,0,0:0:0:0:
256,192,36854,1,8,0:0:0:0:
256,192,37069,1,0,0:0:0:0:
256,192,37497,5,0,0:0:0:0:
224,192,37604,1,8,0:0:0:0:
256,192,37712,1,0,0:0:0:0:
256,192,37926,1,12,0:0:0:0:
256,192,38354,5,8,0:0:0:0:
256,192,38569,1,4,0:0:0:0:
256,192,38997,5,0,0:0:0:0:
256,192,39212,1,0,0:0:0:0:
256,192,39426,1,8,0:0:0:0:
256,192,39533,1,8,0:0:0:0:
256,192,39640,1,8,0:0:0:0:
288,192,39854,1,0,0:0:0:0:
288,192,40069,1,8,0:0:0:0:
320,192,40176,1,0,0:0:0:0:
320,192,40283,1,8,0:0:0:0:
320,192,40390,1,8,0:0:0:0:
320,192,40497,1,0,0:0:0:0:
320,192,40712,1,8,0:0:0:0:
320,192,40819,1,0,0:0:0:0:
320,192,40926,1,8,0:0:0:0:
320,192,41140,1,0,0:0:0:0:
320,192,41354,5,12,0:0:0:0:
320,192,41676,5,12,0:0:0:0:
320,192,41997,5,4,0:0:0:0:
320,192,42426,5,12,0:0:0:0:
320,192,42854,5,0,0:0:0:0:
288,160,42962,1,8,0:0:0:0:
288,160,43069,1,0,0:0:0:0:
288,160,43283,1,8,0:0:0:0:
288,160,43390,1,8,0:0:0:0:
320,192,43497,1,0,0:0:0:0:
288,160,43604,1,0,0:0:0:0:
288,160,43712,1,8,0:0:0:0:
320,192,43926,1,0,0:0:0:0:
288,160,44140,1,8,0:0:0:0:
320,160,44247,1,8,0:0:0:0:
288,160,44354,1,8,0:0:0:0:
288,160,44569,1,0,0:0:0:0:
288,160,44783,5,12,0:0:0:0:
288,160,45104,5,12,0:0:0:0:
288,160,45426,5,4,0:0:0:0:
288,160,45854,5,12,0:0:0:0:
288,160,46283,5,0,0:0:0:0:
64,64,46390,1,0,0:0:0:0:
448,64,46497,1,8,0:0:0:0:
64,64,46712,1,0,0:0:0:0:
286,155,46819,1,0,0:0:0:0:
286,155,46926,1,0,0:0:0:0:
288,160,47033,1,0,0:0:0:0:
290,145,47140,1,8,0:0:0:0:
288,160,47247,1,8,0:0:0:0:
290,145,47354,1,0,0:0:0:0:
448,64,47569,1,0,0:0:0:0:
64,320,47783,5,12,0:0:0:0:
298,144,48212,5,12,0:0:0:0:
300,146,48426,1,0,0:0:0:0:
311,126,48640,1,12,0:0:0:0:
298,144,49069,5,12,0:0:0:0:
300,146,49283,1,0,0:0:0:0:
301,144,49497,1,12,0:0:0:0:
298,144,49926,5,0,0:0:0:0:
288,128,50033,1,0,0:0:0:0:
279,123,50140,1,8,0:0:0:0:
301,144,50354,1,0,0:0:0:0:
301,144,50462,1,8,0:0:0:0:
301,137,50569,1,0,0:0:0:0:
280,143,50676,1,0,0:0:0:0:
279,115,50783,1,8,0:0:0:0:
286,147,50997,1,8,0:0:0:0:
295,146,51104,1,0,0:0:0:0:
286,147,51212,1,8,0:0:0:0:
286,147,51426,1,0,0:0:0:0:
288,133,51640,5,12,0:0:0:0:
288,132,51962,5,12,0:0:0:0:
288,132,52283,5,4,0:0:0:0:
312,137,52712,5,12,0:0:0:0:
276,122,53140,5,0,0:0:0:0:
279,122,53247,1,0,0:0:0:0:
279,122,53354,1,8,0:0:0:0:
276,122,53569,1,0,0:0:0:0:
276,122,53676,1,0,0:0:0:0:
270,113,53783,1,8,0:0:0:0:
270,113,53890,1,0,0:0:0:0:
270,114,53997,1,8,0:0:0:0:
270,113,54104,1,8,0:0:0:0:
270,113,54212,1,0,0:0:0:0:
270,114,54426,1,0,0:0:0:0:
270,113,54640,5,12,0:0:0:0:
253,121,55069,5,0,0:0:0:0:
256,128,55176,1,8,0:0:0:0:
253,120,55283,1,0,0:0:0:0:
237,115,55497,1,8,0:0:0:0:
253,121,55712,1,8,0:0:0:0:
237,115,55819,1,0,0:0:0:0:
284,128,55926,1,8,0:0:0:0:
237,115,56140,1,0,0:0:0:0:
267,114,56354,1,8,0:0:0:0:
273,113,56783,5,8,0:0:0:0:
270,97,56890,1,0,0:0:0:0:
266,114,56997,1,8,0:0:0:0:
275,110,57212,1,0,0:0:0:0:
273,113,57426,1,0,0:0:0:0:
275,106,57533,1,8,0:0:0:0:
270,97,57640,1,0,0:0:0:0:
262,109,57854,1,8,0:0:0:0:
262,109,58069,1,0,0:0:0:0:
256,192,58283,1,0,0:0:0:0:
262,109,58497,5,12,0:0:0:0:
256,192,58926,5,0,0:0:0:0:
256,192,59354,5,12,0:0:0:0:
256,192,59783,5,0,0:0:0:0:
256,192,59997,5,0,0:0:0:0:
256,192,60104,1,0,0:0:0:0:
256,192,60212,1,8,0:0:0:0:
256,192,60426,1,0,0:0:0:0:
256,192,60533,1,0,0:0:0:0:
256,192,60640,1,8,0:0:0:0:
256,192,60747,1,0,0:0:0:0:
256,160,60854,1,8,0:0:0:0:
256,192,60962,1,8,0:0:0:0:
256,160,61069,1,0,0:0:0:0:
256,192,61283,1,0,0:0:0:0:
256,192,61497,5,12,0:0:0:0:
256,160,61926,5,0,0:0:0:0:
256,160,62033,1,0,0:0:0:0:
256,160,62140,1,8,0:0:0:0:
256,160,62354,1,0,0:0:0:0:
256,160,62569,1,8,0:0:0:0:
256,160,62676,1,8,0:0:0:0:
256,160,62783,1,0,0:0:0:0:
256,160,62997,1,0,0:0:0:0:
256,160,63212,1,8,0:0:0:0:
256,160,63640,5,8,0:0:0:0:
256,160,63747,1,8,0:0:0:0:
256,160,63854,1,0,0:0:0:0:
256,160,64069,1,8,0:0:0:0:
256,160,64283,1,0,0:0:0:0:
256,160,64390,1,0,0:0:0:0:
256,160,64497,1,8,0:0:0:0:
256,160,64712,1,0,0:0:0:0:
256,160,64926,1,8,0:0:0:0:
256,160,65140,1,8,0:0:0:0:
256,160,65354,5,4,0:0:0:0:
256,160,65783,5,8,0:0:0:0:
256,160,66212,5,4,0:0:0:0:
256,160,66640,5,8,0:0:0:0:
256,160,66854,5,0,0:0:0:0:
256,160,66962,1,0,0:0:0:0:
256,160,67069,1,8,0:0:0:0:
256,160,67283,1,0,0:0:0:0:
256,160,67390,1,0,0:0:0:0:
256,160,67497,1,8,0:0:0:0:
256,160,67604,1,0,0:0:0:0:
256,160,67712,1,8,0:0:0:0:
256,160,67819,1,8,0:0:0:0:
256,160,67926,1,0,0:0:0:0:
256,160,68140,1,0,0:0:0:0:
256,160,68354,5,12,0:0:0:0:
256,192,70497,5,0,0:0:0:0:
256,192,70925,1,0,0:0:0:0:
256,192,71139,1,0,0:0:0:0:
256,192,71354,1,8,0:0:0:0:
256,192,71568,1,8,0:0:0:0:
256,192,71997,1,0,0:0:0:0:
224,192,72211,1,8,0:0:0:0:
224,192,72532,1,0,0:0:0:0:
256,224,72854,1,8,0:0:0:0:
256,224,73068,1,8,0:0:0:0:
224,160,73497,1,8,0:0:0:0:
256,192,73711,1,8,0:0:0:0:
256,192,73925,5,0,0:0:0:0:
256,192,74354,1,8,0:0:0:0:
256,192,74568,1,0,0:0:0:0:
256,192,74675,1,0,0:0:0:0:
256,192,74782,1,8,0:0:0:0:
256,192,74997,1,0,0:0:0:0:
256,192,75425,1,0,0:0:0:0:
256,192,75639,1,8,0:0:0:0:
256,192,75854,1,0,0:0:0:0:
256,192,75961,1,8,0:0:0:0:
256,192,76282,1,0,0:0:0:0:
256,192,76497,1,8,0:0:0:0:
256,192,76925,1,8,0:0:0:0:
256,192,77139,1,8,0:0:0:0:
256,192,77354,5,0,0:0:0:0:
256,192,77782,1,8,0:0:0:0:
256,192,77997,1,0,0:0:0:0:
256,192,78104,1,8,0:0:0:0:
256,192,78211,1,0,0:0:0:0:
256,192,78425,1,8,0:0:0:0:
224,160,78854,1,0,0:0:0:0:
224,224,78961,1,0,0:0:0:0:
224,224,79068,1,8,0:0:0:0:
256,192,79389,1,0,0:0:0:0:
256,192,79711,1,8,0:0:0:0:
256,192,79925,1,8,0:0:0:0:
256,192,80354,1,0,0:0:0:0:
256,192,80568,1,8,0:0:0:0:
256,192,80782,5,0,0:0:0:0:
256,192,81211,1,8,0:0:0:0:
256,160,81425,1,0,0:0:0:0:
256,192,81532,1,0,0:0:0:0:
256,192,81639,1,8,0:0:0:0:
256,192,81854,1,0,0:0:0:0:
288,160,82282,1,0,0:0:0:0:
288,160,82497,1,8,0:0:0:0:
288,192,82711,1,0,0:0:0:0:
288,160,82818,1,8,0:0:0:0:
256,160,83139,1,8,0:0:0:0:
288,160,83354,5,8,0:0:0:0:
288,160,83568,1,0,0:0:0:0:
288,160,83675,1,0,0:0:0:0:
288,160,83782,1,0,0:0:0:0:
288,160,83889,1,0,0:0:0:0:
288,160,83997,1,0,0:0:0:0:
288,160,84211,5,8,0:0:0:0:
288,160,84639,1,0,0:0:0:0:
288,160,85068,1,8,0:0:0:0:
288,160,85175,1,0,0:0:0:0:
288,160,85282,1,0,0:0:0:0:
288,160,85497,1,8,0:0:0:0:
288,160,85604,1,8,0:0:0:0:
288,160,85711,1,0,0:0:0:0:
288,160,85925,5,8,0:0:0:0:
288,160,86353,1,12,0:0:0:0:
288,160,86567,1,0,0:0:0:0:
320,160,86782,1,8,0:0:0:0:
288,160,86996,1,8,0:0:0:0:
288,160,87210,1,0,0:0:0:0:
288,160,87639,1,0,0:0:0:0:
297,154,87853,1,0,0:0:0:0:
288,160,88067,1,8,0:0:0:0:
288,128,88175,1,8,0:0:0:0:
288,160,88282,1,8,0:0:0:0:
288,160,88496,1,8,0:0:0:0:
288,160,88710,1,0,0:0:0:0:
288,128,88925,1,8,0:0:0:0:
288,160,89353,5,0,0:0:0:0:
288,160,89782,1,0,0:0:0:0:
288,160,89996,1,8,0:0:0:0:
288,160,90210,1,0,0:0:0:0:
288,160,90425,1,0,0:0:0:0:
288,160,90639,1,8,0:0:0:0:
288,160,91067,1,8,0:0:0:0:
288,160,91282,1,0,0:0:0:0:
288,160,91496,1,8,0:0:0:0:
288,160,91603,1,8,0:0:0:0:
288,160,91710,1,0,0:0:0:0:
288,192,91925,1,8,0:0:0:0:
288,160,92139,1,0,0:0:0:0:
288,160,92353,1,8,0:0:0:0:
288,160,92782,5,0,0:0:0:0:
288,160,93210,1,8,0:0:0:0:
288,160,93425,1,0,0:0:0:0:
288,160,93639,1,8,0:0:0:0:
256,160,93746,1,8,0:0:0:0:
288,160,93853,1,0,0:0:0:0:
288,160,94067,1,8,0:0:0:0:
288,160,94282,1,0,0:0:0:0:
256,160,94389,1,0,0:0:0:0:
288,160,94496,1,8,0:0:0:0:
288,160,94925,5,0,0:0:0:0:
256,160,95032,1,8,0:0:0:0:
288,160,95139,1,0,0:0:0:0:
288,160,95353,1,8,0:0:0:0:
288,160,95782,5,0,0:0:0:0:
256,160,95889,1,8,0:0:0:0:
288,160,95996,1,0,0:0:0:0:
256,160,96210,1,12,0:0:0:0:
288,160,96639,5,8,0:0:0:0:
288,160,96853,1,4,0:0:0:0:
256,192,97282,5,8,0:0:0:0:
256,192,97496,1,8,0:0:0:0:
256,192,97710,1,0,0:0:0:0:
256,192,97817,1,0,0:0:0:0:
256,192,97925,1,8,0:0:0:0:
288,192,98139,1,0,0:0:0:0:
288,192,98353,1,8,0:0:0:0:
320,192,98460,1,0,0:0:0:0:
320,192,98567,1,8,0:0:0:0:
320,192,98675,1,8,0:0:0:0:
320,192,98782,1,0,0:0:0:0:
320,192,98996,1,8,0:0:0:0:
320,192,99103,1,0,0:0:0:0:
320,192,99210,1,8,0:0:0:0:
320,192,99425,1,0,0:0:0:0:
320,192,99639,5,12,0:0:0:0:
320,192,99960,5,12,0:0:0:0:
320,192,100282,5,4,0:0:0:0:
320,192,100710,5,12,0:0:0:0:
320,192,101139,5,0,0:0:0:0:
288,160,101246,1,0,0:0:0:0:
288,160,101353,1,8,0:0:0:0:
288,160,101567,1,0,0:0:0:0:
288,160,101675,1,8,0:0:0:0:
320,192,101782,1,0,0:0:0:0:
288,160,101889,1,0,0:0:0:0:
288,160,101996,1,8,0:0:0:0:
320,192,102210,1,0,0:0:0:0:
288,160,102425,1,8,0:0:0:0:
320,160,102532,1,0,0:0:0:0:
288,160,102639,1,8,0:0:0:0:
288,160,102853,1,0,0:0:0:0:
288,160,103067,5,12,0:0:0:0:
288,160,103389,5,12,0:0:0:0:
288,160,103710,5,4,0:0:0:0:
288,160,104139,5,12,0:0:0:0:
288,160,104567,5,0,0:0:0:0:
286,155,104675,1,0,0:0:0:0:
288,160,104782,1,8,0:0:0:0:
288,160,104996,1,0,0:0:0:0:
286,155,105103,1,0,0:0:0:0:
286,155,105210,1,0,0:0:0:0:
288,160,105317,1,0,0:0:0:0:
290,145,105425,1,8,0:0:0:0:
288,160,105532,1,8,0:0:0:0:
290,145,105639,1,0,0:0:0:0:
303,155,105853,1,0,0:0:0:0:
303,154,106067,5,12,0:0:0:0:
298,144,106496,5,12,0:0:0:0:
300,146,106710,1,0,0:0:0:0:
311,126,106925,1,12,0:0:0:0:
298,144,107353,5,12,0:0:0:0:
300,146,107567,1,0,0:0:0:0:
301,144,107782,1,12,0:0:0:0:
298,144,108210,5,0,0:0:0:0:
288,128,108317,1,0,0:0:0:0:
279,123,108425,1,8,0:0:0:0:
301,144,108639,1,0,0:0:0:0:
301,144,108746,1,8,0:0:0:0:
301,137,108853,1,0,0:0:0:0:
280,143,108960,1,0,0:0:0:0:
279,115,109067,1,8,0:0:0:0:
286,147,109282,1,0,0:0:0:0:
295,146,109389,1,8,0:0:0:0:
286,147,109496,1,8,0:0:0:0:
286,147,109710,1,0,0:0:0:0:
288,133,109925,5,12,0:0:0:0:
288,132,110246,5,12,0:0:0:0:
288,132,110567,5,4,0:0:0:0:
312,137,110996,5,12,0:0:0:0:
276,122,111425,5,0,0:0:0:0:
279,122,111532,1,0,0:0:0:0:
279,122,111639,1,8,0:0:0:0:
276,122,111853,1,0,0:0:0:0:
276,122,111960,1,0,0:0:0:0:
270,113,112067,1,8,0:0:0:0:
270,113,112175,1,0,0:0:0:0:
270,114,112282,1,8,0:0:0:0:
270,113,112389,1,8,0:0:0:0:
270,113,112496,1,0,0:0:0:0:
270,114,112710,1,0,0:0:0:0:
270,113,112925,5,12,0:0:0:0:
256,192,120210,5,0,0:0:0:0:
256,192,120639,1,8,0:0:0:0:
256,192,120960,1,8,0:0:0:0:
256,192,121282,1,0,0:0:0:0:
224,192,121925,1,8,0:0:0:0:
224,192,122246,1,0,0:0:0:0:
224,192,122567,1,8,0:0:0:0:
256,224,123210,1,8,0:0:0:0:
224,192,123639,5,0,0:0:0:0:
224,192,124067,1,0,0:0:0:0:
224,192,124389,1,8,0:0:0:0:
224,192,124710,1,0,0:0:0:0:
192,192,125353,1,0,0:0:0:0:
224,192,125782,1,0,0:0:0:0:
224,160,125996,1,8,0:0:0:0:
192,160,126103,1,8,0:0:0:0:
192,160,126210,1,8,0:0:0:0:
224,160,126532,1,0,0:0:0:0:
192,160,126853,1,0,0:0:0:0:
224,160,127067,5,0,0:0:0:0:
224,160,127282,1,8,0:0:0:0:
224,160,127496,1,8,0:0:0:0:
224,160,127710,1,0,0:0:0:0:
224,160,127817,1,0,0:0:0:0:
224,160,127925,1,8,0:0:0:0:
242,180,128353,1,8,0:0:0:0:
224,160,128567,1,0,0:0:0:0:
192,128,128675,1,8,0:0:0:0:
224,160,128889,1,8,0:0:0:0:
217,154,128996,1,0,0:0:0:0:
224,160,129210,1,8,0:0:0:0:
255,154,129317,1,8,0:0:0:0:
224,160,129425,1,0,0:0:0:0:
224,160,129639,1,8,0:0:0:0:
224,160,130067,1,8,0:0:0:0:
224,160,130496,5,0,0:0:0:0:
224,160,130710,1,8,0:0:0:0:
224,160,130925,1,8,0:0:0:0:
224,160,131139,1,8,0:0:0:0:
224,160,131246,1,0,0:0:0:0:
224,160,131353,1,8,0:0:0:0:
224,160,131782,1,0,0:0:0:0:
224,160,131996,1,8,0:0:0:0:
224,160,132103,1,8,0:0:0:0:
215,171,132317,1,0,0:0:0:0:
192,160,132425,1,8,0:0:0:0:
192,160,132639,1,8,0:0:0:0:
224,160,132853,1,0,0:0:0:0:
224,160,132960,1,0,0:0:0:0:
224,160,133067,1,8,0:0:0:0:
224,160,133496,1,0,0:0:0:0:
224,160,133925,5,0,0:0:0:0:
224,160,134139,1,8,0:0:0:0:
224,160,134353,1,8,0:0:0:0:
224,160,134567,1,8,0:0:0:0:
224,160,134675,1,0,0:0:0:0:
224,160,134782,1,8,0:0:0:0:
197,139,135210,1,8,0:0:0:0:
182,170,135425,1,0,0:0:0:0:
192,128,135532,1,8,0:0:0:0:
185,165,135746,1,8,0:0:0:0:
185,165,135853,1,0,0:0:0:0:
224,160,136067,1,8,0:0:0:0:
190,165,136175,1,8,0:0:0:0:
224,160,136282,1,0,0:0:0:0:
224,160,136496,1,8,0:0:0:0:
224,160,136925,1,0,0:0:0:0:
224,160,137353,5,0,0:0:0:0:
224,160,137567,1,8,0:0:0:0:
224,160,137782,1,8,0:0:0:0:
224,160,137996,1,0,0:0:0:0:
224,160,138103,1,0,0:0:0:0:
224,160,138210,1,8,0:0:0:0:
224,160,138639,1,0,0:0:0:0:
224,160,138853,1,8,0:0:0:0:
224,160,138960,1,8,0:0:0:0:
192,160,139067,5,0,0:0:0:0:
192,160,139389,5,8,0:0:0:0:
224,160,139710,5,0,0:0:0:0:
224,160,140032,5,8,0:0:0:0:
224,160,140353,5,8,0:0:0:0:
224,160,140567,5,8,0:0:0:0:
216,186,140782,5,0,0:0:0:0:
224,160,141210,5,12,0:0:0:0:
224,160,141425,1,0,0:0:0:0:
224,160,141853,1,0,0:0:0:0:
224,160,142067,1,8,0:0:0:0:
224,160,142282,1,8,0:0:0:0:
224,160,142496,1,0,0:0:0:0:
224,160,142925,1,8,0:0:0:0:
64,64,143032,1,0,0:0:0:0:
192,160,143139,1,8,0:0:0:0:
224,160,143353,1,0,0:0:0:0:
224,160,143782,1,8,0:0:0:0:
224,160,143996,1,8,0:0:0:0:
224,160,144210,1,0,0:0:0:0:
64,64,144317,1,0,0:0:0:0:
224,160,144425,1,0,0:0:0:0:
192,160,144639,1,8,0:0:0:0:
192,160,144853,1,8,0:0:0:0:
192,160,145067,1,0,0:0:0:0:
224,160,145496,1,8,0:0:0:0:
224,160,145925,1,8,0:0:0:0:
224,160,146139,1,8,0:0:0:0:
224,160,146567,5,0,0:0:0:0:
224,160,146782,1,0,0:0:0:0:
224,160,146889,1,0,0:0:0:0:
224,160,146996,1,0,0:0:0:0:
224,160,147210,1,8,0:0:0:0:
224,160,147317,1,8,0:0:0:0:
224,160,147425,1,8,0:0:0:0:
224,160,147639,5,0,0:0:0:0:
224,160,147853,1,8,0:0:0:0:
224,160,148067,1,0,0:0:0:0:
256,192,148175,1,8,0:0:0:0:
224,160,148282,1,0,0:0:0:0:
224,160,148496,1,8,0:0:0:0:
192,160,148710,1,0,0:0:0:0:
256,192,148817,1,0,0:0:0:0:
192,160,148925,1,0,0:0:0:0:
192,160,149139,1,8,0:0:0:0:
192,160,149353,1,0,0:0:0:0:
192,160,149782,5,8,0:0:0:0:
192,160,149889,1,8,0:0:0:0:
160,160,149996,1,0,0:0:0:0:
192,160,150210,1,8,0:0:0:0:
192,160,150639,1,0,0:0:0:0:
192,128,150853,1,8,0:0:0:0:
192,160,151067,1,0,0:0:0:0:
192,160,151282,1,8,0:0:0:0:
192,128,151389,1,8,0:0:0:0:
192,160,151496,1,0,0:0:0:0:
192,160,151710,1,0,0:0:0:0:
192,128,151817,1,0,0:0:0:0:
192,160,151925,1,8,0:0:0:0:
192,160,152353,1,0,0:0:0:0:
192,160,152567,1,0,0:0:0:0:
192,160,152782,5,8,0:0:0:0:
192,160,153103,5,8,0:0:0:0:
192,160,153210,1,8,0:0:0:0:
192,160,153639,5,8,0:0:0:0:
192,160,154067,5,8,0:0:0:0:
192,160,154496,5,0,0:0:0:0:
192,128,154925,1,8,0:0:0:0:
192,128,155139,1,0,0:0:0:0:
192,128,155353,1,8,0:0:0:0:
192,128,155782,1,0,0:0:0:0:
192,128,155996,1,0,0:0:0:0:
192,128,156210,1,8,0:0:0:0:
192,128,156425,1,8,0:0:0:0:
192,128,156639,1,0,0:0:0:0:
192,128,156853,1,0,0:0:0:0:
192,128,157067,1,8,0:0:0:0:
192,128,157496,1,0,0:0:0:0:
192,128,157710,1,8,0:0:0:0:
192,128,157925,1,0,0:0:0:0:
192,128,158139,1,8,0:0:0:0:
192,128,158353,1,8,0:0:0:0:
192,128,158567,1,0,0:0:0:0:
192,128,158782,1,8,0:0:0:0:
192,128,158996,1,0,0:0:0:0:
192,128,159210,1,0,0:0:0:0:
192,128,159425,1,8,0:0:0:0:
192,128,159639,1,8,0:0:0:0:
192,128,159853,1,0,0:0:0:0:
192,128,159960,1,8,0:0:0:0:
192,128,160067,1,8,0:0:0:0:
192,128,160282,1,0,0:0:0:0:
192,128,160496,1,8,0:0:0:0:
192,128,160925,5,0,0:0:0:0:
192,128,161353,1,0,0:0:0:0:
192,128,161567,1,8,0:0:0:0:
192,128,161782,1,8,0:0:0:0:
192,128,161996,1,0,0:0:0:0:
192,128,162210,1,8,0:0:0:0:
160,128,162639,1,0,0:0:0:0:
160,128,162853,1,8,0:0:0:0:
160,128,163067,1,8,0:0:0:0:
160,128,163282,1,8,0:0:0:0:
160,128,163496,1,0,0:0:0:0:
160,128,163710,1,0,0:0:0:0:
160,128,163925,1,8,0:0:0:0:
224,160,164353,5,0,0:0:0:0:
224,160,164567,1,8,0:0:0:0:
224,160,164782,1,8,0:0:0:0:
224,160,165210,5,8,0:0:0:0:
224,160,165425,1,0,0:0:0:0:
224,160,165639,1,8,0:0:0:0:
224,160,166067,5,8,0:0:0:0:
224,160,166282,1,8,0:0:0:0:
224,160,166496,1,0,0:0:0:0:
192,160,167567,5,0,0:0:0:0:
192,160,167782,1,8,0:0:0:0:
192,160,167889,1,8,0:0:0:0:
192,160,167996,1,0,0:0:0:0:
192,160,168210,5,12,0:0:0:0:
192,160,168532,5,12,0:0:0:0:
192,160,168853,5,4,0:0:0:0:
192,160,169282,5,12,0:0:0:0:
320,192,169710,5,0,0:0:0:0:
288,160,169817,1,8,0:0:0:0:
288,160,169925,1,0,0:0:0:0:
288,160,170139,1,8,0:0:0:0:
288,160,170246,1,0,0:0:0:0:
320,192,170353,1,8,0:0:0:0:
288,160,170460,1,0,0:0:0:0:
288,160,170567,1,0,0:0:0:0:
320,192,170782,1,8,0:0:0:0:
288,160,170996,1,0,0:0:0:0:
320,160,171103,1,0,0:0:0:0:
288,160,171210,1,8,0:0:0:0:
288,160,171425,1,0,0:0:0:0:
288,160,171639,5,12,0:0:0:0:
288,160,171960,5,12,0:0:0:0:
288,160,172282,5,4,0:0:0:0:
288,160,172710,5,12,0:0:0:0:
288,160,173139,5,8,0:0:0:0:
286,155,173246,1,8,0:0:0:0:
288,160,173353,1,0,0:0:0:0:
288,160,173567,1,8,0:0:0:0:
286,155,173675,1,8,0:0:0:0:
286,155,173782,1,8,0:0:0:0:
288,160,173889,1,8,0:0:0:0:
290,145,173996,1,0,0:0:0:0:
290,145,174103,1,0,0:0:0:0:
288,160,174210,1,8,0:0:0:0:
303,155,174425,1,0,0:0:0:0:
303,154,174639,5,12,0:0:0:0:
298,144,175067,5,4,0:0:0:0:
300,146,175282,1,8,0:0:0:0:
311,126,175496,1,4,0:0:0:0:
298,144,175925,5,12,0:0:0:0:
300,146,176139,1,0,0:0:0:0:
301,144,176353,1,12,0:0:0:0:
298,144,176782,5,8,0:0:0:0:
288,128,176889,1,0,0:0:0:0:
279,123,176996,1,8,0:0:0:0:
301,144,177210,1,0,0:0:0:0:
301,144,177317,1,0,0:0:0:0:
301,137,177425,1,8,0:0:0:0:
280,143,177532,1,8,0:0:0:0:
279,115,177639,1,0,0:0:0:0:
286,147,177853,1,8,0:0:0:0:
295,146,177960,1,0,0:0:0:0:
286,147,178067,1,8,0:0:0:0:
286,147,178282,1,0,0:0:0:0:
288,133,178496,5,12,0:0:0:0:
288,132,178817,5,12,0:0:0:0:
288,132,179139,5,4,0:0:0:0:
312,137,179567,5,12,0:0:0:0:
276,122,179996,5,8,0:0:0:0:
279,122,180103,1,8,0:0:0:0:
279,122,180210,1,0,0:0:0:0:
276,122,180425,1,8,0:0:0:0:
276,122,180532,1,8,0:0:0:0:
270,113,180639,1,0,0:0:0:0:
270,113,180746,1,8,0:0:0:0:
270,114,180853,1,0,0:0:0:0:
270,113,180960,1,0,0:0:0:0:
270,113,181067,1,8,0:0:0:0:
270,114,181282,1,8,0:0:0:0:
270,113,181496,5,4,0:0:0:0:
253,121,181925,5,0,0:0:0:0:
256,128,182032,1,8,0:0:0:0:
253,120,182139,1,0,0:0:0:0:
256,128,182246,1,0,0:0:0:0:
237,115,182353,1,8,0:0:0:0:
253,121,182567,1,8,0:0:0:0:
237,115,182675,1,0,0:0:0:0:
284,128,182782,1,8,0:0:0:0:
256,128,182889,1,8,0:0:0:0:
237,115,182996,1,0,0:0:0:0:
267,114,183210,1,8,0:0:0:0:
273,113,183639,5,8,0:0:0:0:
270,97,183746,1,0,0:0:0:0:
266,114,183853,1,0,0:0:0:0:
256,160,183960,1,0,0:0:0:0:
275,110,184067,1,8,0:0:0:0:
273,113,184282,1,0,0:0:0:0:
275,106,184389,1,8,0:0:0:0:
270,97,184496,1,8,0:0:0:0:
256,160,184603,1,8,0:0:0:0:
262,109,184710,1,0,0:0:0:0:
262,109,184925,1,8,0:0:0:0:
256,192,185139,1,0,0:0:0:0:
262,109,185353,5,12,0:0:0:0:
256,192,185782,5,0,0:0:0:0:
256,192,186210,5,12,0:0:0:0:
256,192,186639,5,0,0:0:0:0:
256,192,186853,5,8,0:0:0:0:
256,192,186960,1,8,0:0:0:0:
256,192,187067,1,0,0:0:0:0:
256,192,187282,1,8,0:0:0:0:
256,192,187389,1,8,0:0:0:0:
256,192,187496,1,0,0:0:0:0:
256,192,187603,1,8,0:0:0:0:
256,160,187710,1,0,0:0:0:0:
256,192,187817,1,0,0:0:0:0:
256,160,187925,1,8,0:0:0:0:
256,192,188139,1,8,0:0:0:0:
256,192,188353,5,4,0:0:0:0:
256,160,188782,5,0,0:0:0:0:
256,160,188889,1,8,0:0:0:0:
256,160,188996,1,0,0:0:0:0:
256,160,189103,1,0,0:0:0:0:
256,160,189210,1,8,0:0:0:0:
256,160,189425,1,8,0:0:0:0:
256,160,189532,1,0,0:0:0:0:
256,160,189639,1,8,0:0:0:0:
256,160,189746,1,8,0:0:0:0:
256,160,189853,1,0,0:0:0:0:
256,160,190067,1,8,0:0:0:0:
256,160,190496,5,8,0:0:0:0:
256,160,190603,1,8,0:0:0:0:
256,160,190710,1,0,0:0:0:0:
256,160,190817,1,8,0:0:0:0:
256,160,190925,1,0,0:0:0:0:
256,160,191139,1,0,0:0:0:0:
256,160,191246,1,0,0:0:0:0:
256,160,191353,1,8,0:0:0:0:
256,160,191460,1,0,0:0:0:0:
256,160,191567,1,8,0:0:0:0:
256,160,191782,1,0,0:0:0:0:
256,160,191996,1,8,0:0:0:0:
256,160,192210,5,4,0:0:0:0:
256,160,192639,5,8,0:0:0:0:
256,160,193067,5,4,0:0:0:0:
256,160,193496,5,8,0:0:0:0:
256,160,193710,5,8,0:0:0:0:
256,160,193817,1,8,0:0:0:0:
256,160,193925,1,0,0:0:0:0:
256,160,194139,1,8,0:0:0:0:
256,160,194246,1,8,0:0:0:0:
256,160,194353,1,0,0:0:0:0:
256,160,194460,1,8,0:0:0:0:
256,160,194567,1,0,0:0:0:0:
256,160,194675,1,0,0:0:0:0:
256,160,194782,1,8,0:0:0:0:
256,160,194996,1,8,0:0:0:0:
256,160,195210,5,4,0:0:0:0:
256,160,195639,5,0,0:0:0:0:
256,192,196067,1,8,0:0:0:0:
256,192,196389,1,0,0:0:0:0:
256,192,196710,1,0,0:0:0:0:
256,192,197353,1,8,0:0:0:0:
256,192,197675,1,8,0:0:0:0:
256,192,197996,1,0,0:0:0:0:
256,192,198639,1,8,0:0:0:0:
252,201,198853,1,8,0:0:0:0:
256,192,199067,5,8,0:0:0:0:
256,192,199496,1,0,0:0:0:0:
256,192,199817,1,8,0:0:0:0:
256,192,200139,1,0,0:0:0:0:
256,192,200567,1,8,0:0:0:0:
256,192,200782,1,8,0:0:0:0:
256,192,201103,1,0,0:0:0:0:
256,192,201425,1,8,0:0:0:0:
256,192,202067,1,8,0:0:0:0:
256,192,202282,1,8,0:0:0:0:
256,192,202496,5,0,0:0:0:0:
256,192,202925,1,8,0:0:0:0:
256,192,203246,1,0,0:0:0:0:
256,192,203567,1,8,0:0:0:0:
256,192,204210,1,8,0:0:0:0:
256,192,204532,1,8,0:0:0:0:
256,192,204853,1,0,0:0:0:0:
256,192,205496,1,8,0:0:0:0:
256,192,205710,1,8,0:0:0:0:
256,192,205925,5,8,0:0:0:0:
256,192,206353,1,0,0:0:0:0:
256,192,206675,1,8,0:0:0:0:
256,192,206996,1,0,0:0:0:0:
256,192,207425,1,8,0:0:0:0:
256,192,207639,1,8,0:0:0:0:
256,192,207960,1,8,0:0:0:0:
256,192,208282,1,0,0:0:0:0:
256,192,208925,5,8,0:0:0:0:
256,192,209139,5,8,0:0:0:0:
