osu file format v14

[General]
AudioFilename: audio.mp3
AudioLeadIn: 0
PreviewTime: 223115
Countdown: 0
SampleSet: Soft
StackLeniency: 0.7
Mode: 0
LetterboxInBreaks: 0
WidescreenStoryboard: 0

[Editor]
Bookmarks: 37686,38972
DistanceSpacing: 0.8
BeatDivisor: 4
GridSize: 4
TimelineZoom: 2.500005

[Metadata]
Title:Totemo Suteki na Rokugatsu Deshita
TitleUnicode:とても素敵な六月でした
Artist:Yunoshin
ArtistUnicode:Yunoshin
Creator:Abelia
Version:Rewind
Source:
Tags:hatsune miku No.734 Eight It was a very beautiful June zenvari
BeatmapID:1927163
BeatmapSetID:781820

[Difficulty]
HPDrainRate:6
CircleSize:4
OverallDifficulty:8.1
ApproachRate:9.2
SliderMultiplier:1.7
SliderTickRate:1

[Events]
//Background and Video events
0,0,"44227212_p0.jpg",0,0
//Break Periods
2,121458,129829
2,219743,222973
//Storyboard Layer 0 (Background)
//Storyboard Layer 1 (Fail)
//Storyboard Layer 2 (Pass)
//Storyboard Layer 3 (Foreground)
//Storyboard Layer 4 (Overlay)
//Storyboard Sound Samples

[TimingPoints]
2401,285.714285714286,4,2,1,50,1,0
2401,-153.846153846154,4,2,1,50,0,0
20258,-71.9424460431655,4,2,1,50,0,0
20686,-114.942528735632,4,2,1,75,0,0
22972,-114.942528735632,4,2,1,85,0,0
23043,-114.942528735632,4,2,1,70,0,0
38972,-153.846153846154,4,2,2,50,0,0
57258,-125,4,2,3,60,0,0
66115,-125,4,2,3,27,0,0
66186,-125,4,2,3,60,0,0
70972,-222.222222222222,4,2,3,25,0,0
71543,-285.714285714286,4,2,1,25,0,0
74401,-83.3333333333333,4,2,1,70,0,0
75543,-107.52688172043,4,2,1,70,0,1
76043,-107.52688172043,4,2,1,5,0,1
76115,-107.52688172043,4,2,1,70,0,1
80615,-107.52688172043,4,2,1,5,0,1
80686,-107.52688172043,4,2,1,70,0,1
85186,-107.52688172043,4,2,1,5,0,1
85258,-107.52688172043,4,2,1,70,0,1
89472,-107.52688172043,4,2,1,5,0,1
89543,-107.52688172043,4,2,1,70,0,1
91758,-107.52688172043,4,2,1,5,0,1
91829,-107.52688172043,4,2,1,70,0,1
92686,-107.52688172043,4,2,1,70,0,0
93829,-107.52688172043,4,2,1,70,0,1
94472,-107.52688172043,4,2,1,5,0,1
94543,-107.52688172043,4,2,1,70,0,1
96758,-107.52688172043,4,2,1,5,0,1
96829,-107.52688172043,4,2,1,70,0,1
99043,-107.52688172043,4,2,1,5,0,1
99115,-107.52688172043,4,2,1,70,0,1
102972,-114.942528735632,4,2,1,70,0,0
130401,-153.846153846154,4,2,2,50,0,0
146401,-222.222222222222,4,2,1,50,0,0
148115,-153.846153846154,4,2,1,50,0,0
148686,-125,4,2,3,60,0,0
162115,-142.857142857143,4,2,1,70,0,0
164401,-125,4,2,1,70,0,0
166972,-107.52688172043,4,2,1,70,0,1
167472,-107.52688172043,4,2,1,5,0,1
167543,-107.52688172043,4,2,1,70,0,1
172043,-107.52688172043,4,2,1,5,0,1
172115,-107.52688172043,4,2,1,70,0,1
176615,-107.52688172043,4,2,1,5,0,1
176686,-107.52688172043,4,2,1,70,0,1
180901,-107.52688172043,4,2,1,5,0,1
180972,-107.52688172043,4,2,1,70,0,1
183186,-107.52688172043,4,2,1,5,0,1
183258,-107.52688172043,4,2,1,70,0,1
184115,-107.52688172043,4,2,1,70,0,0
185258,-107.52688172043,4,2,1,70,0,1
185901,-107.52688172043,4,2,1,5,0,1
185972,-107.52688172043,4,2,1,70,0,1
188186,-107.52688172043,4,2,1,5,0,1
188258,-107.52688172043,4,2,1,70,0,1
190472,-107.52688172043,4,2,1,5,0,1
190543,-107.52688172043,4,2,1,70,0,1
194115,-149.253731343284,4,2,2,70,0,0
194401,-149.253731343284,4,2,1,35,0,0
196686,-149.253731343284,4,2,2,50,0,0
205829,-149.253731343284,4,2,3,60,0,0
219543,-107.52688172043,4,2,1,25,0,0
223543,-149.253731343284,4,2,1,45,0,0
224115,-107.52688172043,4,2,1,70,0,1
224615,-107.52688172043,4,2,1,5,0,1
224686,-107.52688172043,4,2,1,70,0,1
229186,-107.52688172043,4,2,1,5,0,1
229258,-107.52688172043,4,2,1,70,0,1
233758,-107.52688172043,4,2,1,5,0,1
233829,-107.52688172043,4,2,1,70,0,1
238043,-107.52688172043,4,2,1,5,0,1
238115,-107.52688172043,4,2,1,70,0,1
243043,-107.52688172043,4,2,1,5,0,1
243115,-107.52688172043,4,2,1,70,0,1
245329,-107.52688172043,4,2,1,5,0,1
245401,-107.52688172043,4,2,1,70,0,1
251258,-149.253731343284,4,2,2,70,0,1
251472,-149.253731343284,4,2,1,5,0,1
251543,-100,4,2,1,70,0,0
253829,-114.942528735632,4,2,1,70,0,0
272119,512.820512820513,4,2,1,70,1,0
272631,504.201680672269,4,2,1,70,1,0

[Colours]
Combo1 : 255,255,74
Combo2 : 64,64,255
Combo3 : 255,70,70
Combo4 : 0,242,0

[HitObjects]
349,142,2401,5,2,0:0:0:0:
435,162,2543,1,0,0:0:0:0:
494,100,2686,1,2,0:0:0:0:
377,227,2829,1,8,0:0:0:0:
396,220,3115,5,2,0:0:0:0:
325,294,3258,2,0,P|299:290|270:283,1,55.2499974708558,8|2,0:0|0:0,0:0:0:0:
262,296,3472,1,2,0:0:0:0:
248,303,3543,5,2,0:0:0:0:
207,226,3686,1,2,0:0:0:0:
152,359,3829,2,0,P|156:333|163:304,1,55.2499974708558,8|0,0:0|0:0,0:0:0:0:
66,205,4115,2,0,P|69:232|74:259,1,55.2499974708558,2|2,0:0|0:0,0:0:0:0:
146,140,4401,1,8,0:0:0:0:
129,129,4686,5,2,0:0:0:0:
239,142,4829,1,0,0:0:0:0:
209,27,4972,1,2,0:0:0:0:
321,88,5115,1,8,0:0:0:0:
338,99,5401,5,2,0:0:0:0:
423,198,5543,2,0,P|421:170|415:143,1,55.2499974708558,8|2,0:0|0:0,0:0:0:0:
431,137,5758,1,2,0:0:0:0:
442,125,5829,5,2,0:0:0:0:
331,191,5972,1,2,0:0:0:0:
489,264,6115,1,8,0:0:0:0:
435,344,6258,1,2,0:0:0:0:
447,364,6543,5,2,0:0:0:0:
341,283,6686,2,0,P|344:310|346:337,1,55.2499974708558,8|2,0:0|0:0,0:0:0:0:
336,349,6901,1,2,0:0:0:0:
332,363,6972,5,2,0:0:0:0:
251,310,7115,1,0,0:0:0:0:
162,338,7258,1,2,0:0:0:0:
123,226,7401,1,8,0:0:0:0:
139,238,7686,5,2,0:0:0:0:
88,149,7829,2,0,P|116:143|142:136,1,55.2499974708558,8|2,0:0|0:0,0:0:0:0:
151,149,8043,1,2,0:0:0:0:
165,155,8115,5,2,0:0:0:0:
123,53,8258,1,2,0:0:0:0:
259,29,8401,2,0,P|252:56|247:83,1,55.2499974708558,8|0,0:0|0:0,0:0:0:0:
261,179,8686,1,2,0:0:0:0:
365,141,8829,1,2,0:0:0:0:
435,226,8972,2,0,P|461:219|488:214,1,55.2499974708558,8|2,0:0|0:0,0:0:0:0:
497,201,9186,1,2,0:0:0:0:
502,186,9258,5,2,0:0:0:0:
483,304,9401,1,0,0:0:0:0:
374,284,9543,1,2,0:0:0:0:
295,352,9686,1,8,0:0:0:0:
282,367,9972,5,2,0:0:0:0:
262,230,10115,1,8,0:0:0:0:
249,245,10401,5,2,0:0:0:0:
302,148,10543,1,2,0:0:0:0:
184,111,10686,1,8,0:0:0:0:
173,1,10829,1,2,0:0:0:0:
189,13,11115,5,2,0:0:0:0:
98,54,11258,1,8,0:0:0:0:
114,66,11543,5,2,0:0:0:0:
82,157,11686,1,0,0:0:0:0:
189,223,11829,1,2,0:0:0:0:
74,254,11972,1,8,0:0:0:0:
58,242,12258,5,2,0:0:0:0:
72,340,12401,2,0,P|99:334|126:333,1,55.2499974708558,8|2,0:0|0:0,0:0:0:0:
138,321,12615,1,2,0:0:0:0:
153,314,12686,5,2,0:0:0:0:
239,358,12829,1,2,0:0:0:0:
327,318,12972,2,0,P|320:291|319:263,1,55.2499974708558,8|0,0:0|0:0,0:0:0:0:
399,208,13258,1,2,0:0:0:0:
382,98,13401,1,2,0:0:0:0:
294,166,13543,1,8,0:0:0:0:
280,183,13829,5,2,0:0:0:0:
368,115,13972,1,0,0:0:0:0:
382,225,14115,1,2,0:0:0:0:
354,98,14258,1,8,0:0:0:0:
334,88,14543,5,2,0:0:0:0:
432,0,14686,2,0,P|428:27|427:54,1,55.2499974708558,8|2,0:0|0:0,0:0:0:0:
441,63,14901,1,2,0:0:0:0:
451,75,14972,5,2,0:0:0:0:
348,5,15115,1,2,0:0:0:0:
251,99,15258,1,8,0:0:0:0:
118,62,15401,1,2,0:0:0:0:
139,57,15686,5,2,0:0:0:0:
79,140,15829,2,0,P|84:167|87:194,1,55.2499974708558,8|2,0:0|0:0,0:0:0:0:
76,207,16043,1,2,0:0:0:0:
71,222,16115,5,2,0:0:0:0:
176,179,16258,1,0,0:0:0:0:
169,317,16401,1,2,0:0:0:0:
289,284,16543,1,8,0:0:0:0:
307,296,16829,5,2,0:0:0:0:
410,220,16972,2,0,P|383:217|356:211,1,55.2499974708558,8|2,0:0|0:0,0:0:0:0:
341,203,17186,1,2,0:0:0:0:
331,189,17258,5,2,0:0:0:0:
435,131,17401,1,2,0:0:0:0:
511,223,17543,1,8,0:0:0:0:
433,313,17686,1,0,0:0:0:0:
291,304,17829,2,0,P|317:297|345:294,1,55.2499974708558,2|2,0:0|0:0,0:0:0:0:
249,108,18115,2,0,P|247:135|241:162,1,55.2499974708558,8|2,0:0|0:0,0:0:0:0:
227,170,18329,1,2,0:0:0:0:
218,184,18401,5,2,0:0:0:0:
165,87,18543,1,0,0:0:0:0:
56,107,18686,1,2,0:0:0:0:
41,216,18829,1,8,0:0:0:0:
21,206,19115,5,2,0:0:0:0:
140,263,19258,1,8,0:0:0:0:
121,273,19543,5,2,0:0:0:0:
242,221,19686,1,2,0:0:0:0:
211,315,19829,1,8,0:0:0:0:
173,155,19972,1,2,0:0:0:0:
185,138,20258,5,12,0:0:0:0:
197,121,20686,5,6,0:0:0:0:
295,88,20829,1,0,0:0:0:0:
362,167,20972,1,2,0:0:0:0:
469,65,21115,2,0,P|456:137|449:211,1,147.900001241226,8|2,0:0|0:0,0:0:0:0:
382,335,21543,2,0,P|378:298|372:261,1,73.9500006206131,8|2,0:0|0:0,0:0:0:0:
351,172,21829,5,0,0:0:0:0:
281,281,21972,1,2,0:0:0:0:
246,126,22115,1,8,0:0:0:0:
118,213,22258,1,0,0:0:0:0:
141,48,22401,2,0,P|146:84|150:121,1,73.9500006206131,2|2,0:0|0:0,0:0:0:0:
124,308,22686,1,8,0:0:0:0:
45,228,22972,6,0,P|81:218|118:213,1,73.9500006206131,6|0,0:0|0:0,0:0:0:0:
203,251,23258,1,2,0:0:0:0:
231,163,23401,2,0,B|283:203|283:203|326:203|362:184,1,147.900001241226,8|2,0:0|0:0,0:0:0:0:
409,103,23829,1,8,0:0:0:0:
498,128,23972,6,0,L|507:201,1,73.9500006206131,2|0,0:0|0:0,0:0:0:0:
425,277,24258,1,2,0:0:0:0:
362,184,24401,1,8,0:0:0:0:
337,334,24543,2,0,P|300:328|263:324,1,73.9500006206131,2|0,0:0|0:0,0:0:0:0:
174,368,24829,1,2,0:0:0:0:
152,240,24972,1,8,0:0:0:0:
152,240,25043,1,2,0:0:0:0:
152,240,25115,1,2,0:0:0:0:
152,240,25186,1,2,0:0:0:0:
152,240,25258,6,0,P|188:234|225:230,1,73.9500006206131,6|0,0:0|0:0,0:0:0:0:
336,245,25543,1,2,0:0:0:0:
401,156,25686,2,0,P|394:116|389:82,1,73.9500006206131,8|0,0:0|0:0,0:0:0:0:
479,30,25972,1,2,0:0:0:0:
305,24,26115,2,0,P|298:58|289:95,1,73.9500006206131,8|2,0:0|0:0,0:0:0:0:
205,196,26401,6,0,L|134:175,1,73.9500006206131,0|2,0:0|0:0,0:0:0:0:
109,86,26686,1,8,0:0:0:0:
6,192,26829,1,0,0:0:0:0:
124,297,26972,1,2,0:0:0:0:
174,171,27115,1,2,0:0:0:0:
305,240,27258,2,0,P|341:232|377:229,1,73.9500006206131,8|0,0:0|0:0,0:0:0:0:
475,142,27543,6,0,P|439:133|404:119,1,73.9500006206131,6|0,0:0|0:0,0:0:0:0:
354,38,27829,1,2,0:0:0:0:
266,77,27972,2,0,P|277:150|282:223,1,147.900001241226,8|2,0:0|0:0,0:0:0:0:
215,304,28401,2,0,P|180:292|144:282,1,73.9500006206131,8|2,0:0|0:0,0:0:0:0:
54,346,28686,5,0,0:0:0:0:
26,200,28829,1,2,0:0:0:0:
192,181,28972,1,8,0:0:0:0:
70,117,29115,2,0,P|79:80|82:44,1,73.9500006206131,2|0,0:0|0:0,0:0:0:0:
185,0,29401,1,2,0:0:0:0:
296,77,29543,1,8,0:0:0:0:
296,77,29615,1,2,0:0:0:0:
296,77,29686,1,2,0:0:0:0:
296,77,29758,1,2,0:0:0:0:
296,77,29829,6,0,P|259:82|223:89,1,73.9500006206131,6|0,0:0|0:0,0:0:0:0:
192,181,30115,1,2,0:0:0:0:
321,170,30258,2,0,P|356:179|391:192,1,73.9500006206131,8|0,0:0|0:0,0:0:0:0:
438,78,30543,1,2,0:0:0:0:
478,242,30686,1,8,0:0:0:0:
361,297,30829,1,2,0:0:0:0:
299,175,30972,6,0,P|296:211|289:247,1,73.9500006206131,0|2,0:0|0:0,0:0:0:0:
192,346,31258,2,0,P|189:309|183:272,1,73.9500006206131,8|0,0:0|0:0,0:0:0:0:
105,189,31543,1,2,0:0:0:0:
17,256,31686,1,2,0:0:0:0:
200,176,31829,1,8,0:0:0:0:
26,90,32115,6,0,P|22:128|17:163,1,73.9500006206131,6|0,0:0|0:0,0:0:0:0:
115,72,32401,1,2,0:0:0:0:
196,26,32543,2,0,P|203:99|214:172,1,147.900001241226,8|2,0:0|0:0,0:0:0:0:
321,254,32972,2,0,L|393:237,1,73.9500006206131,8|2,0:0|0:0,0:0:0:0:
492,146,33258,6,0,P|455:140|419:131,1,73.9500006206131,0|2,0:0|0:0,0:0:0:0:
355,40,33543,1,8,0:0:0:0:
254,90,33686,2,0,P|263:125|269:162,1,73.9500006206131,2|0,0:0|0:0,0:0:0:0:
217,261,33972,1,2,0:0:0:0:
122,207,34115,1,8,0:0:0:0:
122,207,34186,1,2,0:0:0:0:
122,207,34258,1,2,0:0:0:0:
122,207,34329,1,2,0:0:0:0:
122,206,34401,6,0,P|115:241|105:277,1,73.9500006206131,6|0,0:0|0:0,0:0:0:0:
15,226,34686,1,2,0:0:0:0:
7,125,34829,2,0,P|41:116|77:105,1,73.9500006206131,8|0,0:0|0:0,0:0:0:0:
163,32,35115,1,2,0:0:0:0:
257,91,35258,2,0,P|265:55|273:19,1,73.9500006206131,8|2,0:0|0:0,0:0:0:0:
173,143,35543,5,0,0:0:0:0:
305,175,35686,1,2,0:0:0:0:
405,66,35829,1,8,0:0:0:0:
398,230,35972,2,0,L|408:303,1,73.9500006206131,0|2,0:0|0:0,0:0:0:0:
474,157,36258,1,2,0:0:0:0:
305,175,36401,2,0,L|295:248,1,73.9500006206131,8|0,0:0|0:0,0:0:0:0:
208,340,36686,5,6,0:0:0:0:
120,241,36829,1,0,0:0:0:0:
197,132,36972,1,2,0:0:0:0:
13,45,37115,2,0,B|68:38|68:38|98:50|98:50|157:43,1,147.900001241226,8|2,0:0|0:0,0:0:0:0:
281,170,37543,1,8,0:0:0:0:
286,4,37686,6,0,P|278:40|270:76,1,73.9500006206131,2|0,0:0|0:0,0:0:0:0:
210,225,37972,1,2,0:0:0:0:
365,117,38115,2,0,P|373:153|381:189,1,73.9500006206131,8|0,0:0|0:0,0:0:0:0:
368,202,38329,1,8,0:0:0:0:
362,219,38401,1,6,0:0:0:0:
304,344,38543,1,2,0:0:0:0:
233,201,38686,2,8,P|227:183|223:165,3,36.9750003103065,10|8|8|8,0:0|0:0|0:0|0:0,0:0:0:0:
209,226,38972,6,0,P|182:218|154:215,1,55.2499974708558,2|0,0:0|0:0,0:0:0:0:
82,251,39258,1,2,0:0:0:0:
82,251,39401,1,0,0:0:0:0:
23,174,39543,2,0,P|76:159|123:131,1,110.499994941712,2|2,0:0|0:0,0:0:0:0:
213,26,40115,6,0,P|209:55|204:80,1,55.2499974708558,10|0,0:0|0:0,0:0:0:0:
250,154,40401,1,2,0:0:0:0:
250,154,40543,1,0,0:0:0:0:
324,102,40686,2,0,P|331:156|342:210,1,110.499994941712,2|2,0:0|0:0,0:0:0:0:
352,230,41258,6,0,P|331:248|313:269,1,55.2499974708558,10|0,0:0|0:0,0:0:0:0:
291,352,41543,1,2,0:0:0:0:
291,352,41686,1,0,0:0:0:0:
210,316,41829,2,0,P|215:288|219:261,1,55.2499974708558,2|0,0:0|0:0,0:0:0:0:
134,361,42115,2,0,P|129:333|123:306,1,55.2499974708558,2|0,0:0|0:0,0:0:0:0:
30,219,42401,6,0,P|58:223|85:227,1,55.2499974708558,10|0,0:0|0:0,0:0:0:0:
162,186,42686,1,2,0:0:0:0:
158,103,42829,2,0,P|211:88|263:69,1,110.499994941712,0|0,0:0|0:0,0:0:0:0:
263,69,43258,1,2,0:0:0:0:
374,45,43543,6,0,P|367:72|361:99,1,55.2499974708558,10|0,0:0|0:0,0:0:0:0:
402,174,43829,1,2,0:0:0:0:
402,174,43972,1,0,0:0:0:0:
352,240,44115,2,0,P|295:247|243:259,1,110.499994941712,2|2,0:0|0:0,0:0:0:0:
214,127,44686,6,0,P|207:154|201:181,1,55.2499974708558,10|0,0:0|0:0,0:0:0:0:
154,255,44972,1,2,0:0:0:0:
154,255,45115,1,0,0:0:0:0:
64,182,45258,2,0,P|91:178|117:170,1,55.2499974708558,2|0,0:0|0:0,0:0:0:0:
6,256,45543,2,0,P|32:263|57:274,1,55.2499974708558,2|0,0:0|0:0,0:0:0:0:
114,343,45829,5,10,0:0:0:0:
195,307,45972,2,0,L|206:253,1,55.2499974708558,0|2,0:0|0:0,0:0:0:0:
296,261,46258,2,0,P|283:207|272:153,1,110.499994941712,0|0,0:0|0:0,0:0:0:0:
296,65,46686,1,2,0:0:0:0:
380,100,46972,6,0,L|369:154,1,55.2499974708558,10|0,0:0|0:0,0:0:0:0:
395,242,47258,1,2,0:0:0:0:
333,308,47401,2,0,P|306:299|279:295,1,55.2499974708558,0|2,0:0|0:0,0:0:0:0:
268,208,47686,1,2,0:0:0:0:
259,205,47758,1,2,0:0:0:0:
250,202,47829,6,0,P|227:220|203:233,1,55.2499974708558,2|2,0:0|0:0,0:0:0:0:
195,237,48043,1,2,0:0:0:0:
185,240,48115,2,0,P|181:268|177:295,1,55.2499974708558,10|0,0:0|0:0,0:0:0:0:
115,351,48401,1,2,0:0:0:0:
115,351,48543,1,0,0:0:0:0:
45,302,48686,2,0,P|42:246|35:191,1,110.499994941712,2|2,0:0|0:0,0:0:0:0:
0,93,49258,6,0,L|54:104,1,55.2499974708558,10|0,0:0|0:0,0:0:0:0:
126,60,49543,1,2,0:0:0:0:
126,60,49686,1,0,0:0:0:0:
222,112,49829,2,0,P|172:137|125:166,1,110.499994941712,2|2,0:0|0:0,0:0:0:0:
109,184,50401,6,0,P|106:211|102:238,1,55.2499974708558,10|0,0:0|0:0,0:0:0:0:
52,306,50686,1,2,0:0:0:0:
52,306,50829,1,0,0:0:0:0:
110,365,50972,2,0,L|164:354,1,55.2499974708558,2|0,0:0|0:0,0:0:0:0:
271,322,51258,2,0,P|261:347|253:374,1,55.2499974708558,2|0,0:0|0:0,0:0:0:0:
289,305,51543,6,0,P|281:278|270:252,1,55.2499974708558,10|0,0:0|0:0,0:0:0:0:
196,202,51829,1,2,0:0:0:0:
260,139,51972,2,0,P|315:149|371:153,1,110.499994941712,0|0,0:0|0:0,0:0:0:0:
369,153,52401,1,2,0:0:0:0:
408,241,52686,6,0,P|429:222|452:206,1,55.2499974708558,10|0,0:0|0:0,0:0:0:0:
454,124,52972,1,2,0:0:0:0:
454,124,53115,1,0,0:0:0:0:
382,71,53258,2,0,P|327:81|272:85,1,110.499994941712,2|2,0:0|0:0,0:0:0:0:
186,132,53829,6,0,L|177:76,1,55.2499974708558,10|0,0:0|0:0,0:0:0:0:
232,11,54115,1,2,0:0:0:0:
232,11,54258,1,0,0:0:0:0:
98,34,54401,2,0,P|93:61|88:88,1,55.2499974708558,2|0,0:0|0:0,0:0:0:0:
106,177,54686,2,0,P|79:185|54:195,1,55.2499974708558,2|0,0:0|0:0,0:0:0:0:
24,278,54972,5,10,0:0:0:0:
107,270,55115,2,0,P|134:275|160:283,1,55.2499974708558,0|2,0:0|0:0,0:0:0:0:
223,346,55401,2,0,P|254:300|298:267,1,110.499994941712,0|0,0:0|0:0,0:0:0:0:
389,281,55829,2,0,L|374:171,1,110.499994941712,6|2,0:0|0:0,0:0:0:0:
436,106,56258,1,2,0:0:0:0:
427,99,56329,1,2,0:0:0:0:
419,90,56401,1,2,0:0:0:0:
323,75,56543,1,2,0:0:0:0:
325,86,56615,1,2,0:0:0:0:
330,96,56686,1,2,0:0:0:0:
330,96,57258,6,0,L|255:106,1,68,10|0,0:0|0:0,0:0:0:0:
253,95,57472,1,2,0:0:0:0:
238,91,57543,1,2,0:0:0:0:
205,183,57686,1,2,0:0:0:0:
112,151,57829,1,0,0:0:0:0:
38,216,57972,2,0,P|44:249|48:283,1,68,2|2,0:0|0:0,0:0:0:0:
25,376,58258,1,0,0:0:0:0:
180,352,58401,6,0,P|183:318|190:284,1,68,10|0,0:0|0:0,0:0:0:0:
203,282,58615,1,2,0:0:0:0:
215,276,58686,1,2,0:0:0:0:
278,356,58829,1,2,0:0:0:0:
343,236,58972,1,0,0:0:0:0:
251,136,59115,2,0,P|257:169|260:203,1,68,2|0,0:0|0:0,0:0:0:0:
203,282,59401,1,8,0:0:0:0:
361,323,59543,6,0,L|427:308,1,68,10|0,0:0|0:0,0:0:0:0:
440,311,59758,1,2,0:0:0:0:
451,318,59829,1,2,0:0:0:0:
388,225,59972,1,2,0:0:0:0:
436,141,60115,2,0,L|370:126,1,68,0|2,0:0|0:0,0:0:0:0:
233,111,60401,2,0,P|256:134|279:160,1,68,2|0,0:0|0:0,0:0:0:0:
242,19,60686,6,0,L|176:34,1,68,10|0,0:0|0:0,0:0:0:0:
164,25,60901,1,2,0:0:0:0:
151,20,60972,1,2,0:0:0:0:
120,110,61115,1,2,0:0:0:0:
20,67,61258,1,0,0:0:0:0:
131,138,61401,1,2,0:0:0:0:
38,195,61543,2,0,L|46:262,1,68,0|2,0:0|0:0,0:0:0:0:
211,250,61829,6,0,P|200:280|193:315,1,68,10|0,0:0|0:0,0:0:0:0:
195,328,62043,1,2,0:0:0:0:
199,340,62115,1,2,0:0:0:0:
296,371,62258,1,2,0:0:0:0:
354,289,62401,2,0,L|430:300,1,68,0|2,0:0|0:0,0:0:0:0:
367,189,62686,2,0,L|299:198,1,68,2|0,0:0|0:0,0:0:0:0:
236,51,62972,6,0,P|228:84|225:118,1,68,10|0,0:0|0:0,0:0:0:0:
239,121,63186,1,2,0:0:0:0:
252,122,63258,1,2,0:0:0:0:
142,146,63401,1,2,0:0:0:0:
217,233,63543,1,0,0:0:0:0:
167,309,63686,1,2,0:0:0:0:
279,344,63829,1,0,0:0:0:0:
374,278,63972,1,10,0:0:0:0:
446,333,64115,6,0,P|492:325|455:265,1,136,10|2,0:0|0:0,0:0:0:0:
464,144,64543,2,0,P|399:165|332:174,1,136,2|2,0:0|0:0,0:0:0:0:
234,242,64972,2,0,P|224:209|211:177,1,68,2|0,0:0|0:0,0:0:0:0:
268,72,65258,6,0,P|235:62|203:50,1,68,10|0,0:0|0:0,0:0:0:0:
201,36,65472,1,2,0:0:0:0:
195,23,65543,1,2,0:0:0:0:
125,188,65686,1,2,0:0:0:0:
107,29,65829,6,0,P|73:77|128:96,1,136,8|0,0:0|0:0,0:0:0:0:
151,88,66401,6,0,L|138:154,1,68,10|0,0:0|0:0,0:0:0:0:
126,160,66615,1,2,0:0:0:0:
119,171,66686,1,2,0:0:0:0:
227,140,66829,1,2,0:0:0:0:
299,208,66972,1,0,0:0:0:0:
358,129,67115,2,0,P|354:95|352:61,1,68,2|2,0:0|0:0,0:0:0:0:
464,140,67401,1,0,0:0:0:0:
441,292,67543,6,0,P|407:284|374:280,1,68,10|0,0:0|0:0,0:0:0:0:
366,291,67758,1,2,0:0:0:0:
356,300,67829,1,2,0:0:0:0:
299,208,67972,1,2,0:0:0:0:
244,332,68115,1,0,0:0:0:0:
174,196,68258,2,0,P|162:227|146:258,1,68,2|0,0:0|0:0,0:0:0:0:
61,308,68543,1,10,0:0:0:0:
0,165,68686,6,0,P|33:157|66:153,1,68,10|0,0:0|0:0,0:0:0:0:
72,169,68901,1,2,0:0:0:0:
73,185,68972,1,2,0:0:0:0:
17,72,69115,1,2,0:0:0:0:
174,53,69258,2,0,P|141:61|109:74,1,68,0|2,0:0|0:0,0:0:0:0:
268,106,69543,2,0,P|238:122|210:143,1,68,2|0,0:0|0:0,0:0:0:0:
300,286,69829,6,0,L|367:277,1,68,10|0,0:0|0:0,0:0:0:0:
374,266,70043,1,2,0:0:0:0:
385,260,70115,1,2,0:0:0:0:
472,303,70258,1,2,0:0:0:0:
507,200,70401,1,0,0:0:0:0:
422,131,70543,1,2,0:0:0:0:
409,26,70686,1,0,0:0:0:0:
500,66,70829,1,2,0:0:0:0:
319,45,70972,6,0,P|299:91|290:142,1,101.999996887207,10|0,0:0|0:0,0:0:0:0:
290,142,71543,1,0,0:0:0:0:
290,142,72543,5,0,0:0:0:0:
290,142,72686,2,0,L|190:134,1,89.2499972763062,0|0,0:0|0:0,0:0:0:0:
201,134,73258,1,0,0:0:0:0:
202,135,74401,5,2,0:0:0:0:
257,321,74686,5,2,0:0:0:0:
456,248,74972,5,4,0:0:0:0:
456,248,75543,6,0,P|416:240|377:236,1,79.050002472725,6|0,0:0|0:0,0:0:0:0:
257,321,75829,2,0,P|248:262|237:204,1,118.575003709087,8|0,0:0|0:0,0:0:0:0:
213,190,76115,1,2,0:0:0:0:
142,309,76258,1,2,0:0:0:0:
31,226,76401,2,0,P|70:221|109:214,1,79.050002472725,8|0,0:0|0:0,0:0:0:0:
246,100,76686,6,0,P|167:90|89:77,1,158.10000494545,2|8,0:0|0:0,0:0:0:0:
27,0,77115,1,2,0:0:0:0:
12,170,77258,2,0,P|5:131|0:91,1,79.050002472725,0|2,0:0|0:0,0:0:0:0:
117,253,77543,2,0,P|124:214|129:174,1,79.050002472725,8|0,0:0|0:0,0:0:0:0:
270,36,77829,6,0,B|220:46|220:46|210:99|235:149,1,158.10000494545,6|8,0:0|0:0,0:0:0:0:
351,241,78258,1,0,0:0:0:0:
475,163,78401,1,2,0:0:0:0:
357,77,78543,2,0,P|360:116|375:152,1,79.050002472725,2|8,0:0|0:0,0:0:0:0:
479,256,78829,1,0,0:0:0:0:
410,371,78972,6,0,P|336:342|257:337,1,158.10000494545,2|8,0:0|0:0,0:0:0:0:
127,384,79401,1,2,0:0:0:0:
19,304,79543,2,0,P|24:264|31:226,1,79.050002472725,0|2,0:0|0:0,0:0:0:0:
180,242,79829,2,0,P|171:203|165:164,1,79.050002472725,8|0,0:0|0:0,0:0:0:0:
63,43,80115,6,0,P|70:81|75:121,1,79.050002472725,6|0,0:0|0:0,0:0:0:0:
186,144,80401,2,0,B|219:119|219:119|294:127,1,118.575003709087,8|0,0:0|0:0,0:0:0:0:
313,149,80686,1,2,0:0:0:0:
270,34,80829,1,2,0:0:0:0:
414,139,80972,2,0,P|403:176|395:215,1,79.050002472725,8|0,0:0|0:0,0:0:0:0:
475,333,81258,6,0,L|397:346,1,79.050002472725,2|0,0:0|0:0,0:0:0:0:
282,278,81543,1,8,0:0:0:0:
164,356,81686,2,0,P|184:279|193:200,1,158.10000494545,2|2,0:0|0:0,0:0:0:0:
109,46,82115,2,0,P|120:84|128:123,1,79.050002472725,8|0,0:0|0:0,0:0:0:0:
30,308,82401,6,0,P|106:287|185:278,1,158.10000494545,6|8,0:0|0:0,0:0:0:0:
331,339,82829,1,0,0:0:0:0:
426,213,82972,2,0,P|390:196|353:183,1,79.050002472725,2|2,0:0|0:0,0:0:0:0:
205,99,83258,2,0,P|221:134|236:171,1,79.050002472725,8|0,0:0|0:0,0:0:0:0:
331,29,83543,6,0,P|258:60|182:80,1,158.10000494545,2|8,0:0|0:0,0:0:0:0:
30,34,83972,1,2,0:0:0:0:
109,170,84115,1,0,0:0:0:0:
156,75,84258,1,2,0:0:0:0:
33,227,84401,2,0,P|43:264|55:302,1,79.050002472725,8|0,0:0|0:0,0:0:0:0:
221,377,84686,6,0,P|226:337|232:298,1,79.050002472725,6|0,0:0|0:0,0:0:0:0:
370,198,84972,2,0,B|312:217|312:217|262:187,1,118.575003709087,8|0,0:0|0:0,0:0:0:0:
277,162,85258,1,2,0:0:0:0:
176,219,85401,1,2,0:0:0:0:
79,166,85543,2,0,P|85:126|91:87,1,79.050002472725,8|0,0:0|0:0,0:0:0:0:
246,0,85829,6,0,B|288:-2|333:11|305:36|342:51|389:52,1,158.10000494545,2|8,0:0|0:0,0:0:0:0:
512,5,86258,1,2,0:0:0:0:
494,150,86401,2,0,P|454:156|415:161,1,79.050002472725,0|2,0:0|0:0,0:0:0:0:
281,125,86686,2,0,P|271:163|268:202,1,79.050002472725,8|0,0:0|0:0,0:0:0:0:
377,319,86972,6,0,P|337:382|264:370,1,158.10000494545,6|8,0:0|0:0,0:0:0:0:
173,240,87401,1,0,0:0:0:0:
15,253,87543,1,2,0:0:0:0:
152,352,87686,1,2,0:0:0:0:
267,202,87829,2,0,P|261:162|256:123,1,79.050002472725,8|0,0:0|0:0,0:0:0:0:
141,14,88115,6,0,P|104:29|67:43,1,79.050002472725,2|0,0:0|0:0,0:0:0:0:
120,173,88401,1,8,0:0:0:0:
46,27,88543,2,0,P|40:66|35:105,1,79.050002472725
67,248,88829,1,2,0:0:0:0:
208,187,88972,2,0,P|202:147|196:108,1,79.050002472725,8|0,0:0|0:0,0:0:0:0:
322,11,89258,6,0,P|381:18|440:27,1,118.575003709087,6|0,0:0|0:0,0:0:0:0:
470,11,89543,2,0,P|476:50|481:89,1,79.050002472725,8|0,0:0|0:0,0:0:0:0:
456,199,89829,1,2,0:0:0:0:
347,114,89972,1,2,0:0:0:0:
235,180,90115,2,0,P|229:219|224:258,1,79.050002472725,8|0,0:0|0:0,0:0:0:0:
345,343,90401,6,0,P|267:355|190:371,1,158.10000494545,2|8,0:0|0:0,0:0:0:0:
97,243,90829,1,2,0:0:0:0:
58,355,90972,1,0,0:0:0:0:
190,236,91115,1,2,0:0:0:0:
42,137,91258,2,0,P|81:131|119:123,1,79.050002472725,8|0,0:0|0:0,0:0:0:0:
255,5,91543,6,0,B|242:81|242:81|266:115,1,118.575003709087,6|0,0:0|0:0,0:0:0:0:
282,137,91829,2,0,P|299:101|319:67,1,79.050002472725,8|0,0:0|0:0,0:0:0:0:
432,22,92115,1,2,0:0:0:0:
468,139,92258,1,2,0:0:0:0:
356,252,92401,1,8,0:0:0:0:
377,271,92686,6,0,P|311:227|233:219,1,158.10000494545,8|2,0:0|0:0,0:0:0:0:
179,48,93115,2,0,P|126:107|53:135,1,158.10000494545,8|2,0:0|0:0,0:0:0:0:
14,308,93543,1,8,0:0:0:0:
21,309,93615,1,8,0:0:0:0:
28,311,93686,1,8,0:0:0:0:
34,315,93758,1,8,0:0:0:0:
39,320,93829,6,0,P|116:307|195:297,1,158.10000494545,6|8,0:0|0:0,0:0:0:0:
334,196,94258,2,0,P|322:254|314:312,1,118.575003709087,2|0,0:0|0:0,0:0:0:0:
331,336,94543,1,2,0:0:0:0:
239,209,94686,1,8,0:0:0:0:
433,220,94829,6,0,P|426:181|418:142,1,79.050002472725,2|0,0:0|0:0,0:0:0:0:
497,18,95115,1,2,0:0:0:0:
335,91,95258,1,8,0:0:0:0:
452,135,95401,1,2,0:0:0:0:
316,6,95543,1,0,0:0:0:0:
273,189,95686,1,2,0:0:0:0:
190,83,95829,2,0,P|152:94|113:104,1,79.050002472725,8|0,0:0|0:0,0:0:0:0:
102,93,96043,1,8,0:0:0:0:
88,84,96115,6,0,P|54:148|114:187,1,158.10000494545,6|8,0:0|0:0,0:0:0:0:
104,345,96543,2,0,P|157:319|215:305,1,118.575003709087,2|0,0:0|0:0,0:0:0:0:
242,323,96829,1,2,0:0:0:0:
280,169,96972,1,8,0:0:0:0:
396,277,97115,2,0,P|405:315|416:353,1,79.050002472725,2|0,0:0|0:0,0:0:0:0:
304,152,97401,2,0,P|294:190|283:228,1,79.050002472725,2|8,0:0|0:0,0:0:0:0:
390,6,97686,6,0,P|408:82|430:158,1,158.10000494545,2|2,0:0|0:0,0:0:0:0:
472,297,98115,2,0,P|433:287|395:276,1,79.050002472725,8|0,0:0|0:0,0:0:0:0:
390,261,98329,1,8,0:0:0:0:
378,246,98401,6,0,P|302:238|254:296,1,158.10000494545,6|8,0:0|0:0,0:0:0:0:
116,374,98829,2,0,B|127:314|127:314|115:257,1,118.575003709087,2|0,0:0|0:0,0:0:0:0:
87,266,99115,1,2,0:0:0:0:
211,379,99258,1,8,0:0:0:0:
292,243,99401,6,0,B|277:163|277:163|293:88,1,158.10000494545,2|2,0:0|0:0,0:0:0:0:
159,4,99829,2,0,P|164:42|171:81,1,79.050002472725,8|2,0:0|0:0,0:0:0:0:
144,219,100115,1,0,0:0:0:0:
53,132,100258,1,2,0:0:0:0:
38,347,100401,2,0,P|33:309|26:270,1,79.050002472725,8|0,0:0|0:0,0:0:0:0:
13,236,100615,1,8,0:0:0:0:
13,236,100686,6,0,B|71:224|71:224|103:242|103:242|164:231,1,158.10000494545,6|8,0:0|0:0,0:0:0:0:
301,206,101115,1,2,0:0:0:0:
208,78,101258,1,0,0:0:0:0:
361,122,101401,1,2,0:0:0:0:
249,293,101543,1,8,0:0:0:0:
125,139,101686,1,2,0:0:0:0:
295,52,101829,6,0,L|283:130,1,79.050002472725,8|2,0:0|0:0,0:0:0:0:
267,140,102043,1,2,0:0:0:0:
258,155,102115,1,8,0:0:0:0:
405,271,102258,2,0,P|326:279|248:292,1,158.10000494545,2|2,0:0|0:0,0:0:0:0:
89,191,102686,1,12,0:0:0:0:
77,178,102972,5,6,0:0:0:0:
191,206,103115,1,0,0:0:0:0:
273,117,103258,1,2,0:0:0:0:
392,271,103401,2,0,P|318:277|245:289,1,147.900001241226,8|2,0:0|0:0,0:0:0:0:
114,347,103829,2,0,P|106:310|101:274,1,73.9500006206131,8|0,0:0|0:0,0:0:0:0:
142,162,104115,5,0,0:0:0:0:
10,230,104258,1,2,0:0:0:0:
8,82,104401,1,8,0:0:0:0:
107,68,104543,1,0,0:0:0:0:
229,129,104686,2,0,P|237:92|242:56,1,73.9500006206131,2|2,0:0|0:0,0:0:0:0:
168,0,104972,1,8,0:0:0:0:
69,174,105258,6,0,P|106:166|142:161,1,73.9500006206131,6|0,0:0|0:0,0:0:0:0:
262,229,105543,1,2,0:0:0:0:
327,114,105686,2,0,B|361:154|361:154|456:164,1,147.900001241226,8|2,0:0|0:0,0:0:0:0:
507,86,106115,1,8,0:0:0:0:
503,253,106258,6,0,L|429:259,1,73.9500006206131,2|0,0:0|0:0,0:0:0:0:
354,342,106543,1,2,0:0:0:0:
307,227,106686,1,8,0:0:0:0:
203,297,106829,2,0,P|189:262|173:229,1,73.9500006206131,2|0,0:0|0:0,0:0:0:0:
110,350,107115,1,2,0:0:0:0:
29,252,107258,1,8,0:0:0:0:
29,252,107329,1,2,0:0:0:0:
29,252,107401,1,2,0:0:0:0:
29,252,107472,1,2,0:0:0:0:
29,252,107543,6,0,P|32:215|39:178,1,73.9500006206131,6|0,0:0|0:0,0:0:0:0:
0,53,107829,1,2,0:0:0:0:
127,2,107972,2,0,P|133:38|137:75,1,73.9500006206131,8|0,0:0|0:0,0:0:0:0:
126,205,108258,1,2,0:0:0:0:
241,62,108401,2,0,P|231:97|223:133,1,73.9500006206131,8|0,0:0|0:0,0:0:0:0:
175,285,108686,6,0,P|210:273|246:264,1,73.9500006206131,0|2,0:0|0:0,0:0:0:0:
327,314,108972,1,8,0:0:0:0:
357,169,109115,1,0,0:0:0:0:
437,291,109258,1,2,0:0:0:0:
512,209,109401,1,2,0:0:0:0:
454,108,109543,2,0,P|461:71|464:34,1,73.9500006206131,8|0,0:0|0:0,0:0:0:0:
357,169,109829,6,0,P|360:205|367:242,1,73.9500006206131,2|0,0:0|0:0,0:0:0:0:
437,291,110115,1,2,0:0:0:0:
327,359,110258,2,0,B|294:336|255:326|261:364|225:347|189:323,1,147.900001241226,8|2,0:0|0:0,0:0:0:0:
63,352,110686,2,0,P|69:315|73:278,1,73.9500006206131,8|2,0:0|0:0,0:0:0:0:
46,143,110972,5,0,0:0:0:0:
156,231,111115,1,2,0:0:0:0:
207,80,111258,1,8,0:0:0:0:
105,26,111401,2,0,P|113:62|120:99,1,73.9500006206131,2|0,0:0|0:0,0:0:0:0:
229,169,111686,1,2,0:0:0:0:
309,53,111829,1,8,0:0:0:0:
309,53,111901,1,0,0:0:0:0:
309,53,111972,1,2,0:0:0:0:
309,53,112043,1,2,0:0:0:0:
309,53,112115,6,0,L|381:38,1,73.9500006206131,6|0,0:0|0:0,0:0:0:0:
487,115,112401,1,2,0:0:0:0:
382,203,112543,2,0,P|388:166|397:130,1,73.9500006206131,8|0,0:0|0:0,0:0:0:0:
512,224,112829,1,2,0:0:0:0:
411,308,112972,1,8,0:0:0:0:
290,222,113115,1,2,0:0:0:0:
188,289,113258,6,0,P|152:296|117:306,1,73.9500006206131,0|2,0:0|0:0,0:0:0:0:
76,191,113543,2,0,P|50:218|27:246,1,73.9500006206131,8|0,0:0|0:0,0:0:0:0:
177,192,113829,1,2,0:0:0:0:
38,100,113972,1,2,0:0:0:0:
120,0,114115,1,8,0:0:0:0:
255,60,114401,6,0,P|257:97|263:134,1,73.9500006206131,6|0,0:0|0:0,0:0:0:0:
376,188,114686,1,2,0:0:0:0:
490,57,114829,2,0,P|420:82|346:100,1,147.900001241226,8|2,0:0|0:0,0:0:0:0:
211,225,115258,2,0,P|246:235|283:242,1,73.9500006206131,8|2,0:0|0:0,0:0:0:0:
419,247,115543,6,0,P|396:217|375:187,1,73.9500006206131,0|2,0:0|0:0,0:0:0:0:
364,77,115829,1,8,0:0:0:0:
268,21,115972,2,0,B|228:32|198:63|198:63|190:128,1,147.900001241226,2|2,0:0|0:0,0:0:0:0:
235,250,116401,1,8,0:0:0:0:
235,250,116472,1,2,0:0:0:0:
235,250,116543,1,2,0:0:0:0:
235,250,116615,1,2,0:0:0:0:
235,250,116686,6,0,P|200:240|163:233,1,73.9500006206131,6|0,0:0|0:0,0:0:0:0:
56,277,116972,1,2,0:0:0:0:
36,184,117115,2,0,P|71:171|105:157,1,73.9500006206131,8|0,0:0|0:0,0:0:0:0:
126,56,117401,1,2,0:0:0:0:
214,4,117543,2,0,P|226:38|241:72,1,73.9500006206131,8|2,0:0|0:0,0:0:0:0:
316,155,117829,5,0,0:0:0:0:
400,47,117972,1,2,0:0:0:0:
472,194,118115,1,8,0:0:0:0:
377,251,118258,2,0,L|305:266,1,73.9500006206131,0|2,0:0|0:0,0:0:0:0:
255,345,118543,1,2,0:0:0:0:
167,279,118686,2,0,P|181:245|194:210,1,73.9500006206131,8|0,0:0|0:0,0:0:0:0:
148,89,118972,5,6,0:0:0:0:
51,186,119115,1,0,0:0:0:0:
238,126,119258,1,2,0:0:0:0:
351,4,119401,2,0,P|346:77|333:150,1,147.900001241226,8|2,0:0|0:0,0:0:0:0:
224,31,119829,1,8,0:0:0:0:
141,162,119972,6,0,P|142:125|147:88,1,73.9500006206131,6|2,0:0|0:0,0:0:0:0:
15,56,120258,1,2,0:0:0:0:
51,186,120401,2,0,P|55:222|57:259,1,73.9500006206131,8|2,0:0|0:0,0:0:0:0:
44,270,120615,1,2,0:0:0:0:
37,284,120686,1,6,0:0:0:0:
146,249,120829,1,2,0:0:0:0:
216,360,120972,1,8,0:0:0:0:
273,227,121115,1,2,0:0:0:0:
260,237,121186,1,2,0:0:0:0:
245,244,121258,5,2,0:0:0:0:
331,63,130401,6,0,P|341:90|349:116,1,55.2499974708558,10|0,0:0|0:0,0:0:0:0:
282,176,130686,2,0,P|306:189|330:204,1,55.2499974708558,10|0,0:0|0:0,0:0:0:0:
366,285,130972,2,0,P|310:289|256:296,1,110.499994941712,10|10,0:0|0:0,0:0:0:0:
237,311,131543,6,0,P|210:303|183:297,1,55.2499974708558,10|0,0:0|0:0,0:0:0:0:
104,337,131829,1,10,0:0:0:0:
104,337,131972,1,0,0:0:0:0:
19,310,132115,2,0,L|28:255,1,55.2499974708558,10|0,0:0|0:0,0:0:0:0:
41,177,132401,2,0,P|47:203|54:230,1,55.2499974708558,10|0,0:0|0:0,0:0:0:0:
138,181,132686,6,0,L|192:190,1,55.2499974708558,10|0,0:0|0:0,0:0:0:0:
178,100,132972,2,0,P|201:85|223:68,1,55.2499974708558,10|0,0:0|0:0,0:0:0:0:
285,1,133258,2,0,P|336:13|393:22,1,110.499994941712,10|10,0:0|0:0,0:0:0:0:
420,21,133829,5,10,0:0:0:0:
484,82,133972,2,0,P|470:105|458:130,1,55.2499974708558,0|10,0:0|0:0,0:0:0:0:
456,220,134258,2,0,P|401:228|347:241,1,110.499994941712,0|0,0:0|0:0,0:0:0:0:
287,301,134686,1,10,0:0:0:0:
267,291,134972,6,0,L|256:237,1,55.2499974708558,10|0,0:0|0:0,0:0:0:0:
186,150,135258,2,0,P|181:176|175:203,1,55.2499974708558,10|0,0:0|0:0,0:0:0:0:
132,282,135543,2,0,P|76:291|23:306,1,110.499994941712,10|10,0:0|0:0,0:0:0:0:
3,328,136115,6,0,P|29:336|55:345,1,55.2499974708558,10|0,0:0|0:0,0:0:0:0:
133,384,136401,1,10,0:0:0:0:
133,384,136543,1,0,0:0:0:0:
203,336,136686,2,0,L|198:280,1,55.2499974708558,10|0,0:0|0:0,0:0:0:0:
169,264,136972,2,0,P|182:240|194:215,1,55.2499974708558,10|0,0:0|0:0,0:0:0:0:
151,126,137258,5,10,0:0:0:0:
77,179,137401,2,0,P|69:152|59:126,1,55.2499974708558,0|10,0:0|0:0,0:0:0:0:
0,17,137686,2,0,P|52:34|106:46,1,110.499994941712,0|0,0:0|0:0,0:0:0:0:
174,116,138115,2,0,P|182:89|192:63,1,55.2499974708558,10|0,0:0|0:0,0:0:0:0:
268,14,138401,5,10,0:0:0:0:
328,83,138543,2,0,L|383:75,1,55.2499974708558,0|10,0:0|0:0,0:0:0:0:
490,50,138829,2,0,P|480:76|469:101,1,55.2499974708558,0|10,0:0|0:0,0:0:0:0:
410,175,139115,1,0,0:0:0:0:
410,175,139186,1,2,0:0:0:0:
410,175,139258,2,0,P|418:201|424:227,1,55.2499974708558,10|2,0:0|0:0,0:0:0:0:
431,233,139472,1,2,0:0:0:0:
437,236,139543,6,0,L|396:274,1,55.2499974708558,10|0,0:0|0:0,0:0:0:0:
410,364,139829,2,0,L|355:356,1,55.2499974708558,10|0,0:0|0:0,0:0:0:0:
270,381,140115,2,0,P|262:326|250:272,1,110.499994941712,10|10,0:0|0:0,0:0:0:0:
231,253,140686,6,0,P|244:228|256:203,1,55.2499974708558,10|0,0:0|0:0,0:0:0:0:
171,188,140972,1,10,0:0:0:0:
171,188,141115,1,0,0:0:0:0:
225,118,141258,2,0,P|252:112|279:106,1,55.2499974708558,10|0,0:0|0:0,0:0:0:0:
355,105,141543,2,0,P|329:94|302:86,1,55.2499974708558,10|0,0:0|0:0,0:0:0:0:
271,0,141829,6,0,P|248:17|224:32,1,55.2499974708558,10|0,0:0|0:0,0:0:0:0:
141,12,142115,1,10,0:0:0:0:
141,12,142258,1,0,0:0:0:0:
173,106,142401,2,0,P|120:94|65:86,1,110.499994941712,10|10,0:0|0:0,0:0:0:0:
43,107,142972,5,10,0:0:0:0:
43,198,143115,2,0,P|68:186|96:178,1,55.2499974708558,0|10,0:0|0:0,0:0:0:0:
160,236,143401,2,0,P|203:201|244:164,1,110.499994941712,0|0,0:0|0:0,0:0:0:0:
302,233,143829,1,10,0:0:0:0:
322,219,144115,6,0,P|327:191|336:165,1,55.2499974708558,10|0,0:0|0:0,0:0:0:0:
421,148,144401,2,0,P|411:122|405:95,1,55.2499974708558,10|0,0:0|0:0,0:0:0:0:
481,47,144686,2,0,P|497:99|510:153,1,110.499994941712,10|10,0:0|0:0,0:0:0:0:
484,164,145258,6,0,P|475:190|465:216,1,55.2499974708558,10|0,0:0|0:0,0:0:0:0:
399,272,145543,1,10,0:0:0:0:
399,272,145686,1,0,0:0:0:0:
348,195,145829,2,0,L|283:204,1,55.2499974708558,10|0,0:0|0:0,0:0:0:0:
284,292,146115,2,0,L|232:271,1,55.2499974708558,10|0,0:0|0:0,0:0:0:0:
149,305,146401,5,10,0:0:0:0:
206,141,146829,5,0,0:0:0:0:
26,190,147258,5,0,0:0:0:0:
0,49,147543,5,0,0:0:0:0:
123,195,148115,5,0,0:0:0:0:
123,195,148686,6,0,P|155:203|189:210,1,68,10|0,0:0|0:0,0:0:0:0:
202,202,148901,1,2,0:0:0:0:
216,199,148972,1,2,0:0:0:0:
171,291,149115,1,2,0:0:0:0:
235,361,149258,1,0,0:0:0:0:
340,259,149401,2,0,P|308:267|274:274,1,68,2|2,0:0|0:0,0:0:0:0:
216,199,149686,1,0,0:0:0:0:
343,102,149829,6,0,P|334:135|327:168,1,68,10|0,0:0|0:0,0:0:0:0:
312,168,150043,1,2,0:0:0:0:
297,165,150115,1,2,0:0:0:0:
261,52,150258,1,2,0:0:0:0:
406,21,150401,1,0,0:0:0:0:
442,163,150543,2,0,P|434:196|425:229,1,68,2|0,0:0|0:0,0:0:0:0:
506,288,150829,1,8,0:0:0:0:
388,357,150972,6,0,L|322:340,1,68,10|0,0:0|0:0,0:0:0:0:
310,351,151186,1,2,0:0:0:0:
295,355,151258,1,2,0:0:0:0:
274,266,151401,1,2,0:0:0:0:
190,225,151543,2,0,P|158:237|126:248,1,68,0|2,0:0|0:0,0:0:0:0:
253,153,151829,2,0,P|220:142|188:130,1,68,2|0,0:0|0:0,0:0:0:0:
75,170,152115,6,0,P|68:136|60:103,1,68,10|0,0:0|0:0,0:0:0:0:
73,95,152329,1,2,0:0:0:0:
81,82,152401,1,2,0:0:0:0:
1,37,152543,1,2,0:0:0:0:
133,9,152686,1,0,0:0:0:0:
210,51,152829,1,2,0:0:0:0:
336,0,152972,1,0,0:0:0:0:
268,118,153115,1,8,0:0:0:0:
404,115,153258,6,0,P|411:148|418:181,1,68,10|0,0:0|0:0,0:0:0:0:
413,195,153472,1,2,0:0:0:0:
403,207,153543,1,2,0:0:0:0:
500,275,153686,1,2,0:0:0:0:
428,370,153829,2,0,L|361:355,1,68,0|2,0:0|0:0,0:0:0:0:
250,304,154115,2,0,P|255:337|267:369,1,68,2|0,0:0|0:0,0:0:0:0:
148,315,154401,6,0,P|160:283|165:249,1,68,10|0,0:0|0:0,0:0:0:0:
152,241,154615,1,2,0:0:0:0:
142,228,154686,1,2,0:0:0:0:
64,276,154829,1,2,0:0:0:0:
14,168,154972,1,0,0:0:0:0:
156,134,155115,1,2,0:0:0:0:
192,46,155258,1,0,0:0:0:0:
92,3,155401,1,8,0:0:0:0:
253,10,155543,6,0,P|246:69|192:46,1,136,10|2,0:0|0:0,0:0:0:0:
222,190,155972,2,0,P|164:152|102:126,1,136,2|2,0:0|0:0,0:0:0:0:
1,113,156401,2,0,P|11:145|16:178,1,68,2|0,0:0|0:0,0:0:0:0:
152,251,156686,6,0,P|125:272|102:297,1,68,8|0,0:0|0:0,0:0:0:0:
88,290,156901,1,2,0:0:0:0:
76,280,156972,1,2,0:0:0:0:
175,352,157115,1,2,0:0:0:0:
315,267,157258,2,0,P|267:231|246:285,1,136,2|0,0:0|0:0,0:0:0:0:
334,284,157829,6,0,P|365:275|401:268,1,68,10|0,0:0|0:0,0:0:0:0:
411,278,158043,1,2,0:0:0:0:
424,284,158115,1,2,0:0:0:0:
388,177,158258,1,2,0:0:0:0:
490,87,158401,1,0,0:0:0:0:
401,91,158543,2,0,P|368:79|337:66,1,68,2|2,0:0|0:0,0:0:0:0:
257,104,158829,1,0,0:0:0:0:
165,4,158972,6,0,P|172:37|176:70,1,68,10|0,0:0|0:0,0:0:0:0:
162,77,159186,1,2,0:0:0:0:
146,80,159258,1,2,0:0:0:0:
12,111,159401,1,2,0:0:0:0:
126,185,159543,1,0,0:0:0:0:
56,246,159686,2,0,P|51:279|43:311,1,68,2|0,0:0|0:0,0:0:0:0:
0,384,159972,1,8,0:0:0:0:
152,379,160115,6,0,P|144:345|139:312,1,68,10|0,0:0|0:0,0:0:0:0:
144,297,160329,1,2,0:0:0:0:
153,284,160401,1,2,0:0:0:0:
260,337,160543,1,2,0:0:0:0:
333,244,160686,2,0,P|340:210|345:177,1,68,0|2,0:0|0:0,0:0:0:0:
271,39,160972,2,0,P|275:72|283:105,1,68,2|0,0:0|0:0,0:0:0:0:
242,246,161258,6,0,P|211:230|182:212,1,68,10|0,0:0|0:0,0:0:0:0:
172,201,161472,1,2,0:0:0:0:
163,188,161543,1,2,0:0:0:0:
188,103,161686,1,2,0:0:0:0:
100,119,161829,1,0,0:0:0:0:
13,28,161972,1,2,0:0:0:0:
31,175,162115,6,0,P|25:234|11:291,1,118.999996368408,8|12,0:0|0:0,0:0:0:0:
0,318,162686,5,2,0:0:0:0:
125,269,162829,1,0,0:0:0:0:
175,355,162972,1,2,0:0:0:0:
256,242,163115,1,0,0:0:0:0:
185,46,163258,2,0,P|191:105|205:162,1,118.999996368408,2|2,0:0|0:0,0:0:0:0:
233,153,163829,5,2,0:0:0:0:
100,86,163972,1,0,0:0:0:0:
275,1,164115,2,0,L|397:17,1,118.999996368408,2|8,0:0|0:0,0:0:0:0:
418,40,164472,1,2,0:0:0:0:
418,40,164543,1,2,0:0:0:0:
418,40,164615,1,2,0:0:0:0:
418,40,164686,5,2,0:0:0:0:
387,126,164972,5,2,0:0:0:0:
314,221,165258,5,2,0:0:0:0:
192,271,165543,5,2,0:0:0:0:
43,253,165829,6,0,P|36:185|33:117,1,136,12|2,0:0|0:0,0:0:0:0:
175,336,166258,2,0,P|192:270|205:203,1,136,12|2,0:0|0:0,0:0:0:0:
160,41,166686,1,8,0:0:0:0:
160,41,166758,1,8,0:0:0:0:
160,41,166829,1,8,0:0:0:0:
160,41,166901,1,8,0:0:0:0:
160,41,166972,6,0,P|144:76|123:109,1,79.050002472725,6|0,0:0|0:0,0:0:0:0:
44,249,167258,2,0,P|100:231|158:217,1,118.575003709087,8|0,0:0|0:0,0:0:0:0:
173,194,167543,1,2,0:0:0:0:
255,294,167686,1,2,0:0:0:0:
292,112,167829,2,0,P|289:151|279:189,1,79.050002472725,8|0,0:0|0:0,0:0:0:0:
183,341,168115,6,0,P|259:321|337:309,1,158.10000494545,2|8,0:0|0:0,0:0:0:0:
482,352,168543,1,2,0:0:0:0:
434,244,168686,2,0,P|440:204|449:166,1,79.050002472725,0|2,0:0|0:0,0:0:0:0:
485,32,168972,2,0,B|446:43|446:43|419:71,1,79.050002472725,8|0,0:0|0:0,0:0:0:0:
219,18,169258,6,0,B|268:3|268:3|297:48|293:105,1,158.10000494545,6|8,0:0|0:0,0:0:0:0:
254,210,169686,1,0,0:0:0:0:
181,109,169829,1,2,0:0:0:0:
111,238,169972,1,2,0:0:0:0:
109,33,170115,2,0,P|95:70|85:109,1,79.050002472725,8|0,0:0|0:0,0:0:0:0:
192,267,170401,6,0,P|161:334|88:324,1,158.10000494545,2|8,0:0|0:0,0:0:0:0:
31,186,170829,1,2,0:0:0:0:
111,238,170972,2,0,P|126:201|145:166,1,79.050002472725,0|2,0:0|0:0,0:0:0:0:
207,344,171258,2,0,P|197:305|191:266,1,79.050002472725,8|0,0:0|0:0,0:0:0:0:
219,110,171543,6,0,P|254:128|291:143,1,79.050002472725,6|0,0:0|0:0,0:0:0:0:
453,200,171829,2,0,P|395:213|338:232,1,118.575003709087,8|0,0:0|0:0,0:0:0:0:
314,245,172115,1,2,0:0:0:0:
385,103,172258,1,2,0:0:0:0:
471,292,172401,2,0,B|484:254|484:254|477:216,1,79.050002472725,8|0,0:0|0:0,0:0:0:0:
454,65,172686,6,0,P|420:85|385:104,1,79.050002472725,2|0,0:0|0:0,0:0:0:0:
255,35,172972,1,8,0:0:0:0:
172,156,173115,2,0,P|189:233|200:311,1,158.10000494545,2|2,0:0|0:0,0:0:0:0:
22,292,173543,2,0,P|27:252|35:214,1,79.050002472725,8|0,0:0|0:0,0:0:0:0:
87,11,173829,6,0,B|134:12|171:27|143:52|188:65|230:63,1,158.10000494545,6|8,0:0|0:0,0:0:0:0:
356,2,174258,1,0,0:0:0:0:
437,114,174401,2,0,B|444:152|444:152|431:190,1,79.050002472725,2|2,0:0|0:0,0:0:0:0:
463,331,174686,2,0,P|424:320|386:312,1,79.050002472725,8|0,0:0|0:0,0:0:0:0:
221,383,174972,6,0,P|207:305|199:226,1,158.10000494545,2|8,0:0|0:0,0:0:0:0:
245,74,175401,1,2,0:0:0:0:
106,191,175543,1,0,0:0:0:0:
281,167,175686,1,2,0:0:0:0:
140,28,175829,2,0,P|147:66|152:105,1,79.050002472725,8|0,0:0|0:0,0:0:0:0:
207,310,176115,6,0,P|170:295|132:283,1,79.050002472725,6|0,0:0|0:0,0:0:0:0:
64,142,176401,2,0,B|140:150|140:150|173:125,1,118.575003709087,8|0,0:0|0:0,0:0:0:0:
152,106,176686,1,2,0:0:0:0:
259,152,176829,1,2,0:0:0:0:
326,9,176972,2,0,L|404:21,1,79.050002472725,8|0,0:0|0:0,0:0:0:0:
476,208,177258,6,0,L|319:233,1,158.10000494545,2|8,0:0|0:0,0:0:0:0:
232,322,177686,1,2,0:0:0:0:
131,229,177829,2,0,P|128:268|122:307,1,79.050002472725,0|2,0:0|0:0,0:0:0:0:
35,158,178115,2,0,P|73:149|111:138,1,79.050002472725,8|0,0:0|0:0,0:0:0:0:
66,0,178401,6,0,P|142:18|221:29,1,158.10000494545,6|8,0:0|0:0,0:0:0:0:
389,3,178829,1,0,0:0:0:0:
314,142,178972,1,2,0:0:0:0:
489,49,179115,1,2,0:0:0:0:
481,220,179258,2,0,P|469:182|460:143,1,79.050002472725,8|0,0:0|0:0,0:0:0:0:
248,224,179543,6,0,P|286:236|325:245,1,79.050002472725,2|0,0:0|0:0,0:0:0:0:
383,98,179829,1,8,0:0:0:0:
204,63,179972,2,0,P|215:100|224:139,1,79.050002472725,2|0,0:0|0:0,0:0:0:0:
175,280,180258,1,2,0:0:0:0:
36,221,180401,2,0,P|48:183|57:144,1,79.050002472725,8|0,0:0|0:0,0:0:0:0:
186,40,180686,6,0,P|242:58|301:73,1,118.575003709087,6|0,0:0|0:0,0:0:0:0:
312,100,180972,2,0,P|349:87|387:78,1,79.050002472725,8|0,0:0|0:0,0:0:0:0:
512,123,181258,1,2,0:0:0:0:
448,0,181401,1,2,0:0:0:0:
431,157,181543,2,0,P|435:196|442:235,1,79.050002472725,8|0,0:0|0:0,0:0:0:0:
497,331,181829,5,2,0:0:0:0:
366,287,181972,1,0,0:0:0:0:
414,367,182115,1,8,0:0:0:0:
289,240,182258,1,2,0:0:0:0:
202,352,182401,2,0,P|203:312|208:273,1,79.050002472725,0|2,0:0|0:0,0:0:0:0:
288,128,182686,2,0,P|252:144|214:157,1,79.050002472725,8|0,0:0|0:0,0:0:0:0:
87,253,182972,6,0,P|75:194|68:135,1,118.575003709087,6|0,0:0|0:0,0:0:0:0:
99,133,183258,2,0,P|106:94|112:55,1,79.050002472725,8|0,0:0|0:0,0:0:0:0:
252,4,183543,1,2,0:0:0:0:
197,114,183686,1,2,0:0:0:0:
349,171,183829,1,8,0:0:0:0:
411,129,184115,6,0,P|334:144|278:198,1,158.10000494545,8|2,0:0|0:0,0:0:0:0:
290,382,184543,2,0,B|227:337|227:337|147:320,1,158.10000494545,8|2,0:0|0:0,0:0:0:0:
0,356,184972,1,8,0:0:0:0:
0,356,185043,1,8,0:0:0:0:
0,356,185115,1,8,0:0:0:0:
0,356,185186,1,8,0:0:0:0:
0,356,185258,6,0,P|12:277|20:199,1,158.10000494545,6|8,0:0|0:0,0:0:0:0:
101,40,185686,2,0,P|111:98|125:155,1,118.575003709087,2|0,0:0|0:0,0:0:0:0:
151,167,185972,1,2,0:0:0:0:
26,108,186115,1,8,0:0:0:0:
203,90,186258,6,0,P|208:50|217:12,1,79.050002472725,2|0,0:0|0:0,0:0:0:0:
353,158,186543,2,0,P|315:171|280:188,1,79.050002472725,2|8,0:0|0:0,0:0:0:0:
370,57,186829,1,2,0:0:0:0:
484,136,186972,1,0,0:0:0:0:
415,228,187115,1,2,0:0:0:0:
292,89,187258,1,8,0:0:0:0:
241,267,187401,1,0,0:0:0:0:
241,267,187472,1,8,0:0:0:0:
241,267,187543,6,0,P|205:330|265:370,1,158.10000494545,6|8,0:0|0:0,0:0:0:0:
440,326,187972,2,0,P|381:320|324:301,1,118.575003709087,2|0,0:0|0:0,0:0:0:0:
340,276,188258,1,2,0:0:0:0:
264,370,188401,1,8,0:0:0:0:
225,208,188543,2,0,P|264:201|301:189,1,79.050002472725,2|0,0:0|0:0,0:0:0:0:
432,81,188829,2,0,P|392:75|354:65,1,79.050002472725,2|8,0:0|0:0,0:0:0:0:
186,123,189115,6,0,P|120:86|113:11,1,158.10000494545,2|2,0:0|0:0,0:0:0:0:
225,207,189543,2,0,P|218:246|208:285,1,79.050002472725,8|0,0:0|0:0,0:0:0:0:
216,297,189758,1,8,0:0:0:0:
225,306,189829,6,0,P|256:233|284:159,1,158.10000494545,6|8,0:0|0:0,0:0:0:0:
402,35,190258,2,0,P|408:93|416:152,1,118.575003709087,2|0,0:0|0:0,0:0:0:0:
437,172,190543,1,2,0:0:0:0:
317,78,190686,1,8,0:0:0:0:
353,243,190829,6,0,P|385:307|451:280,1,158.10000494545,2|2,0:0|0:0,0:0:0:0:
512,330,191258,2,0,P|475:343|436:350,1,79.050002472725,8|2,0:0|0:0,0:0:0:0:
322,316,191543,1,0,0:0:0:0:
371,167,191686,1,2,0:0:0:0:
215,141,191829,2,0,P|221:179|235:217,1,79.050002472725,8|0,0:0|0:0,0:0:0:0:
246,225,192043,1,8,0:0:0:0:
255,235,192115,6,0,B|204:209|151:219|151:219|141:269,1,158.10000494545,6|8,0:0|0:0,0:0:0:0:
130,359,192543,1,2,0:0:0:0:
67,194,192686,1,0,0:0:0:0:
216,321,192829,1,2,0:0:0:0:
282,135,192972,1,8,0:0:0:0:
211,43,193115,1,2,0:0:0:0:
401,54,193258,6,0,P|391:92|387:131,1,79.050002472725,8|2,0:0|0:0,0:0:0:0:
403,136,193472,1,2,0:0:0:0:
418,137,193543,1,2,0:0:0:0:
512,302,193686,2,0,P|434:316|360:343,1,158.10000494545,8|2,0:0|0:0,0:0:0:0:
219,255,194115,6,0,B|257:235|257:235|326:249,1,113.899994612274,2|0,0:0|0:0,0:0:0:0:
326,249,195401,1,10,0:0:0:0:
313,256,195472,1,10,0:0:0:0:
305,268,195543,5,10,0:0:0:0:
242,211,195686,2,0,P|218:195|191:184,1,56.9499973061372,2|0,0:0|0:0,0:0:0:0:
94,205,195972,2,0,P|118:251|76:283,1,113.899994612274,2|2,0:0|0:0,0:0:0:0:
8,224,196401,2,0,P|15:182|18:139,1,85.4249959592058,2|0,0:0|0:0,0:0:0:0:
6,116,196686,5,10,0:0:0:0:
6,116,196829,1,0,0:0:0:0:
87,85,196972,2,0,P|112:98|138:107,1,56.9499973061372,10|0,0:0|0:0,0:0:0:0:
150,18,197258,1,10,0:0:0:0:
224,75,197401,2,0,P|232:102|244:127,1,56.9499973061372,0|10,0:0|0:0,0:0:0:0:
326,188,197686,6,0,L|338:131,1,56.9499973061372,0|10,0:0|0:0,0:0:0:0:
420,99,197972,2,0,L|408:42,1,56.9499973061372,0|10,0:0|0:0,0:0:0:0:
330,14,198258,1,0,0:0:0:0:
496,54,198401,1,10,0:0:0:0:
426,194,198543,1,2,0:0:0:0:
426,194,198615,1,2,0:0:0:0:
426,194,198686,1,10,0:0:0:0:
479,261,198829,1,0,0:0:0:0:
445,379,198972,5,10,0:0:0:0:
445,379,199115,1,0,0:0:0:0:
396,298,199258,2,0,P|372:311|345:321,1,56.9499973061372,10|0,0:0|0:0,0:0:0:0:
256,320,199543,1,10,0:0:0:0:
249,221,199686,2,0,P|273:234|300:244,1,56.9499973061372,0|10,0:0|0:0,0:0:0:0:
172,272,199972,6,0,P|162:245|148:220,1,56.9499973061372,0|10,0:0|0:0,0:0:0:0:
59,201,200258,1,0,0:0:0:0:
163,135,200401,1,10,0:0:0:0:
123,21,200543,1,0,0:0:0:0:
270,69,200686,1,10,0:0:0:0:
306,153,200829,1,2,0:0:0:0:
306,153,200901,1,2,0:0:0:0:
305,153,200972,2,0,P|347:141|389:137,1,85.4249959592058,10|0,0:0|0:0,0:0:0:0:
408,113,201258,5,10,0:0:0:0:
408,113,201401,1,0,0:0:0:0:
463,180,201543,2,0,P|456:209|453:236,1,56.9499973061372,10|0,0:0|0:0,0:0:0:0:
491,316,201829,1,10,0:0:0:0:
413,360,201972,2,0,P|388:346|361:335,1,56.9499973061372,0|10,0:0|0:0,0:0:0:0:
270,295,202258,6,0,L|275:351,1,56.9499973061372,0|10,0:0|0:0,0:0:0:0:
189,241,202543,2,0,L|176:296,1,56.9499973061372,0|10,0:0|0:0,0:0:0:0:
98,353,202829,1,0,0:0:0:0:
26,267,202972,1,10,0:0:0:0:
75,166,203115,1,2,0:0:0:0:
75,166,203186,1,2,0:0:0:0:
75,166,203258,1,10,0:0:0:0:
38,83,203401,1,0,0:0:0:0:
66,45,203543,5,10,0:0:0:0:
66,45,203686,1,0,0:0:0:0:
129,97,203829,2,0,L|184:84,1,56.9499973061372,10|0,0:0|0:0,0:0:0:0:
227,4,204115,1,10,0:0:0:0:
303,68,204258,2,0,P|287:91|276:118,1,56.9499973061372,0|10,0:0|0:0,0:0:0:0:
219,232,204543,6,0,L|274:245,1,56.9499973061372,0|10,0:0|0:0,0:0:0:0:
271,340,204829,2,0,P|295:326|323:319,1,56.9499973061372,0|10,0:0|0:0,0:0:0:0:
357,195,205115,2,0,L|370:250,1,56.9499973061372,0|0,0:0|0:0,0:0:0:0:
370,250,205829,6,0,P|342:258|314:263,1,56.9499973061372,10|0,0:0|0:0,0:0:0:0:
307,277,206043,1,2,0:0:0:0:
294,286,206115,1,2,0:0:0:0:
255,154,206258,2,0,P|250:182|242:210,1,56.9499973061372,2|0,0:0|0:0,0:0:0:0:
178,266,206543,1,2,0:0:0:0:
198,343,206686,1,2,0:0:0:0:
67,196,206972,6,0,P|95:188|123:183,1,56.9499973061372,10|0,0:0|0:0,0:0:0:0:
139,185,207186,1,2,0:0:0:0:
155,188,207258,2,0,P|160:162|170:133,1,56.9499973061372,2|2,0:0|0:0,0:0:0:0:
229,66,207543,2,0,P|253:82|278:96,1,56.9499973061372,0|2,0:0|0:0,0:0:0:0:
360,123,207829,1,0,0:0:0:0:
410,52,207972,1,8,0:0:0:0:
448,138,208115,6,0,L|451:195,1,56.9499973061372,10|0,0:0|0:0,0:0:0:0:
464,200,208329,1,2,0:0:0:0:
474,209,208401,1,2,0:0:0:0:
512,286,208543,2,0,P|485:295|458:306,1,56.9499973061372,2|0,0:0|0:0,0:0:0:0:
401,368,208829,1,2,0:0:0:0:
324,334,208972,1,2,0:0:0:0:
282,203,209258,6,0,P|278:231|280:259,1,56.9499973061372,10|0,0:0|0:0,0:0:0:0:
263,274,209472,2,0,P|240:256|215:244,1,56.9499973061372,2|0,0:0|0:0,0:0:0:0:
193,239,209686,1,2,0:0:0:0:
138,166,209829,2,0,P|166:160|193:153,1,56.9499973061372,0|2,0:0|0:0,0:0:0:0:
51,234,210115,2,0,P|79:239|106:246,1,56.9499973061372,0|8,0:0|0:0,0:0:0:0:
121,152,210401,6,0,B|109:110|109:110|75:87,2,85.4249959592058,10|2|2,0:0|0:0|0:0,0:0:0:0:
41,164,210972,1,0,0:0:0:0:
41,164,211115,1,2,0:0:0:0:
31,266,211258,1,2,0:0:0:0:
103,353,211543,6,0,L|167:340,1,56.9499973061372,10|2,0:0|0:0,0:0:0:0:
172,351,211758,1,2,0:0:0:0:
188,355,211829,2,0,P|209:337|227:315,1,56.9499973061372,0|2,0:0|0:0,0:0:0:0:
317,318,212115,2,0,P|305:292|298:264,1,56.9499973061372,0|2,0:0|0:0,0:0:0:0:
342,186,212401,2,0,L|286:174,1,56.9499973061372,0|8,0:0|0:0,0:0:0:0:
211,84,212686,6,0,P|252:76|293:62,2,85.4249959592058,10|2|2,0:0|0:0|0:0,0:0:0:0:
174,0,213258,2,0,P|152:18|129:34,2,56.9499973061372,0|2|2,0:0|0:0|0:0,0:0:0:0:
211,84,213829,6,0,L|268:90,1,56.9499973061372,10|2,0:0|0:0,0:0:0:0:
285,107,214043,2,0,P|308:91|336:82,1,56.9499973061372,2|0,0:0|0:0,0:0:0:0:
358,81,214258,1,2,0:0:0:0:
284,10,214401,1,2,0:0:0:0:
450,69,214972,6,0,L|442:126,1,56.9499973061372,14|0,0:0|0:0,0:0:0:0:
453,134,215186,1,2,0:0:0:0:
464,143,215258,1,2,0:0:0:0:
404,205,215401,1,2,0:0:0:0:
502,279,215543,1,0,0:0:0:0:
414,301,215686,1,2,0:0:0:0:
360,375,215829,1,8,0:0:0:0:
300,244,216115,6,0,L|308:301,1,56.9499973061372,10|0,0:0|0:0,0:0:0:0:
297,309,216329,1,2,0:0:0:0:
286,318,216401,1,2,0:0:0:0:
218,264,216543,1,2,0:0:0:0:
184,379,216686,1,0,0:0:0:0:
99,364,216829,1,2,0:0:0:0:
101,248,216972,1,0,0:0:0:0:
27,303,217115,1,8,0:0:0:0:
16,190,217258,6,0,L|10:133,1,56.9499973061372,10|0,0:0|0:0,0:0:0:0:
18,122,217472,1,2,0:0:0:0:
30,115,217543,1,2,0:0:0:0:
111,152,217686,1,2,0:0:0:0:
194,92,217829,1,0,0:0:0:0:
267,181,217972,1,2,0:0:0:0:
321,64,218115,1,2,0:0:0:0:
461,55,218401,6,0,L|467:112,1,56.9499973061372,10|0,0:0|0:0,0:0:0:0:
459,123,218615,1,2,0:0:0:0:
447,130,218686,1,2,0:0:0:0:
378,73,218829,1,2,0:0:0:0:
267,46,218972,1,0,0:0:0:0:
234,170,219115,1,2,0:0:0:0:
149,219,219258,1,0,0:0:0:0:
108,341,219401,1,2,0:0:0:0:
104,327,219472,1,2,0:0:0:0:
99,314,219543,5,8,0:0:0:0:
99,58,223543,6,0,B|108:112|108:112|113:170,1,113.899994612274
187,303,224115,6,0,L|113:273,1,79.050002472725,6|0,0:0|0:0,0:0:0:0:
210,146,224401,2,0,B|275:120|275:120|290:139|313:148,1,118.575003709087,8|0,0:0|0:0,0:0:0:0:
340,156,224686,1,2,0:0:0:0:
285,29,224829,1,2,0:0:0:0:
453,5,224972,2,0,P|448:42|444:83,1,79.050002472725,8|0,0:0|0:0,0:0:0:0:
512,250,225258,6,0,P|433:257|356:274,1,158.10000494545,2|8,0:0|0:0,0:0:0:0:
256,370,225686,1,2,0:0:0:0:
139,296,225829,2,0,P|148:257|153:218,1,79.050002472725,0|2,0:0|0:0,0:0:0:0:
279,102,226115,2,0,P|245:81|214:56,1,79.050002472725,8|0,0:0|0:0,0:0:0:0:
15,48,226401,6,0,P|42:122|59:199,1,158.10000494545,6|8,0:0|0:0,0:0:0:0:
48,337,226829,1,0,0:0:0:0:
152,218,226972,1,2,0:0:0:0:
277,315,227115,1,2,0:0:0:0:
422,253,227258,2,0,B|460:258|460:258|490:285,1,79.050002472725,8|0,0:0|0:0,0:0:0:0:
302,173,227543,6,0,B|377:157|377:157|420:88,1,158.10000494545,2|8,0:0|0:0,0:0:0:0:
313,0,227972,1,2,0:0:0:0:
223,104,228115,2,0,L|144:91,1,79.050002472725,0|2,0:0|0:0,0:0:0:0:
35,206,228401,2,0,P|73:197|112:193,1,79.050002472725,8|0,0:0|0:0,0:0:0:0:
259,254,228686,6,0,P|251:292|247:332,1,79.050002472725,6|0,0:0|0:0,0:0:0:0:
132,176,228972,2,0,P|135:235|145:293,1,118.575003709087,8|0,0:0|0:0,0:0:0:0:
157,323,229258,1,2,0:0:0:0:
278,237,229401,1,2,0:0:0:0:
203,111,229543,2,0,P|206:71|214:33,1,79.050002472725,8|0,0:0|0:0,0:0:0:0:
346,115,229829,6,0,P|380:93|415:75,1,79.050002472725,2|0,0:0|0:0,0:0:0:0:
479,225,230115,1,8,0:0:0:0:
353,323,230258,2,0,P|276:303|197:294,1,158.10000494545,2|2,0:0|0:0,0:0:0:0:
56,380,230686,2,0,B|38:344|38:344|40:306,1,79.050002472725,8|0,0:0|0:0,0:0:0:0:
0,124,230972,6,0,P|78:114|155:95,1,158.10000494545,6|8,0:0|0:0,0:0:0:0:
283,189,231401,1,0,0:0:0:0:
303,28,231543,2,0,P|340:39|379:47,1,79.050002472725,2|2,0:0|0:0,0:0:0:0:
485,190,231829,2,0,P|450:208|418:229,1,79.050002472725,8|0,0:0|0:0,0:0:0:0:
304,345,232115,6,0,P|290:267|282:188,1,158.10000494545,2|8,0:0|0:0,0:0:0:0:
336,118,232543,1,2,0:0:0:0:
214,87,232686,1,0,0:0:0:0:
159,205,232829,1,2,0:0:0:0:
32,239,232972,2,0,P|23:200|18:161,1,79.050002472725,8|0,0:0|0:0,0:0:0:0:
88,5,233258,6,0,P|107:39|123:75,1,79.050002472725,6|0,0:0|0:0,0:0:0:0:
263,174,233543,2,0,B|243:226|243:226|236:289,1,118.575003709087,8|0,0:0|0:0,0:0:0:0:
266,294,233829,1,2,0:0:0:0:
144,322,233972,1,2,0:0:0:0:
291,300,234115,2,0,B|329:312|329:312|354:341,1,79.050002472725,8|0,0:0|0:0,0:0:0:0:
454,215,234401,6,0,B|427:146|427:146|418:63,1,158.10000494545,2|8,0:0|0:0,0:0:0:0:
503,4,234829,1,2,0:0:0:0:
390,65,234972,2,0,P|352:52|319:31,1,79.050002472725,0|2,0:0|0:0,0:0:0:0:
290,176,235258,2,0,P|252:188|219:209,1,79.050002472725,8|0,0:0|0:0,0:0:0:0:
48,202,235543,6,0,P|55:275|128:289,1,158.10000494545,6|8,0:0|0:0,0:0:0:0:
137,193,235972,1,0,0:0:0:0:
81,58,236115,1,2,0:0:0:0:
0,120,236258,1,2,0:0:0:0:
170,89,236401,2,0,P|180:50|197:14,1,79.050002472725,8|0,0:0|0:0,0:0:0:0:
304,156,236686,6,0,P|294:117|277:81,1,79.050002472725,2|0,0:0|0:0,0:0:0:0:
219,208,236972,1,8,0:0:0:0:
351,250,237115,2,0,P|373:216|402:188,1,79.050002472725,2|0,0:0|0:0,0:0:0:0:
426,335,237401,1,2,0:0:0:0:
295,363,237543,2,0,P|285:324|269:289,1,79.050002472725,8|0,0:0|0:0,0:0:0:0:
140,198,237829,6,0,B|120:250|120:250|113:313,1,118.575003709087,6|0,0:0|0:0,0:0:0:0:
97,338,238115,2,0,P|137:332|175:324,1,79.050002472725,8|0,0:0|0:0,0:0:0:0:
229,213,238401,1,2,0:0:0:0:
100,121,238543,1,2,0:0:0:0:
8,234,238686,2,0,P|48:240|86:248,1,79.050002472725,8|0,0:0|0:0,0:0:0:0:
174,324,238972,5,2,0:0:0:0:
293,281,239115,1,0,0:0:0:0:
229,213,239258,1,8,0:0:0:0:
255,85,239401,1,2,0:0:0:0:
170,28,239543,2,0,P|171:68|177:107,1,79.050002472725,0|2,0:0|0:0,0:0:0:0:
316,168,239829,2,0,P|331:131|352:97,1,79.050002472725,8|0,0:0|0:0,0:0:0:0:
444,22,240115,5,6,0:0:0:0:
465,140,240258,1,0,0:0:0:0:
385,277,240401,1,8,0:0:0:0:
486,310,240543,1,0,0:0:0:0:
358,364,240686,1,2,0:0:0:0:
293,277,240829,1,2,0:0:0:0:
141,320,240972,1,8,0:0:0:0:
200,242,241115,1,0,0:0:0:0:
53,364,241258,6,0,B|22:316|25:263|25:263|75:251,1,158.10000494545,8|2,0:0|0:0,0:0:0:0:
145,45,241686,2,0,B|195:57|195:57|198:110|167:158,1,158.10000494545,8|2,0:0|0:0,0:0:0:0:
151,334,242115,1,8,0:0:0:0:
151,334,242186,1,8,0:0:0:0:
151,334,242258,1,8,0:0:0:0:
151,334,242329,1,8,0:0:0:0:
151,334,242401,6,0,P|228:321|307:311,1,158.10000494545,6|8,0:0|0:0,0:0:0:0:
431,212,242829,2,0,B|416:268|416:268|423:328,1,118.575003709087,2|0,0:0|0:0,0:0:0:0:
449,345,243115,1,2,0:0:0:0:
332,222,243258,1,8,0:0:0:0:
444,110,243401,6,0,B|481:123|481:123|511:147,1,79.050002472725,2|0,0:0|0:0,0:0:0:0:
431,212,243686,1,2,0:0:0:0:
348,77,243829,1,8,0:0:0:0:
473,18,243972,1,2,0:0:0:0:
349,172,244115,1,0,0:0:0:0:
195,82,244258,1,2,0:0:0:0:
81,243,244401,1,8,0:0:0:0:
102,55,244543,1,0,0:0:0:0:
102,55,244615,1,8,0:0:0:0:
102,55,244686,6,0,P|68:119|128:158,1,158.10000494545,2|8,0:0|0:0,0:0:0:0:
238,270,245115,2,0,P|258:214|286:162,1,118.575003709087,2|0,0:0|0:0,0:0:0:0:
280,132,245401,1,2,0:0:0:0:
429,92,245543,1,8,0:0:0:0:
441,258,245686,2,0,P|401:252|362:247,1,79.050002472725,2|0,0:0|0:0,0:0:0:0:
287,39,245972,2,0,P|271:75|256:112,1,79.050002472725,2|8,0:0|0:0,0:0:0:0:
378,341,246258,6,0,P|299:348|221:359,1,158.10000494545,2|2,0:0|0:0,0:0:0:0:
68,268,246686,2,0,P|108:272|147:277,1,79.050002472725,8|0,0:0|0:0,0:0:0:0:
153,286,246901,1,8,0:0:0:0:
161,293,246972,6,0,B|161:260|172:232|172:232|154:200|154:200|166:176|166:142,1,158.10000494545,6|8,0:0|0:0,0:0:0:0:
222,15,247401,2,0,P|183:25|145:34,1,79.050002472725,2|0,0:0|0:0,0:0:0:0:
31,6,247686,1,2,0:0:0:0:
79,145,247829,1,8,0:0:0:0:
172,53,247972,6,0,P|248:34|325:15,1,158.10000494545,2|2,0:0|0:0,0:0:0:0:
466,139,248401,2,0,P|428:129|389:120,1,79.050002472725,8|2,0:0|0:0,0:0:0:0:
259,166,248686,1,0,0:0:0:0:
363,269,248829,1,2,0:0:0:0:
177,191,248972,2,0,P|187:229|198:266,1,79.050002472725,8|0,0:0|0:0,0:0:0:0:
285,244,249186,1,8,0:0:0:0:
285,244,249258,6,0,P|264:167|241:92,1,158.10000494545,6|8,0:0|0:0,0:0:0:0:
132,23,249686,1,2,0:0:0:0:
343,77,249829,1,0,0:0:0:0:
143,239,249972,1,2,0:0:0:0:
18,61,250115,1,8,0:0:0:0:
169,133,250258,1,2,0:0:0:0:
39,293,250401,6,0,P|33:253|31:214,1,79.050002472725,8|2,0:0|0:0,0:0:0:0:
52,203,250615,1,2,0:0:0:0:
60,180,250686,1,8,0:0:0:0:
250,46,250829,2,0,P|261:124|265:203,1,158.10000494545,2|2,0:0|0:0,0:0:0:0:
512,336,251258,2,0,B|469:343|469:343|435:369,1,85.4249959592058,2|0,0:0|0:0,0:0:0:0:
416,354,251543,5,0,0:0:0:0:
343,311,251686,1,0,0:0:0:0:
252,355,251829,1,0,0:0:0:0:
149,316,251972,1,0,0:0:0:0:
149,316,252686,5,0,0:0:0:0:
201,240,252829,1,0,0:0:0:0:
309,214,252972,1,0,0:0:0:0:
372,131,253115,1,0,0:0:0:0:
380,118,253401,5,12,0:0:0:0:
383,100,253829,5,6,0:0:0:0:
307,46,253972,1,0,0:0:0:0:
235,140,254115,1,2,0:0:0:0:
129,37,254258,2,0,P|139:110|144:183,1,147.900001241226,8|2,0:0|0:0,0:0:0:0:
37,275,254686,2,0,B|74:273|74:273|107:290,1,73.9500006206131,8|2,0:0|0:0,0:0:0:0:
197,356,254972,5,0,0:0:0:0:
272,281,255115,1,2,0:0:0:0:
234,157,255258,1,8,0:0:0:0:
365,237,255401,1,0,0:0:0:0:
467,122,255543,2,0,B|430:120|430:120|397:137,1,73.9500006206131,2|2,0:0|0:0,0:0:0:0:
363,20,255829,1,8,0:0:0:0:
267,65,256115,6,0,B|230:67|230:67|197:50,1,73.9500006206131,2|0,0:0|0:0,0:0:0:0:
113,2,256401,1,2,0:0:0:0:
19,165,256543,2,0,P|91:151|165:143,1,147.900001241226,8|2,0:0|0:0,0:0:0:0:
250,179,256972,1,8,0:0:0:0:
170,256,257115,6,0,P|177:292|181:329,1,73.9500006206131,2|0,0:0|0:0,0:0:0:0:
95,357,257401,1,2,0:0:0:0:
251,384,257543,1,8,0:0:0:0:
347,258,257686,2,0,P|343:221|335:184,1,73.9500006206131,2|0,0:0|0:0,0:0:0:0:
268,297,257972,1,2,0:0:0:0:
415,383,258115,1,8,0:0:0:0:
415,383,258186,1,2,0:0:0:0:
415,383,258258,1,2,0:0:0:0:
415,383,258329,1,2,0:0:0:0:
415,383,258401,6,0,B|413:346|413:346|430:313,1,73.9500006206131,6|0,0:0|0:0,0:0:0:0:
506,217,258686,1,2,0:0:0:0:
400,142,258829,2,0,P|365:154|329:163,1,73.9500006206131,8|0,0:0|0:0,0:0:0:0:
206,144,259115,1,2,0:0:0:0:
334,69,259258,2,0,P|297:65|260:58,1,73.9500006206131,8|2,0:0|0:0,0:0:0:0:
104,26,259543,6,0,P|115:60|124:97,1,73.9500006206131,0|2,0:0|0:0,0:0:0:0:
144,220,259829,1,8,0:0:0:0:
12,181,259972,1,0,0:0:0:0:
90,305,260115,1,2,0:0:0:0:
175,336,260258,1,2,0:0:0:0:
250,230,260401,2,0,P|241:194|229:158,1,73.9500006206131,8|0,0:0|0:0,0:0:0:0:
239,12,260686,6,0,P|272:28|306:42,1,73.9500006206131,6|0,0:0|0:0,0:0:0:0:
433,10,260972,1,2,0:0:0:0:
498,140,261115,2,0,P|488:218|483:287,1,147.900001241226,8|2,0:0|0:0,0:0:0:0:
352,357,261543,2,0,P|344:320|333:285,1,73.9500006206131,8|0,0:0|0:0,0:0:0:0:
251,185,261829,5,0,0:0:0:0:
211,326,261972,1,2,0:0:0:0:
117,370,262115,1,8,0:0:0:0:
89,225,262258,2,0,P|125:229|161:238,1,73.9500006206131,0|0,0:0|0:0,0:0:0:0:
43,308,262543,1,2,0:0:0:0:
17,163,262686,1,8,0:0:0:0:
17,160,262758,1,2,0:0:0:0:
18,157,262829,1,2,0:0:0:0:
19,154,262901,1,2,0:0:0:0:
20,150,262972,6,0,P|54:136|86:119,1,73.9500006206131,6|0,0:0|0:0,0:0:0:0:
160,15,263258,1,2,0:0:0:0:
260,109,263401,2,0,P|279:77|296:44,1,73.9500006206131,8|0,0:0|0:0,0:0:0:0:
171,101,263686,1,2,0:0:0:0:
296,194,263829,1,8,0:0:0:0:
437,123,263972,1,0,0:0:0:0:
481,266,264115,6,0,L|470:348,1,73.9500006206131,0|2,0:0|0:0,0:0:0:0:
378,182,264401,2,0,P|382:218|390:254,1,73.9500006206131,8|0,0:0|0:0,0:0:0:0:
479,160,264686,1,2,0:0:0:0:
399,36,264829,1,2,0:0:0:0:
260,10,264972,1,8,0:0:0:0:
212,149,265258,6,0,B|176:160|176:160|151:187,1,73.9500006206131,6|0,0:0|0:0,0:0:0:0:
123,307,265543,1,2,0:0:0:0:
15,223,265686,2,0,P|5:150|15:77,1,147.900001241226,8|2,0:0|0:0,0:0:0:0:
167,46,266115,2,0,P|136:66|112:94,1,73.9500006206131,8|2,0:0|0:0,0:0:0:0:
221,227,266401,6,0,L|302:217,1,73.9500006206131,0|2,0:0|0:0,0:0:0:0:
347,88,266686,1,8,0:0:0:0:
467,203,266829,2,0,B|417:188|417:188|388:232|394:282,1,147.900001241226,2|2,0:0|0:0,0:0:0:0:
462,374,267258,1,8,0:0:0:0:
462,374,267329,1,2,0:0:0:0:
462,374,267401,1,2,0:0:0:0:
462,374,267472,1,2,0:0:0:0:
462,374,267543,6,0,L|389:384,1,73.9500006206131,6|0,0:0|0:0,0:0:0:0:
290,310,267829,1,2,0:0:0:0:
185,240,267972,2,0,P|176:276|161:310,1,73.9500006206131,8|0,0:0|0:0,0:0:0:0:
58,350,268258,1,2,0:0:0:0:
0,234,268401,2,0,P|37:242|73:244,1,73.9500006206131,8|0,0:0|0:0,0:0:0:0:
164,147,268686,5,0,0:0:0:0:
281,218,268829,1,2,0:0:0:0:
304,45,268972,1,8,0:0:0:0:
441,100,269115,2,0,P|402:103|368:113,1,73.9500006206131,0|2,0:0|0:0,0:0:0:0:
391,247,269401,1,2,0:0:0:0:
511,195,269543,2,0,P|472:191|438:181,1,73.9500006206131,8|0,0:0|0:0,0:0:0:0:
324,292,269829,5,6,0:0:0:0:
199,211,269972,1,0,0:0:0:0:
265,50,270115,1,2,0:0:0:0:
108,25,270258,2,0,P|76:85|131:125,1,147.900001241226,8|2,0:0|0:0,0:0:0:0:
340,183,270686,1,8,0:0:0:0:
186,263,270829,2,0,P|215:240|247:221,1,73.9500006206131,6|6,0:0|0:0,0:0:0:0:
337,97,271115,1,2,0:0:0:0:
272,310,271258,6,0,P|282:345|296:379,1,73.9500006206131,8|0,0:0|0:0,0:0:0:0:
314,376,271472,1,8,0:0:0:0:
331,370,271543,1,6,0:0:0:0:
377,227,271686,1,2,0:0:0:0:
404,139,271829,6,0,L|413:103,3,36.9750003103065,8|8|8|8,0:0|0:0|0:0|0:0,0:0:0:0:
417,161,272119,5,0,0:0:0:0:
307,42,272631,5,0,0:0:0:0:
247,235,273135,5,0,0:0:0:0:
