osu file format v14

[General]
AudioFilename: simple.mp3
AudioLeadIn: 0
PreviewTime: 74869
Countdown: 1
SampleSet: None
StackLeniency: 0.7
Mode: 0
LetterboxInBreaks: 0
WidescreenStoryboard: 1

[Editor]
DistanceSpacing: 0.5
BeatDivisor: 4
GridSize: 4
TimelineZoom: 2.1

[Metadata]
Title:indoor kei nara track maker (Fdby Remix)
TitleUnicode:インドア系ならトラックメイカー (Fdby Remix)
Artist:Yunomi/Fdby
ArtistUnicode:Yunomi/Fdby
Creator:Uru Feneshisu
Version:bluelon
Source:
Tags:Yunomi Fdby
BeatmapID:1324947
BeatmapSetID:627928

[Difficulty]
HPDrainRate:5
CircleSize:4
OverallDifficulty:10
ApproachRate:9.7
SliderMultiplier:1.6
SliderTickRate:1

[Events]
//Background and Video events
0,0,"123.jpg",0,0
//Break Periods
2,45192,52040
2,89950,97033
//Storyboard Layer 0 (Background)
//Storyboard Layer 1 (Fail)
//Storyboard Layer 2 (Pass)
//Storyboard Layer 3 (Foreground)
//Storyboard Sound Samples

[TimingPoints]
0,234.334723719361,4,3,0,100,1,0
74987,-66.6666666666667,4,3,0,100,0,0
86235,-133.333333333333,4,3,0,100,0,0
89515,-66.6666666666667,4,3,0,100,0,0
97483,-100,4,3,0,100,0,0
119979,234.584914803814,4,1,1,100,1,0
128424,234.584914803814,4,3,1,81,1,0
167820,234.375,4,3,1,81,1,0

[HitObjects]
92,81,0,5,0,0:0:0:0:
178,56,234,1,0,0:0:0:0:
267,55,468,1,0,0:0:0:0:
351,80,703,1,0,0:0:0:0:
412,131,820,2,0,L|414:175,1,40
440,199,937,2,0,B|360:199|360:262|270:262,1,160
295,260,1406,1,0,0:0:0:0:
296,261,1874,5,0,0:0:0:0:
216,261,2109,1,0,0:0:0:0:
176,192,2343,1,0,0:0:0:0:
216,122,2577,1,0,0:0:0:0:
296,122,2812,1,0,0:0:0:0:
336,192,3046,1,0,0:0:0:0:
256,192,3280,1,0,0:0:0:0:
340,271,3515,6,0,P|340:222|335:190,1,80
413,137,3749,2,0,P|419:253|413:314,1,160
350,344,4218,1,0,0:0:0:0:
270,344,4452,1,0,0:0:0:0:
196,313,4569,2,0,P|147:316|124:327,1,40
196,313,4686,2,0,P|209:248|198:149,1,160
200,161,5155,1,0,0:0:0:0:
467,37,5624,5,0,0:0:0:0:
390,59,5858,1,0,0:0:0:0:
310,64,6092,1,0,0:0:0:0:
230,70,6327,1,0,0:0:0:0:
160,31,6561,1,0,0:0:0:0:
116,97,6795,2,0,P|109:177|111:279,1,160
109,256,7264,1,0,0:0:0:0:
270,333,7498,6,0,P|268:265|233:326,1,160
354,363,7967,2,0,P|370:302|339:212,1,160
302,196,8318,2,0,P|252:199|236:205,1,40
302,196,8436,2,0,P|386:174|473:125,1,160
450,140,8904,1,0,0:0:0:0:
285,282,9373,5,0,0:0:0:0:
178,136,9607,1,0,0:0:0:0:
351,192,9842,1,0,0:0:0:0:
178,248,10076,1,0,0:0:0:0:
285,101,10310,1,0,0:0:0:0:
283,286,10545,2,0,P|205:316|125:275,1,160
102,216,11013,1,0,0:0:0:0:
136,290,11130,2,0,P|114:339|107:345,1,40
136,290,11248,2,0,P|73:301|-27:263,1,160
28,204,11716,5,0,0:0:0:0:
106,185,11951,1,0,0:0:0:0:
182,209,12068,2,0,L|185:260,1,40
182,209,12185,2,0,P|288:223|341:206,1,160
337,207,12654,1,0,0:0:0:0:
291,93,13122,5,0,0:0:0:0:
491,167,13357,1,0,0:0:0:0:
197,114,13591,5,0,0:0:0:0:
397,188,13826,1,0,0:0:0:0:
116,135,14060,5,0,0:0:0:0:
316,209,14295,1,0,0:0:0:0:
259,11,14528,1,0,0:0:0:0:
181,336,14997,2,0,B|257:350|247:305|339:329,1,160
512,232,15466,2,0,B|421:208|431:253|355:239,1,160
290,163,15817,2,0,L|289:101,1,40
234,233,15934,2,0,P|169:231|51:245,1,160
296,303,16286,1,0,0:0:0:0:
290,163,16403,2,0,B|288:80|292:43|292:43|267:102,1,160
151,329,16872,5,0,0:0:0:0:
95,219,16989,1,0,0:0:0:0:
181,249,17106,2,0,P|228:256|368:243,1,160
339,249,17457,1,0,0:0:0:0:
423,207,17575,2,0,B|435:170|435:170|456:218,1,80
501,281,17809,2,0,L|481:376,2,80
502,287,18160,1,0,0:0:0:0:
490,159,18278,2,0,P|452:227|521:282,1,160
425,75,18746,6,0,P|358:75|313:72,1,80
265,62,18981,2,0,P|264:163|273:230,1,160
328,277,19332,1,0,0:0:0:0:
249,291,19449,2,0,P|170:301|138:292,1,80
342,200,19684,2,0,P|392:235|373:342,1,160
388,326,20035,1,0,0:0:0:0:
315,358,20152,2,0,L|214:360,1,80
235,359,20387,1,0,0:0:0:0:
115,65,20621,6,0,P|135:124|120:242,1,160
88,289,20972,1,0,0:0:0:0:
168,288,21090,2,0,P|238:283|328:301,1,160
396,336,21441,1,0,0:0:0:0:
450,277,21558,6,0,P|464:224|465:162,1,80
357,80,21793,2,0,P|361:119|373:157,1,80
450,277,22027,1,0,0:0:0:0:
449,115,22144,1,0,0:0:0:0:
368,239,22261,1,0,0:0:0:0:
212,189,22496,6,0,P|162:174|206:230,1,160
278,272,22847,1,0,0:0:0:0:
278,272,22964,2,0,P|322:278|374:260,2,80
278,272,23316,1,0,0:0:0:0:
209,312,23433,6,0,B|163:311|158:355|92:362,1,120
61,359,23667,2,0,L|51:265,2,80
61,359,24019,1,0,0:0:0:0:
0,214,24136,6,0,L|17:125,1,80
116,68,24370,6,0,B|191:72|189:129|276:125,1,160
262,125,24722,1,0,0:0:0:0:
362,35,24839,2,0,P|394:71|402:135,1,80
346,233,25073,2,0,L|342:142,1,80
431,299,25308,5,0,0:0:0:0:
276,370,25425,1,0,0:0:0:0:
431,299,25542,1,0,0:0:0:0:
258,278,25659,1,0,0:0:0:0:
380,384,25776,1,0,0:0:0:0:
380,384,25893,1,0,0:0:0:0:
431,299,26011,2,0,P|439:245|433:208,1,80
428,57,26245,6,0,P|421:145|440:231,1,160
492,270,26596,1,0,0:0:0:0:
434,214,26714,1,0,0:0:0:0:
354,218,26831,1,0,0:0:0:0:
280,250,26948,2,0,P|220:253|169:243,1,80
160,247,27124,1,0,0:0:0:0:
160,247,27182,2,0,P|144:163|160:75,1,160
212,33,27534,1,0,0:0:0:0:
261,95,27651,2,0,P|273:152|267:201,1,80
200,250,27885,6,0,B|217:299|217:299|220:242,1,80
321,262,28120,6,0,P|398:258|421:274,1,80
397,257,28354,1,0,0:0:0:0:
482,114,28471,1,0,0:0:0:0:
482,114,28588,2,0,P|466:176|466:207,1,80
465,191,28823,1,0,0:0:0:0:
494,357,28940,1,0,0:0:0:0:
494,357,29057,2,0,P|501:312|495:268,1,80
399,175,29291,2,0,P|395:214|402:254,1,80
499,277,29526,1,0,0:0:0:0:
399,175,29643,1,0,0:0:0:0:
303,302,29760,1,0,0:0:0:0:
236,178,29877,5,0,0:0:0:0:
236,178,29994,2,0,P|189:177|134:187,1,80
94,129,30229,2,0,P|67:59|74:28,1,80
13,177,30463,1,0,0:0:0:0:
54,258,30580,1,0,0:0:0:0:
17,346,30697,1,0,0:0:0:0:
54,258,30815,1,0,0:0:0:0:
148,266,30932,6,0,P|153:349|146:389,1,120
237,384,31166,2,0,P|229:324|235:265,1,120
306,221,31400,2,0,P|367:229|456:214,1,120
504,155,31635,2,0,P|444:147|385:153,1,120
385,153,31869,1,0,0:0:0:0:
458,64,31986,1,0,0:0:0:0:
365,35,32103,6,0,P|305:37|256:46,1,80
198,118,32338,1,0,0:0:0:0:
132,34,32455,1,0,0:0:0:0:
298,121,32572,1,0,0:0:0:0:
140,193,32689,1,0,0:0:0:0:
224,266,32806,6,0,P|269:268|311:261,1,80
219,189,32982,1,0,0:0:0:0:
219,189,33041,2,0,P|179:186|139:192,1,80
205,334,33275,2,0,P|284:341|363:313,1,160
359,315,33627,1,0,0:0:0:0:
464,224,33744,6,0,B|487:186|487:186|443:196,1,80
372,156,33978,2,0,P|349:99|353:62,1,80
256,0,34212,2,0,P|255:61|247:104,1,80
188,176,34447,1,0,0:0:0:0:
188,176,34564,1,0,0:0:0:0:
90,87,34681,6,0,P|79:163|88:236,1,120
140,261,34915,2,0,P|216:272|289:263,1,120
268,190,35150,2,0,P|192:179|119:188,1,120
171,342,35384,2,0,P|274:357|332:325,1,160
382,182,35736,1,0,0:0:0:0:
382,182,35794,1,0,0:0:0:0:
382,182,35853,2,0,P|371:246|371:284,1,80
479,371,36087,2,0,P|491:298|473:194,1,160
430,98,36439,1,0,0:0:0:0:
316,43,36556,5,0,0:0:0:0:
316,43,36673,1,0,0:0:0:0:
239,85,36790,2,0,L|141:84,1,80
22,182,37024,6,0,L|218:187,1,160
239,85,37376,1,0,0:0:0:0:
174,185,37493,2,0,P|175:248|180:290,1,80
263,376,37727,2,0,L|254:297,1,80
289,204,37962,1,0,0:0:0:0:
356,312,38079,1,0,0:0:0:0:
392,149,38196,1,0,0:0:0:0:
454,248,38313,1,0,0:0:0:0:
512,152,38430,6,0,L|389:149,1,120
266,113,38665,2,0,L|385:115,1,120
512,93,38899,6,0,L|389:90,1,120
268,60,39134,2,0,L|377:62,1,80
139,100,39368,6,0,P|52:103|45:197,1,160
30,162,39719,1,0,0:0:0:0:
131,233,39836,6,0,L|120:334,1,80
223,188,40071,2,0,L|231:102,1,80
256,311,40305,5,0,0:0:0:0:
256,311,40422,1,0,0:0:0:0:
317,260,40539,2,0,P|376:245|429:255,1,80
469,365,40774,1,0,0:0:0:0:
493,211,40891,1,0,0:0:0:0:
355,343,41008,1,0,0:0:0:0:
375,155,41125,1,0,0:0:0:0:
494,72,41242,6,0,P|419:82|389:69,1,80
249,76,41477,2,0,P|312:72|340:59,1,80
439,146,41711,1,0,0:0:0:0:
281,168,41828,1,0,0:0:0:0:
281,168,41887,1,0,0:0:0:0:
281,168,41945,1,0,0:0:0:0:
418,258,42063,1,0,0:0:0:0:
294,269,42180,6,0,L|201:284,1,80
106,256,42414,2,0,L|93:177,1,80
188,65,42648,2,0,P|180:142|175:164,2,80
179,144,43000,1,0,0:0:0:0:
361,180,43117,6,0,P|368:124|302:167,1,160
361,180,43469,1,0,0:0:0:0:
361,180,43586,2,0,P|342:108|286:166,1,160
361,180,43937,1,0,0:0:0:0:
356,185,44054,2,0,P|360:126|269:111,1,160
268,228,44406,1,0,0:0:0:0:
335,292,44523,2,0,L|452:285,1,80
268,228,44757,2,0,L|181:221,1,80
356,185,44992,5,0,0:0:0:0:
374,310,52490,5,0,0:0:0:0:
256,359,52725,1,0,0:0:0:0:
137,310,52959,1,0,0:0:0:0:
88,191,53193,1,0,0:0:0:0:
88,191,53311,2,0,L|86:246,1,40
137,73,53428,1,0,0:0:0:0:
256,24,53662,1,0,0:0:0:0:
374,73,53896,1,0,0:0:0:0:
423,192,54131,1,0,0:0:0:0:
423,192,54365,5,0,0:0:0:0:
374,73,54600,1,0,0:0:0:0:
256,24,54834,1,0,0:0:0:0:
137,73,55068,1,0,0:0:0:0:
137,73,55185,2,0,L|137:33,1,40
88,191,55303,1,0,0:0:0:0:
137,310,55537,1,0,0:0:0:0:
256,359,55771,1,0,0:0:0:0:
374,310,56006,1,0,0:0:0:0:
423,192,56123,5,0,0:0:0:0:
374,310,56240,5,0,0:0:0:0:
256,359,56475,1,0,0:0:0:0:
137,310,56709,1,0,0:0:0:0:
88,191,56943,1,0,0:0:0:0:
88,191,57061,2,0,L|86:246,1,40
137,73,57178,1,0,0:0:0:0:
256,24,57412,1,0,0:0:0:0:
374,73,57646,1,0,0:0:0:0:
423,192,57881,1,0,0:0:0:0:
423,192,58115,5,0,0:0:0:0:
374,73,58350,1,0,0:0:0:0:
256,24,58584,1,0,0:0:0:0:
137,73,58818,1,0,0:0:0:0:
137,73,58935,2,0,L|137:33,1,40
88,191,59053,1,0,0:0:0:0:
137,310,59287,1,0,0:0:0:0:
256,359,59521,1,0,0:0:0:0:
374,310,59756,1,0,0:0:0:0:
485,184,59989,6,0,B|400:189|412:226|312:226,1,160
331,225,60341,1,0,0:0:0:0:
191,157,60458,2,0,P|232:105|322:143,1,160
331,225,60809,1,0,0:0:0:0:
262,287,60927,2,0,L|259:378,1,80
160,306,61161,2,0,L|157:223,1,80
67,165,61395,5,0,0:0:0:0:
169,377,61512,1,0,0:0:0:0:
225,155,61630,1,0,0:0:0:0:
317,217,61747,1,0,0:0:0:0:
317,217,61864,2,0,B|397:240|392:210|477:212,1,160
480,216,62215,1,0,0:0:0:0:
454,93,62333,2,0,P|416:67|318:116,1,160
322,114,62684,1,0,0:0:0:0:
317,217,62801,1,0,0:0:0:0:
408,167,62918,5,0,0:0:0:0:
214,175,63036,1,0,0:0:0:0:
367,289,63153,1,0,0:0:0:0:
236,275,63270,2,0,L|41:281,1,160
160,356,63621,5,0,0:0:0:0:
160,356,63680,1,0,0:0:0:0:
160,356,63739,2,0,P|81:355|-1:354,1,160
217,153,64090,1,0,0:0:0:0:
216,260,64207,2,0,L|118:263,1,80
5,198,64442,2,0,L|105:196,1,80
171,88,64676,5,0,0:0:0:0:
171,88,64793,1,0,0:0:0:0:
234,212,64910,1,0,0:0:0:0:
234,212,65027,1,0,0:0:0:0:
84,196,65145,1,0,0:0:0:0:
298,120,65262,1,0,0:0:0:0:
250,320,65379,1,0,0:0:0:0:
382,213,65613,2,0,P|396:247|399:297,1,80
321,308,65848,2,0,P|267:318|219:308,1,80
126,215,66082,1,0,0:0:0:0:
225,183,66199,1,0,0:0:0:0:
197,261,66316,1,0,0:0:0:0:
279,135,66433,1,0,0:0:0:0:
341,234,66551,5,0,0:0:0:0:
341,234,66668,1,0,0:0:0:0:
426,137,66785,1,0,0:0:0:0:
426,137,66902,1,0,0:0:0:0:
495,240,67019,2,0,P|426:255|337:232,1,160
123,94,67488,6,0,P|112:155|144:193,1,80
118,169,67722,1,0,0:0:0:0:
216,280,67839,1,0,0:0:0:0:
216,280,67957,2,0,P|228:231|221:183,1,80
185,113,68191,1,0,0:0:0:0:
112,347,68308,1,0,0:0:0:0:
112,347,68425,2,0,B|203:377|191:331|280:350,1,160
349,359,68777,1,0,0:0:0:0:
414,313,68894,2,0,P|431:252|410:206,1,80
350,99,69128,1,0,0:0:0:0:
85,93,69363,6,0,L|74:185,1,80
178,307,69597,1,0,0:0:0:0:
161,193,69714,1,0,0:0:0:0:
73,291,69831,2,0,L|86:396,2,80
7,217,70183,1,0,0:0:0:0:
190,285,70300,2,0,L|279:285,1,80
436,236,70534,2,0,L|338:237,1,80
190,285,70769,5,0,0:0:0:0:
348,371,70886,1,0,0:0:0:0:
318,161,71003,1,0,0:0:0:0:
285,278,71120,2,0,L|338:285,1,40
289,281,71237,2,0,L|448:284,1,160
448,284,71589,1,0,0:0:0:0:
480,181,71706,2,0,L|450:92,1,80
354,0,71940,2,0,L|335:110,1,80
268,181,72175,6,0,P|167:188|132:153,1,120
142,143,72409,2,0,L|119:42,1,80
0,279,72643,2,0,L|182:291,1,160
159,289,72995,1,0,0:0:0:0:
377,335,73112,6,0,P|371:296|268:305,1,160
223,375,73463,1,0,0:0:0:0:
41,254,73581,2,0,P|146:267|191:228,1,160
258,59,73932,1,0,0:0:0:0:
263,154,74049,2,0,L|263:257,1,80
381,193,74284,2,0,L|381:91,1,80
295,31,74518,1,0,0:0:0:0:
153,174,74635,1,0,0:0:0:0:
360,281,74752,1,0,0:0:0:0:
449,28,74987,5,0,0:0:0:0:
381,143,75104,1,0,0:0:0:0:
312,72,75221,2,0,L|174:82,1,120.000004577637
0,184,75455,2,0,P|76:194|120:191,2,120.000004577637
198,79,75807,1,0,0:0:0:0:
218,258,75924,5,0,0:0:0:0:
108,91,76041,1,0,0:0:0:0:
90,308,76158,1,0,0:0:0:0:
0,114,76275,1,0,0:0:0:0:
211,259,76393,2,0,B|309:258|309:258|357:219|357:219|481:214,1,240.000009155274
437,215,76744,1,0,0:0:0:0:
497,66,76861,6,0,L|206:64,1,240.000009155274
257,64,77213,1,0,0:0:0:0:
77,82,77330,2,0,L|80:217,1,120.000004577637
143,256,77506,1,0,0:0:0:0:
143,256,77564,2,0,P|203:239|281:257,1,120.000004577637
404,365,77799,6,0,L|428:95,1,240.000009155274
425,125,78150,1,0,0:0:0:0:
512,195,78267,1,0,0:0:0:0:
478,46,78384,1,0,0:0:0:0:
478,46,78502,2,0,P|396:44|341:79,1,120.000004577637
275,156,78736,6,0,L|528:197,1,240.000009155274
511,194,79087,1,0,0:0:0:0:
320,76,79205,2,0,L|167:47,1,120.000004577637
73,190,79439,1,0,0:0:0:0:
96,46,79556,1,0,0:0:0:0:
187,220,79673,2,0,L|188:352,1,120.000004577637
325,201,79908,2,0,L|322:65,1,120.000004577637
192,138,80142,1,0,0:0:0:0:
325,278,80259,1,0,0:0:0:0:
408,81,80376,1,0,0:0:0:0:
504,252,80493,1,0,0:0:0:0:
309,157,80611,6,0,B|223:160|223:160|169:200|169:200|81:200,1,240.000009155274
82,200,80962,1,0,0:0:0:0:
343,88,81079,2,0,P|391:139|375:217,1,120.000004577637
263,378,81314,2,0,L|265:239,1,120.000004577637
268,85,81548,5,0,0:0:0:0:
353,287,81665,1,0,0:0:0:0:
126,283,81782,1,0,0:0:0:0:
356,87,81899,1,0,0:0:0:0:
476,245,82017,2,0,L|475:365,1,120.000004577637
391,185,82251,2,0,L|389:65,1,120.000004577637
389,65,82427,1,0,0:0:0:0:
398,69,82485,6,0,B|313:61|313:61|345:97,1,120.000004577637
391,185,82720,6,0,B|306:193|306:193|329:167,1,120.000004577637
240,40,82954,2,0,B|159:17|159:17|189:58,1,120.000004577637
240,227,83188,2,0,B|159:250|159:250|189:209,1,120.000004577637
93,69,83423,1,0,0:0:0:0:
86,240,83657,1,0,0:0:0:0:
5,9,83891,1,0,0:0:0:0:
0,278,84126,1,0,0:0:0:0:
293,384,84360,6,0,L|304:252,1,120.000004577637
202,383,84594,2,0,L|192:263,1,120.000004577637
386,213,84829,2,0,L|379:73,1,120.000004577637
126,213,85063,2,0,L|131:93,1,120.000004577637
112,5,85297,1,0,0:0:0:0:
378,8,85532,1,0,0:0:0:0:
48,286,85766,2,0,L|197:294,1,120.000004577637
424,277,86000,1,0,0:0:0:0:
310,157,86118,1,0,0:0:0:0:
303,245,86235,6,0,L|305:319,3,60.0000022888184
411,175,86703,2,0,L|419:95,3,60.0000022888184
219,143,87172,2,0,L|223:217,1,60.0000022888184
490,224,87406,2,0,L|497:152,1,60.0000022888184
308,103,87641,2,0,L|309:181,3,60.0000022888184
378,239,88109,5,0,0:0:0:0:
318,230,88227,1,0,0:0:0:0:
258,238,88344,1,0,0:0:0:0:
201,257,88461,1,0,0:0:0:0:
142,268,88578,1,0,0:0:0:0:
82,264,88695,1,0,0:0:0:0:
22,264,88812,1,0,0:0:0:0:
22,264,88930,1,0,0:0:0:0:
83,180,89047,6,0,L|70:105,2,60.0000022888184
84,187,89398,1,0,0:0:0:0:
194,175,89515,2,0,B|294:150|318:152|318:152|277:212,1,180.000006866455
238,264,89750,1,0,0:0:0:0:
86,97,97483,6,0,L|177:97,1,80
296,78,97717,2,0,L|397:71,1,80
494,128,97951,1,0,0:0:0:0:
494,128,98069,1,0,0:0:0:0:
430,201,98186,2,0,L|320:208,1,80
263,361,98420,6,0,L|253:246,1,80
244,183,98654,2,0,L|227:74,1,80
158,27,98889,1,0,0:0:0:0:
158,27,99006,1,0,0:0:0:0:
118,111,99123,2,0,L|109:213,1,80
16,347,99357,6,0,L|120:357,1,80
187,363,99592,2,0,L|286:352,1,80
352,311,99826,1,0,0:0:0:0:
352,311,99943,1,0,0:0:0:0:
450,362,100060,2,0,L|451:268,1,80
466,159,100295,6,0,L|360:150,1,80
287,158,100529,2,0,L|191:174,1,80
121,207,100763,1,0,0:0:0:0:
121,207,100881,1,0,0:0:0:0:
40,152,100998,2,0,L|25:52,1,80
201,19,101232,6,0,L|194:108,1,80
156,217,101466,2,0,L|159:317,1,80
238,374,101701,1,0,0:0:0:0:
238,374,101818,1,0,0:0:0:0:
331,353,101935,2,0,L|424:348,1,80
431,243,102169,6,0,L|454:148,1,80
355,47,102404,2,0,L|357:143,1,80
336,269,102638,1,0,0:0:0:0:
336,269,102755,1,0,0:0:0:0:
246,323,102872,2,0,L|142:316,1,80
74,78,103107,5,0,0:0:0:0:
166,191,103224,1,0,0:0:0:0:
36,279,103341,1,0,0:0:0:0:
159,81,103458,1,0,0:0:0:0:
166,293,103575,1,0,0:0:0:0:
39,148,103693,1,0,0:0:0:0:
247,187,103810,1,0,0:0:0:0:
81,358,103927,1,0,0:0:0:0:
241,294,104044,2,0,B|309:319|378:289|378:289|347:274,1,160
146,207,104396,5,0,0:0:0:0:
233,123,104513,2,0,P|243:45|237:15,1,80
66,220,104747,2,0,L|73:325,1,80
186,359,104981,6,0,B|223:341|259:378|419:336|419:336|312:265|445:230|393:113|393:113|395:75|290:42|329:188,1,640
323,164,106036,1,0,0:0:0:0:
231,86,106153,2,0,P|228:141|235:202,1,80
126,286,106387,2,0,P|130:231|126:190,1,80
54,57,106622,2,0,P|47:125|49:167,1,80
48,338,106856,2,0,P|168:368|203:335,1,160
244,237,107208,1,0,0:0:0:0:
286,322,107325,2,0,P|351:320|391:303,1,80
465,237,107559,2,0,P|415:231|379:245,1,80
196,133,107793,6,0,L|379:163,1,160
353,158,108145,1,0,0:0:0:0:
433,109,108262,2,0,L|451:12,1,80
305,237,108496,1,0,0:0:0:0:
305,237,108555,1,0,0:0:0:0:
305,237,108614,1,0,0:0:0:0:
406,288,108731,2,0,P|484:285|501:275,1,80
348,103,108965,2,0,P|276:102|247:113,1,80
98,243,109199,2,0,P|152:246|181:230,1,80
106,91,109434,2,0,P|46:78|21:89,1,80
42,306,109668,5,0,0:0:0:0:
105,158,109785,1,0,0:0:0:0:
167,323,109902,1,0,0:0:0:0:
229,155,110020,1,0,0:0:0:0:
273,309,110137,1,0,0:0:0:0:
338,150,110254,1,0,0:0:0:0:
396,312,110371,1,0,0:0:0:0:
497,136,110488,1,0,0:0:0:0:
497,136,110605,2,0,P|403:143|322:151,1,160
337,149,110957,1,0,0:0:0:0:
275,224,111074,2,0,P|267:286|277:326,2,80
321,57,111426,1,0,0:0:0:0:
110,120,111543,2,0,P|167:144|284:117,1,160
267,129,111894,1,0,0:0:0:0:
168,0,112011,2,0,L|171:95,1,80
47,259,112246,2,0,L|49:171,1,80
174,169,112480,6,0,L|361:161,1,160
340,165,112832,1,0,0:0:0:0:
429,94,112949,2,0,L|437:7,1,80
320,87,113183,2,0,L|344:181,1,80
485,294,113418,1,0,0:0:0:0:
485,294,113535,1,0,0:0:0:0:
436,189,113652,1,0,0:0:0:0:
351,337,113769,1,0,0:0:0:0:
288,264,113886,2,0,P|207:259|182:264,1,80
38,336,114121,2,0,P|100:346|143:343,1,80
193,173,114355,2,0,B|196:94|189:53|189:53|171:118,1,160
111,278,114706,1,0,0:0:0:0:
248,299,114824,2,0,P|315:273|327:243,1,80
406,75,115058,2,0,P|405:126|411:176,1,80
475,348,115292,2,0,L|500:17,1,320
497,35,115878,1,0,0:0:0:0:
380,79,115995,6,0,L|279:63,1,80
143,166,116230,2,0,P|135:256|172:320,1,160
296,355,116581,1,0,0:0:0:0:
82,256,116698,2,0,L|-10:276,1,80
292,267,116933,2,0,L|382:264,1,80
151,163,117167,2,0,P|81:152|-12:191,1,160
14,283,117518,1,0,0:0:0:0:
94,353,117636,2,0,P|163:330|178:308,1,80
223,127,117870,2,0,P|238:192|252:218,1,80
386,298,118104,2,0,B|404:232|396:182|396:182|369:228,1,160
298,344,118456,1,0,0:0:0:0:
416,366,118573,2,0,P|481:358|505:344,2,80
416,366,118924,1,0,0:0:0:0:
246,288,119042,6,0,L|196:281,3,40
188,273,119276,2,0,L|156:217,3,40
160,219,119510,2,0,L|171:169,3,40
188,173,119745,2,0,L|242:155,3,40
245,166,119979,6,0,L|352:172,1,80
472,88,120213,1,0,0:0:0:0:
327,42,120330,1,0,0:0:0:0:
422,217,120448,2,0,L|426:319,1,80
496,368,120682,1,0,0:0:0:0:
306,265,120800,1,0,0:0:0:0:
226,299,120917,2,0,B|150:300|146:360|72:357,1,160
12,231,121269,1,0,0:0:0:0:
116,154,121386,2,0,L|114:63,1,80
233,219,121621,2,0,L|223:324,1,80
354,158,121855,6,0,B|402:163|484:170|484:170|435:142,1,160
326,41,122207,1,0,0:0:0:0:
370,233,122324,2,0,L|469:245,1,80
275,343,122559,2,0,L|176:355,1,80
246,185,122794,6,0,P|291:207|270:252,1,80
166,259,123028,1,0,0:0:0:0:
299,102,123145,1,0,0:0:0:0:
299,102,123263,2,0,P|350:137|374:243,1,160
262,328,123615,1,0,0:0:0:0:
466,51,123732,6,0,L|475:211,1,160
346,373,124084,1,0,0:0:0:0:
342,184,124201,1,0,0:0:0:0:
471,344,124318,1,0,0:0:0:0:
257,288,124436,1,0,0:0:0:0:
475,211,124553,1,0,0:0:0:0:
398,27,124670,6,0,P|397:80|399:131,1,80
297,114,124905,2,0,P|297:74|296:34,1,80
195,24,125139,6,0,P|194:77|196:128,1,80
94,111,125374,2,0,P|94:71|93:31,1,80
23,217,125609,5,0,0:0:0:0:
169,158,125726,1,0,0:0:0:0:
285,251,125843,1,0,0:0:0:0:
396,180,125960,1,0,0:0:0:0:
289,68,126078,2,0,L|179:51,1,80
379,342,126312,2,0,L|494:321,1,80
352,144,126547,5,0,0:0:0:0:
316,272,126664,1,0,0:0:0:0:
464,207,126781,1,0,0:0:0:0:
173,232,126899,1,0,0:0:0:0:
173,232,127016,2,0,B|227:233|227:233|276:274|276:274|336:270,1,160
390,142,127368,1,0,0:0:0:0:
390,142,127427,1,0,0:0:0:0:
390,142,127485,1,0,0:0:0:0:
247,32,127603,1,0,0:0:0:0:
204,127,127720,6,0,P|216:196|230:228,1,80
96,384,127954,2,0,P|100:318|89:278,1,80
31,139,128189,1,0,0:0:0:0:
11,277,128306,1,0,0:0:0:0:
139,212,128424,2,0,P|224:204|249:204,1,80
390,312,128658,2,0,P|315:321|285:313,1,80
350,103,128893,2,0,P|354:149|345:218,1,80
219,384,129127,2,0,P|195:318|195:284,1,80
89,134,129362,6,0,B|147:134|147:134|182:173|182:173|236:171,1,160
231,171,129714,1,0,0:0:0:0:
287,68,129831,5,0,0:0:0:0:
287,68,129948,1,0,0:0:0:0:
354,200,130066,1,0,0:0:0:0:
354,200,130183,1,0,0:0:0:0:
421,66,130300,6,0,P|496:64|514:69,2,80
421,66,130652,1,0,0:0:0:0:
194,205,130769,2,0,L|367:199,1,160
353,199,131121,1,0,0:0:0:0:
255,82,131239,6,0,P|198:72|169:115,1,80
139,273,131473,1,0,0:0:0:0:
294,161,131590,1,0,0:0:0:0:
88,189,131708,2,0,L|-13:200,1,80
248,338,131942,2,0,L|331:336,1,80
180,167,132177,5,0,0:0:0:0:
248,338,132294,1,0,0:0:0:0:
374,192,132411,2,0,B|393:145|393:145|294:231,1,160
158,359,132763,1,0,0:0:0:0:
435,342,132881,6,0,P|455:264|456:241,1,80
317,255,133115,5,0,0:0:0:0:
239,68,133232,1,0,0:0:0:0:
186,278,133350,1,0,0:0:0:0:
185,268,133467,1,0,0:0:0:0:
122,118,133584,5,0,0:0:0:0:
255,318,133702,1,0,0:0:0:0:
301,80,133819,1,0,0:0:0:0:
301,80,133936,1,0,0:0:0:0:
431,184,134054,6,0,P|446:241|440:275,2,80
431,184,134405,1,0,0:0:0:0:
228,343,134523,2,0,L|409:321,1,160
477,358,134875,1,0,0:0:0:0:
477,358,134992,5,0,0:0:0:0:
4,25,135226,1,0,0:0:0:0:
503,188,135461,1,0,0:0:0:0:
2,191,135696,1,0,0:0:0:0:
150,183,135930,2,0,L|189:178,2,40
0,365,136165,2,0,L|180:362,1,160
159,362,136517,1,0,0:0:0:0:
252,303,136634,6,0,B|264:265|264:265|197:284,1,80
349,361,136869,6,0,P|401:345|442:327,1,80
350,148,137103,2,0,P|342:251|342:252,1,80
467,83,137338,2,0,P|414:53|376:49,1,80
187,151,137572,2,0,L|301:152,1,80
107,42,137807,2,0,P|49:52|14:79,1,80
161,317,138041,2,0,L|166:217,1,80
7,358,138276,2,0,P|70:369|100:362,1,80
275,328,138511,1,0,0:0:0:0:
275,328,138569,1,0,0:0:0:0:
275,328,138628,1,0,0:0:0:0:
361,250,138745,6,0,B|395:150|395:150|332:180,1,160
256,203,139097,1,0,0:0:0:0:
437,274,139214,2,0,L|464:182,1,80
319,51,139449,2,0,L|285:136,1,80
280,143,139625,1,0,0:0:0:0:
271,161,139684,2,0,L|452:160,1,160
173,82,140035,1,0,0:0:0:0:
307,229,140153,2,0,L|400:230,1,80
212,305,140387,2,0,L|123:303,1,80
386,229,140622,2,0,P|435:263|415:379,1,160
436,356,140974,1,0,0:0:0:0:
283,355,141091,6,0,L|185:352,1,80
56,221,141326,2,0,L|152:221,1,80
485,258,141560,1,0,0:0:0:0:
448,100,141678,5,0,0:0:0:0:
448,100,141736,1,0,0:0:0:0:
448,100,141795,1,0,0:0:0:0:
296,37,141912,1,0,0:0:0:0:
234,99,142029,2,0,P|230:166|230:207,1,80
174,362,142264,2,0,L|181:273,1,80
180,282,142440,1,0,0:0:0:0:
180,282,142499,1,0,0:0:0:0:
333,161,142616,1,0,0:0:0:0:
391,243,142733,6,0,L|484:244,1,80
121,243,142968,2,0,L|41:243,1,80
175,49,143202,2,0,P|175:113|166:153,1,80
337,49,143437,2,0,P|337:113|346:153,1,80
211,357,143672,2,0,L|211:253,1,80
301,357,143906,2,0,L|301:253,1,80
68,166,144141,6,0,P|110:152|162:158,1,80
444,166,144375,2,0,P|402:152|350:158,1,80
182,319,144610,2,0,P|247:355|317:281,1,160
243,6,144962,1,0,0:0:0:0:
251,117,145079,2,0,L|248:215,1,80
415,353,145314,2,0,L|411:273,1,80
85,91,145548,2,0,L|-19:100,1,80
251,355,145783,2,0,L|338:361,1,80
206,217,146017,2,0,L|109:220,1,80
416,60,146252,5,0,0:0:0:0:
367,136,146369,1,0,0:0:0:0:
333,41,146487,1,0,0:0:0:0:
270,122,146604,1,0,0:0:0:0:
179,30,146721,5,0,0:0:0:0:
212,189,146838,1,0,0:0:0:0:
76,31,146956,1,0,0:0:0:0:
111,241,147073,1,0,0:0:0:0:
0,348,147190,5,0,0:0:0:0:
282,251,147308,1,0,0:0:0:0:
111,241,147425,5,0,0:0:0:0:
357,337,147542,1,0,0:0:0:0:
141,170,147659,5,0,0:0:0:0:
380,241,147777,1,0,0:0:0:0:
354,8,147894,5,0,0:0:0:0:
467,202,148011,1,0,0:0:0:0:
268,358,148129,5,0,0:0:0:0:
231,20,148598,1,0,0:0:0:0:
101,116,148832,1,0,0:0:0:0:
101,116,148950,1,0,0:0:0:0:
101,116,149067,2,0,L|99:200,1,80
250,301,149302,2,0,L|246:195,1,80
152,30,149536,1,0,0:0:0:0:
199,86,150005,6,0,P|125:86|108:111,1,80
66,278,150240,1,0,0:0:0:0:
263,174,150357,1,0,0:0:0:0:
80,172,150474,2,0,L|-15:180,1,80
215,312,150709,1,0,0:0:0:0:
125,85,150826,1,0,0:0:0:0:
66,278,150944,2,0,L|80:379,1,80
325,358,151178,2,0,L|306:242,1,80
136,137,151413,2,0,L|160:245,1,80
445,345,151647,2,0,L|409:253,1,80
372,48,151882,5,0,0:0:0:0:
204,174,151999,1,0,0:0:0:0:
341,177,152117,2,0,L|427:173,1,80
216,55,152351,2,0,L|134:60,1,80
303,277,152586,1,0,0:0:0:0:
300,66,152703,1,0,0:0:0:0:
196,201,152820,2,0,L|191:283,2,80
105,98,153172,1,0,0:0:0:0:
336,207,153290,2,0,L|523:197,1,160
311,52,153641,5,0,0:0:0:0:
311,52,153700,1,0,0:0:0:0:
311,52,153759,1,0,0:0:0:0:
222,245,153876,1,0,0:0:0:0:
438,153,153993,1,0,0:0:0:0:
177,129,154111,1,0,0:0:0:0:
353,274,154228,1,0,0:0:0:0:
400,58,154345,1,0,0:0:0:0:
512,319,154462,2,0,L|408:331,1,80
165,274,154697,6,0,L|164:174,2,80
226,70,155049,1,0,0:0:0:0:
401,155,155166,2,0,P|360:178|236:154,1,160
118,93,155518,1,0,0:0:0:0:
118,93,155577,1,0,0:0:0:0:
118,93,155635,1,0,0:0:0:0:
36,290,155753,1,0,0:0:0:0:
203,108,155870,5,0,0:0:0:0:
176,312,155987,1,0,0:0:0:0:
286,64,156105,5,0,0:0:0:0:
344,333,156222,1,0,0:0:0:0:
360,35,156339,5,0,0:0:0:0:
506,177,156456,1,0,0:0:0:0:
240,254,156574,6,0,L|136:257,2,80
356,195,156926,1,0,0:0:0:0:
124,182,157043,2,0,P|69:251|115:328,1,160
91,311,157395,1,0,0:0:0:0:
431,279,157512,6,0,L|424:165,1,80
271,57,157747,2,0,L|271:147,1,80
287,352,157981,2,0,L|476:344,1,160
108,210,158333,1,0,0:0:0:0:
196,113,158450,6,0,P|215:54|211:6,1,80
21,267,158685,2,0,P|21:318|46:378,1,80
206,314,158920,2,0,L|289:312,1,80
86,113,159154,2,0,L|-28:113,1,80
334,232,159389,6,0,P|351:179|269:195,1,160
360,360,159741,1,0,0:0:0:0:
452,286,159858,2,0,L|460:175,1,80
256,100,160092,2,0,L|275:194,1,80
467,53,160327,6,0,L|376:56,2,80
467,53,160679,1,0,0:0:0:0:
111,174,160796,2,0,L|271:178,1,160
386,123,161148,1,0,0:0:0:0:
386,123,161207,1,0,0:0:0:0:
386,123,161265,2,0,P|404:70|402:32,1,80
374,238,161500,2,0,P|432:253|469:245,1,80
238,271,161735,2,0,P|235:328|248:368,2,80
317,141,162086,1,0,0:0:0:0:
397,273,162204,2,0,L|203:270,1,160
39,202,162556,1,0,0:0:0:0:
141,83,162673,2,0,P|154:140|146:186,2,80
54,344,163025,1,0,0:0:0:0:
160,320,163142,6,0,L|151:149,1,160
208,19,163494,1,0,0:0:0:0:
303,113,163611,2,0,L|311:296,1,160
225,353,163963,1,0,0:0:0:0:
355,22,164080,6,0,P|429:6|463:15,2,80
203,130,164432,1,0,0:0:0:0:
409,243,164550,2,0,P|457:219|435:99,1,160
185,33,164901,5,0,0:0:0:0:
185,33,164960,1,0,0:0:0:0:
185,33,165019,1,0,0:0:0:0:
240,279,165253,1,0,0:0:0:0:
306,21,165488,1,0,0:0:0:0:
437,303,165723,1,0,0:0:0:0:
507,27,165957,5,0,0:0:0:0:
281,368,166192,1,0,0:0:0:0:
108,13,166426,1,0,0:0:0:0:
7,370,166661,1,0,0:0:0:0:
25,17,166895,5,0,0:0:0:0:
269,68,167130,1,0,0:0:0:0:
29,194,167365,1,0,0:0:0:0:
257,280,167599,1,0,0:0:0:0:
11,352,167820,5,0,0:0:0:0:
504,257,168054,1,0,0:0:0:0:
18,161,168288,1,0,0:0:0:0:
507,44,168524,1,0,0:0:0:0:
412,138,168641,2,0,L|415:210,1,40
474,253,168758,2,0,B|409:255|409:318|321:311,1,160
328,228,169110,1,0,0:0:0:0:
226,306,169227,2,0,L|239:385,1,80
136,200,169462,2,0,L|158:97,1,80
4,291,169696,2,0,B|71:307|98:269|188:286,1,160
257,195,170048,1,0,0:0:0:0:
336,264,170166,2,0,L|329:362,1,80
413,168,170400,6,0,L|411:83,1,80
175,84,170635,6,0,P|94:99|89:183,1,160
171,254,170987,1,0,0:0:0:0:
175,84,171104,2,0,P|59:98|36:153,1,160
124,305,171456,1,0,0:0:0:0:
176,78,171573,2,0,P|68:52|8:55,1,160
192,332,171925,1,0,0:0:0:0:
255,258,172042,2,0,L|258:171,1,80
329,64,172277,2,0,L|327:178,1,80
480,373,172511,5,0,0:0:0:0:
482,182,172746,1,0,0:0:0:0:
346,360,172981,1,0,0:0:0:0:
253,128,173215,1,0,0:0:0:0:
145,358,173450,1,0,0:0:0:0:
41,88,173684,1,0,0:0:0:0:
0,384,173919,1,0,0:0:0:0:
107,27,174154,1,0,0:0:0:0:
416,155,174388,5,0,0:0:0:0:
88,141,174623,1,0,0:0:0:0:
396,63,174857,1,0,0:0:0:0:
79,55,175092,1,0,0:0:0:0:
428,206,175326,1,0,0:0:0:0:
107,291,175561,1,0,0:0:0:0:
439,323,175796,1,0,0:0:0:0:
92,371,176030,1,0,0:0:0:0:
16,219,176148,5,0,0:0:0:0:
16,219,176206,1,0,0:0:0:0:
16,219,176265,2,0,L|2:326,1,80
125,146,176499,2,0,L|107:56,1,80
190,309,176734,2,0,L|277:300,1,80
420,187,176969,2,0,L|303:194,1,80
502,350,177203,2,0,L|498:252,1,80
319,7,177438,2,0,L|333:125,1,80
333,263,177672,2,0,P|392:268|445:192,1,160
226,97,178024,1,0,0:0:0:0:
134,199,178142,6,0,L|123:292,1,80
234,356,178376,2,0,L|241:263,1,80
326,109,178611,2,0,L|323:201,1,80
423,353,178845,2,0,L|428:257,1,80
331,150,179080,1,0,0:0:0:0:
427,273,179197,1,0,0:0:0:0:
366,45,179314,1,0,0:0:0:0:
243,286,179432,1,0,0:0:0:0:
243,286,179549,2,0,B|323:285|321:230|418:229,1,160
484,268,179901,1,0,0:0:0:0:
493,362,180018,5,0,0:0:0:0:
15,295,180253,1,0,0:0:0:0:
495,231,180487,1,0,0:0:0:0:
8,146,180722,1,0,0:0:0:0:
495,108,180957,1,0,0:0:0:0:
20,18,181191,1,0,0:0:0:0:
504,8,181426,1,0,0:0:0:0:
202,75,181660,5,0,0:0:0:0:
221,323,181895,5,0,0:0:0:0:
307,47,182129,1,0,0:0:0:0:
327,349,182364,1,0,0:0:0:0:
126,284,182599,1,0,0:0:0:0:
406,48,182833,1,0,0:0:0:0:
250,365,183068,1,0,0:0:0:0:
76,201,183302,5,0,0:0:0:0:
467,157,183537,5,0,0:0:0:0:
350,329,183654,1,0,0:0:0:0:
238,187,183772,6,0,L|154:176,1,80
331,133,184006,2,0,L|421:126,1,80
201,308,184241,2,0,L|112:297,1,80
332,46,184475,2,0,L|432:32,1,80
510,178,184710,5,0,0:0:0:0:
14,188,184944,1,0,0:0:0:0:
510,178,185179,1,0,0:0:0:0:
14,188,185414,1,0,0:0:0:0:
125,50,185648,6,0,L|118:148,1,80
157,342,185883,2,0,L|145:231,1,80
229,17,186117,2,0,L|229:117,1,80
257,325,186352,2,0,L|229:212,1,80
380,92,186587,2,0,L|287:112,1,80
390,253,186821,2,0,L|287:245,1,80
491,172,187056,2,0,L|398:173,1,80
36,176,187290,2,0,L|124:173,1,80
222,22,187525,5,0,0:0:0:0:
300,217,187759,1,0,0:0:0:0:
301,26,187994,5,0,0:0:0:0:
472,184,188229,1,0,0:0:0:0:
389,248,188346,6,0,L|392:300,1,40
421,268,188463,2,0,P|434:214|351:226,1,160
354,215,188815,1,0,0:0:0:0:
369,354,188932,2,0,L|474:342,1,80
266,291,189167,2,0,L|158:289,1,80
80,110,189382,5,0,0:0:0:0:
413,148,189616,1,0,0:0:0:0:
109,30,189851,5,0,0:0:0:0:
421,78,190085,1,0,0:0:0:0:
61,244,190320,5,0,0:0:0:0:
409,172,190554,1,0,0:0:0:0:
133,350,190788,1,0,0:0:0:0:
245,100,191023,5,0,0:0:0:0:
228,276,191140,1,0,0:0:0:0:
346,34,191257,5,0,0:0:0:0:
483,222,191491,1,0,0:0:0:0:
208,23,191726,5,0,0:0:0:0:
358,354,191960,1,0,0:0:0:0:
134,32,192195,5,0,0:0:0:0:
63,372,192429,1,0,0:0:0:0:
13,157,192663,1,0,0:0:0:0:
261,182,193132,5,0,0:0:0:0:
261,182,193366,1,0,0:0:0:0:
261,182,193601,1,0,0:0:0:0:
261,182,193835,1,0,0:0:0:0:
261,182,194070,1,0,0:0:0:0:
