osu file format v14

[General]
AudioFilename: audio.mp3
AudioLeadIn: 0
PreviewTime: 73627
Countdown: 1
SampleSet: Normal
StackLeniency: 0.7
Mode: 0
LetterboxInBreaks: 0
WidescreenStoryboard: 0

[Editor]
DistanceSpacing: 1
BeatDivisor: 4
GridSize: 32
TimelineZoom: 2.5

[Metadata]
Title:Soumatou Labyrinth
TitleUnicode:Soumatou Labyrinth
Artist:Yunomi with Momobako&miko
ArtistUnicode:Yunomi with Momobako&miko
Creator:nasobol90
Version:c:
Source:
Tags:
BeatmapID:1387799
BeatmapSetID:654767

[Difficulty]
HPDrainRate:5
CircleSize:4
OverallDifficulty:8
ApproachRate:9.3
SliderMultiplier:2.1
SliderTickRate:1

[Events]
//Background and Video events
//Break Periods
//Storyboard Layer 0 (Background)
//Storyboard Layer 1 (Fail)
//Storyboard Layer 2 (Pass)
//Storyboard Layer 3 (Foreground)
//Storyboard Sound Samples

[TimingPoints]
2002,375,4,1,0,100,1,0
2002,-133.333333333333,4,1,0,100,0,0
14002,-100,4,1,0,100,0,0
26002,-66.6666666666667,4,1,0,100,0,0
38002,-80,4,1,0,100,0,0
43627,-66.6666666666667,4,1,0,100,0,0
44002,-80,4,1,0,100,0,0
49627,-66.6666666666667,4,1,0,100,0,0
50002,-80,4,1,0,100,0,0
55627,-66.6666666666667,4,1,0,100,0,0
56002,-80,4,1,0,100,0,0
61627,-66.6666666666667,4,1,0,100,0,0
62002,-100,4,1,0,100,0,0
67252,-66.6666666666667,4,1,0,100,0,0
68002,-100,4,1,0,100,0,0
74002,-66.6666666666667,4,1,0,100,0,0

[HitObjects]
101,208,2002,6,0,L|132:226,3,19.6875007510186
257,270,2283,1,0,0:0:0:0:
249,254,2377,1,0,0:0:0:0:
190,136,2564,1,0,0:0:0:0:
351,167,2752,1,2,0:0:0:0:
351,167,3314,5,0,0:0:0:0:
255,87,3502,2,0,P|231:39|247:-9,1,78.7500030040742,8|0,0:0|0:0,0:0:0:0:
258,0,3783,1,0,0:0:0:0:
288,4,3877,1,0,0:0:0:0:
351,167,4064,1,0,0:0:0:0:
197,175,4252,1,2,0:0:0:0:
197,175,4439,2,0,L|128:176,2,39.3750015020371
351,167,4814,5,0,0:0:0:0:
450,114,5002,2,0,P|461:62|455:25,1,78.7500030040742,8|0,0:0|0:0,0:0:0:0:
428,29,5283,1,0,0:0:0:0:
399,34,5377,1,0,0:0:0:0:
351,167,5564,5,0,0:0:0:0:
400,295,5752,2,0,P|428:331|465:360,1,78.7500030040742,2|0,0:0|0:0,0:0:0:0:
485,329,6033,1,0,0:0:0:0:
485,289,6127,1,0,0:0:0:0:
217,236,6314,5,0,0:0:0:0:
245,359,6502,1,8,0:0:0:0:
351,167,6689,1,0,0:0:0:0:
352,345,6877,1,0,0:0:0:0:
221,85,7064,1,0,0:0:0:0:
494,122,7252,1,2,0:0:0:0:
494,122,7439,6,0,L|519:78,2,39.3750015020371
433,234,7814,1,0,0:0:0:0:
304,196,8002,6,0,L|293:165,3,19.6875007510186,8|0|0|0,0:0|0:0|0:0|0:0,0:0:0:0:
287,227,8189,2,0,B|225:213|194:184|194:150|195:119|195:119|158:112|136:125|128:131,1,216.562508261204
72,163,8752,2,0,B|103:193|103:193|135:200|135:200|146:233|166:246|196:271,1,157.500006008148,2|0,0:0|0:0,0:0:0:0:
336,328,9314,5,0,0:0:0:0:
302,158,9502,2,0,P|275:109|287:160,1,157.500006008148,8|0,0:0|0:0,0:0:0:0:
336,328,10064,1,0,0:0:0:0:
406,173,10252,2,0,P|417:128|413:95,1,78.7500030040742,2|0,0:0|0:0,0:0:0:0:
397,65,10533,1,0,0:0:0:0:
377,45,10627,1,0,0:0:0:0:
171,34,10814,5,0,0:0:0:0:
232,120,11002,2,0,L|336:130,1,78.7500030040742,8|0,0:0|0:0,0:0:0:0:
310,210,11283,2,0,L|254:205,1,39.3750015020371
125,197,11564,1,0,0:0:0:0:
171,34,11752,6,0,L|258:43,1,78.7500030040742,2|0,0:0|0:0,0:0:0:0:
308,129,12033,2,0,L|244:123,1,39.3750015020371
148,116,12314,1,0,0:0:0:0:
333,39,12502,5,8,0:0:0:0:
333,39,12595,1,0,0:0:0:0:
333,39,12689,1,0,0:0:0:0:
370,87,12877,1,0,0:0:0:0:
422,115,13064,1,0,0:0:0:0:
507,2,13252,5,2,0:0:0:0:
316,316,13627,6,0,P|279:352|206:324,1,118.125004506111
293,238,14002,2,0,P|352:241|406:309,1,105,8|0,0:0|0:0,0:0:0:0:
397,313,14283,1,0,0:0:0:0:
383,355,14377,1,0,0:0:0:0:
219,337,14564,1,0,0:0:0:0:
299,142,14752,5,2,0:0:0:0:
299,142,15033,5,0,0:0:0:0:
299,142,15314,5,0,0:0:0:0:
474,176,15502,2,0,P|512:125|487:50,1,105,8|0,0:0|0:0,0:0:0:0:
470,57,15783,1,0,0:0:0:0:
423,50,15877,1,0,0:0:0:0:
221,49,16064,1,0,0:0:0:0:
334,242,16252,5,2,0:0:0:0:
334,242,16533,5,0,0:0:0:0:
334,242,16814,5,0,0:0:0:0:
182,249,17002,2,0,B|125:259|133:226|75:245,1,105,8|0,0:0|0:0,0:0:0:0:
101,321,17377,1,0,0:0:0:0:
173,168,17564,1,0,0:0:0:0:
24,186,17752,2,0,P|0:255|31:304,1,105,2|0,0:0|0:0,0:0:0:0:
47,306,18033,1,0,0:0:0:0:
101,321,18127,1,0,0:0:0:0:
262,305,18314,5,0,0:0:0:0:
175,135,18502,1,8,0:0:0:0:
180,323,18689,1,0,0:0:0:0:
266,55,18877,1,0,0:0:0:0:
325,262,19064,1,0,0:0:0:0:
172,31,19252,1,2,0:0:0:0:
172,31,19439,6,0,L|143:93,2,52.5
335,32,19814,1,0,0:0:0:0:
264,142,20002,2,0,L|273:199,1,52.5,8|0,0:0|0:0,0:0:0:0:
351,188,20189,2,0,L|363:253,1,52.5
287,281,20377,2,0,L|281:338,1,52.5
379,317,20564,2,0,L|406:361,1,52.5
452,243,20752,5,2,0:0:0:0:
452,243,21033,5,0,0:0:0:0:
452,243,21314,5,0,0:0:0:0:
406,361,21502,2,0,L|379:317,1,52.5,8|0,0:0|0:0,0:0:0:0:
281,333,21689,2,0,L|287:281,1,52.5
360,239,21877,2,0,L|351:188,1,52.5
272,193,22064,2,0,L|264:142,1,52.5
173,244,22252,5,2,0:0:0:0:
173,244,22439,2,0,L|151:180,2,52.5
230,384,22814,1,0,0:0:0:0:
377,206,23002,5,8,0:0:0:0:
388,190,23095,1,0,0:0:0:0:
396,165,23189,1,0,0:0:0:0:
395,137,23283,1,0,0:0:0:0:
381,106,23377,1,0,0:0:0:0:
351,84,23470,1,0,0:0:0:0:
311,74,23564,1,0,0:0:0:0:
264,95,23657,1,0,0:0:0:0:
200,97,23752,6,8,P|177:42|177:38,1,52.5,8|0,0:0|0:0,0:0:0:0:
312,286,23939,2,0,P|335:342|335:346,1,52.5
147,173,24127,6,0,P|90:156|87:153,1,52.5
364,210,24314,2,0,P|421:227|424:230,1,52.5
148,328,24502,5,8,0:0:0:0:
113,327,24595,1,0,0:0:0:0:
78,326,24689,1,0,0:0:0:0:
43,326,24783,1,0,0:0:0:0:
92,254,24877,5,8,0:0:0:0:
127,254,24970,1,0,0:0:0:0:
162,255,25064,1,0,0:0:0:0:
196,256,25158,1,0,0:0:0:0:
233,328,25252,6,0,L|229:392,1,52.5,8|0,0:0|0:0,0:0:0:0:
10,251,25439,2,0,L|14:187,1,52.5,8|0,0:0|0:0,0:0:0:0:
329,266,25627,5,4,0:0:0:0:
231,53,26002,6,0,P|149:23|139:23,1,78.7500030040742,8|0,0:0|0:0,0:0:0:0:
329,266,26189,2,0,P|410:296|420:296,1,78.7500030040742
168,124,26377,6,0,P|90:165|84:172,1,78.7500030040742
391,194,26564,2,0,P|469:153|475:146,1,78.7500030040742
181,227,26752,6,0,B|128:238|89:274|91:350|14:363|-50:331|-65:269|66:243|-47:198|17:111|2:70,1,393.750015020371,2|0,0:0|0:0,0:0:0:0:
104,82,27314,2,0,L|97:168,1,78.7500030040742
0,11,27502,2,0,B|80:27|68:-21|162:10,1,157.500006008148,8|0,0:0|0:0,0:0:0:0:
198,33,27783,1,0,0:0:0:0:
243,63,27877,2,0,P|312:102|359:102,1,78.7500030040742
469,11,28064,2,0,P|423:4|362:34,1,78.7500030040742
425,225,28252,2,0,P|448:121|403:219,1,315.000012016297,2|0,0:0|0:0,0:0:0:0:
91,260,28814,6,0,P|115:318|148:347,1,78.7500030040742
332,328,29002,2,0,P|300:245|164:274,1,236.250009012223,8|0,0:0|0:0,0:0:0:0:
227,384,29377,2,0,P|255:343|258:307,1,78.7500030040742
91,260,29564,2,0,P|62:300|59:336,1,78.7500030040742
299,143,29752,6,0,B|232:110|234:152|159:114,1,118.125004506111,2|0,0:0|0:0,0:0:0:0:
62,109,29939,2,0,L|93:79,1,39.3750015020371
51,75,30033,2,0,L|101:83,1,39.3750015020371
60,32,30127,2,0,B|140:57|154:20|223:47,1,157.500006008148
228,280,30502,6,0,P|180:280|137:261,1,78.7500030040742,8|0,0:0|0:0,0:0:0:0:
299,143,30689,2,0,P|317:187|317:234,1,78.7500030040742,2|0,0:0|0:0,0:0:0:0:
73,305,30877,6,0,P|64:247|80:193,1,78.7500030040742,8|0,0:0|0:0,0:0:0:0:
387,280,31064,2,0,P|337:309|281:316,1,78.7500030040742,2|0,0:0|0:0,0:0:0:0:
206,0,31252,6,0,P|268:59|270:71,1,78.7500030040742,10|0,0:0|0:0,0:0:0:0:
250,129,31439,1,0,0:0:0:0:
191,78,31533,1,0,0:0:0:0:
262,49,31627,1,8,0:0:0:0:
201,278,31814,1,0,0:0:0:0:
438,260,32002,6,0,P|540:213|553:198,1,78.7500030040742,8|0,0:0|0:0,0:0:0:0:
193,174,32189,2,0,P|90:220|77:235,1,78.7500030040742
429,154,32377,6,0,P|463:47|460:26,1,78.7500030040742
201,278,32564,2,0,P|166:384|169:405,1,78.7500030040742
337,95,32752,6,0,B|356:55|362:15|340:-14|294:-30|294:-30|236:28|255:82|262:114|278:162|325:209,1,393.750015020371,2|0,0:0|0:0,0:0:0:0:
429,154,33314,6,0,P|463:47|460:26,1,78.7500030040742
165,74,33502,2,0,P|194:175|240:240,1,157.500006008148,8|0,0:0|0:0,0:0:0:0:
252,271,33783,1,0,0:0:0:0:
287,320,33877,2,0,P|223:322|189:318,1,78.7500030040742
32,221,34064,2,0,P|96:219|130:223,1,78.7500030040742
408,233,34252,2,0,P|407:369|284:301,1,315.000012016297,2|0,0:0|0:0,0:0:0:0:
469,10,34814,6,0,L|402:61,1,78.7500030040742
271,155,35002,2,0,P|182:106|234:-4,1,236.250009012223,8|0,0:0|0:0,0:0:0:0:
337,104,35377,2,0,P|343:192|328:223,1,78.7500030040742
104,108,35564,2,0,P|106:21|121:-10,1,78.7500030040742
185,249,35752,6,0,B|112:231|134:262|52:247,1,118.125004506111,2|0,0:0|0:0,0:0:0:0:
42,325,35939,2,0,L|36:363,1,39.3750015020371
93,327,36033,2,0,L|81:375,1,39.3750015020371
146,322,36127,2,0,B|232:347|221:305|304:324,1,157.500006008148
183,78,36502,5,0,0:0:0:0:
148,60,36595,1,0,0:0:0:0:
109,63,36689,1,0,0:0:0:0:
398,99,36877,5,0,0:0:0:0:
410,62,36970,1,0,0:0:0:0:
401,23,37064,1,0,0:0:0:0:
265,244,37252,6,0,P|274:330|283:342,1,78.7500030040742
344,336,37439,1,0,0:0:0:0:
268,320,37533,1,0,0:0:0:0:
196,339,37627,1,0,0:0:0:0:
432,184,38002,6,0,B|392:304|448:264|416:392,1,196.875
268,326,38377,2,0,P|212:334|172:318,1,65.625
264,208,38564,2,0,P|320:200|360:216,1,65.625
432,184,38752,6,0,B|392:304|448:264|416:392,1,196.875
192,248,39127,2,0,P|183:192|198:151,1,65.625
340,286,39314,2,0,P|348:341|333:382,1,65.625
203,332,39502,2,0,B|132:317|141:363|54:342|54:342|15:250|28:167,1,328.125
47,34,40064,6,0,P|102:95|113:125,1,65.625
192,248,40252,2,8,P|273:247|296:137,1,196.875,0|0,0:0|0:0,0:0:0:0:
103,203,40627,2,0,P|113:268|130:296,1,65.625,0|0,0:3|0:3,0:3:0:0:
225,177,40814,2,0,P|215:111|197:83,1,65.625,0|0,0:3|0:3,0:3:0:0:
3,260,41002,2,0,B|15:327|41:346|41:346|100:329|88:366|175:334,1,196.875
321,294,41377,6,0,P|328:351|316:376,1,65.625
225,177,41564,2,0,P|218:120|230:95,1,65.625
392,256,41752,2,0,P|410:342|401:389,2,131.25
156,239,42314,1,0,0:0:0:0:
323,354,42502,5,0,0:0:0:0:
225,177,42689,1,0,0:0:0:0:
185,358,42877,1,0,0:0:0:0:
369,193,43064,1,0,0:0:0:0:
133,91,43252,2,0,L|105:73,3,32.8125
180,108,43439,6,0,P|230:79|248:28,1,98.4375
323,34,43627,2,0,P|295:118|167:184,1,236.250009012223
6,203,44002,6,0,B|-10:180|3:156|28:145|60:158|64:178|59:205|59:205|47:243|50:266|59:284,1,196.875
91,345,44377,2,0,L|171:355,1,65.625
202,265,44564,2,0,L|122:255,1,65.625
6,203,44752,6,0,B|-10:180|3:156|28:145|60:158|64:178|59:205|59:205|47:243|50:266|59:284,1,196.875
264,319,45127,2,0,P|283:279|266:216,1,65.625
10,335,45314,2,0,P|17:372|49:411,1,65.625
175,193,45502,5,0,0:0:0:0:
127,252,45627,5,0,0:0:0:0:
202,265,45752,5,0,0:0:0:0:
283,258,45877,6,0,P|379:248|396:251,1,65.625
479,347,46064,2,0,P|383:357|366:353,1,65.625
431,200,46252,2,0,P|442:288|440:310,1,65.625,2|0,0:0|0:0,0:0:0:0:
294,156,46439,2,0,P|283:68|285:46,1,65.625
444,77,46627,2,0,P|415:100|362:109,1,65.625
228,7,46814,2,0,P|273:-1|338:11,1,65.625
170,164,47002,6,0,B|61:125|119:86|30:24,1,196.875
0,5,47377,1,0,0:0:0:0:
13,190,47564,1,0,0:0:0:0:
175,74,47752,1,2,0:0:0:0:
0,112,47939,1,0,0:0:0:0:
207,237,48127,1,0,0:0:0:0:
228,7,48314,1,0,0:0:0:0:
112,273,48502,6,0,P|167:325|263:323,1,131.25,8|0,0:0|0:0,0:0:0:0:
354,235,48783,1,0,0:0:0:0:
387,201,48877,2,0,P|420:282|420:302,1,65.625
211,158,49064,2,0,P|178:77|178:57,1,65.625
446,69,49252,1,2,0:0:0:0:
486,112,49345,1,0,0:0:0:0:
499,175,49439,2,0,P|486:274|477:290,1,65.625
270,86,49627,2,0,P|252:38|356:73,1,236.250009012223
296,232,50002,6,0,P|272:312|288:368,1,131.25
376,288,50283,1,0,0:0:0:0:
379,237,50377,2,0,P|366:198|312:151,1,65.625
475,348,50564,2,0,P|483:307|461:239,1,65.625
296,232,50752,6,0,P|272:312|288:368,1,131.25
424,360,51033,1,0,0:0:0:0:
475,348,51127,2,0,P|483:307|461:239,1,65.625
385,172,51314,2,0,P|376:212|398:280,1,65.625
484,81,51502,2,0,B|408:86|427:55|342:64|342:64|314:114|193:114|166:57,1,328.125
307,0,52064,6,0,P|335:20|347:65,1,65.625
175,185,52252,2,0,P|147:132|195:63,1,131.25
266,182,52533,1,0,0:0:0:0:
241,230,52627,2,0,P|212:255|159:266,1,65.625
22,233,52814,1,0,0:0:0:0:
128,352,53002,5,0,0:0:0:0:
320,352,53189,1,0,0:0:0:0:
128,352,53377,1,0,0:0:0:0:
320,352,53564,1,0,0:0:0:0:
224,352,53752,5,0,0:0:0:0:
416,224,53939,1,0,0:0:0:0:
224,352,54127,1,0,0:0:0:0:
416,224,54314,1,0,0:0:0:0:
320,288,54502,5,0,0:0:0:0:
310,55,54689,1,0,0:0:0:0:
96,192,54877,2,0,P|192:192|256:160,1,131.25
396,53,55252,2,0,L|400:0,3,32.8125
395,101,55439,2,0,P|323:66|315:31,1,98.4375
478,46,55627,6,0,B|511:183|427:148|467:298,1,236.250009012223
274,283,56002,6,0,P|327:327|377:285,1,131.25
213,215,56283,1,0,0:0:0:0:
184,248,56377,2,0,P|148:316|147:340,1,65.625
361,156,56564,2,0,P|397:88|398:64,1,65.625
274,283,56752,6,0,P|316:329|365:247,1,131.25
278,155,57033,1,0,0:0:0:0:
252,120,57127,2,0,P|172:95|146:96,1,65.625
36,129,57314,2,0,P|116:154|142:153,1,65.625
184,248,57502,2,0,B|108:321|108:321|50:378|22:334|16:322|32:294|32:294|64:261|118:211,1,328.125
293,266,58064,6,0,L|296:367,1,65.625
201,148,58252,2,0,L|198:47,1,65.625
385,257,58439,6,0,L|388:358,1,65.625,0|0,0:3|0:3,0:3:0:0:
293,139,58627,2,0,L|290:38,1,65.625,0|0,0:3|0:3,0:3:0:0:
485,243,58814,6,0,P|477:293|440:334,1,65.625
376,129,59002,2,0,P|413:48|506:80,1,196.875
497,113,59377,5,0,0:0:0:0:
364,226,59564,1,0,0:0:0:0:
318,26,59752,1,0,0:0:0:0:
484,202,59939,1,0,0:0:0:0:
238,139,60127,1,0,0:0:0:0:
474,7,60314,1,0,0:0:0:0:
404,302,60502,6,0,P|350:311|276:257,1,131.25
124,126,60783,1,0,0:0:0:0:
104,174,60877,2,0,P|88:255|90:292,1,65.625
183,379,61064,2,0,P|199:298|197:261,1,65.625
224,142,61252,1,0,0:0:0:0:
201,95,61345,1,0,0:0:0:0:
169,61,61439,2,0,P|131:49|70:70,1,65.625
182,235,61627,6,0,L|426:236,1,236.250009012223
469,169,62002,1,0,0:0:0:0:
469,169,62095,1,0,0:0:0:0:
469,169,62189,1,0,0:0:0:0:
276,99,62377,1,0,0:0:0:0:
416,85,62564,1,0,0:0:0:0:
233,17,62752,2,0,P|191:55|181:114,1,105
131,230,63127,6,0,P|45:216|17:182,1,105
270,196,63502,2,0,P|303:276|289:318,1,105
91,307,63877,1,0,0:0:0:0:
223,269,64064,1,0,0:0:0:0:
52,382,64252,2,0,P|8:304|46:234,1,157.5
58,227,64627,5,0,0:0:0:0:
152,345,64814,1,0,0:0:0:0:
141,200,65002,2,0,P|97:153|25:146,1,105
233,220,65377,5,0,0:0:0:0:
152,345,65564,1,0,0:0:0:0:
140,200,65752,2,0,P|173:154|258:131,1,105
242,364,66127,1,0,0:0:0:0:
92,271,66314,1,0,0:0:0:0:
276,219,66502,5,0,0:0:0:0:
242,364,66689,1,0,0:0:0:0:
469,238,66877,1,0,0:0:0:0:
265,112,67064,1,0,0:0:0:0:
242,364,67252,2,0,P|323:313|347:254,1,157.500006008148
134,184,67533,5,0,0:0:0:0:
162,228,67627,2,0,P|242:266|265:264,1,78.7500030040742
445,307,67814,1,0,0:0:0:0:
467,263,67908,1,0,0:0:0:0:
476,212,68002,6,0,L|460:154,1,52.5
334,77,68189,2,0,L|350:134,1,52.5
324,260,68377,2,0,L|308:202,1,52.5
193,106,68564,2,0,L|209:163,1,52.5
236,306,68752,5,0,0:0:0:0:
236,306,69033,5,0,0:0:0:0:
236,306,69314,5,0,0:0:0:0:
193,106,69502,6,0,L|206:156,1,52.5
323,259,69689,2,0,L|310:209,1,52.5
334,77,69877,2,0,L|347:127,1,52.5
476,212,70064,2,0,L|462:161,1,52.5
400,21,70252,2,0,P|316:-7|254:44,1,157.5
347,127,70627,6,0,P|427:121|444:114,1,52.5
181,72,70814,2,0,P|101:78|84:85,1,52.5
329,209,71002,1,0,0:0:0:0:
359,216,71095,1,0,0:0:0:0:
390,221,71189,1,0,0:0:0:0:
422,223,71283,1,0,0:0:0:0:
454,221,71377,6,0,P|483:169|486:143,1,52.5
265,141,71564,2,0,P|236:192|233:219,1,52.5
190,355,71752,1,0,0:0:0:0:
147,383,71845,1,0,0:0:0:0:
95,384,71939,1,0,0:0:0:0:
51,357,72033,1,0,0:0:0:0:
25,308,72127,6,0,P|2:230|6:217,1,52.5
248,297,72314,2,0,P|271:375|267:388,1,52.5
129,170,72502,2,0,P|188:135|226:136,1,105
172,278,72783,1,0,0:0:0:0:
60,240,72877,2,0,P|33:180|42:127,1,105
358,27,73252,6,0,L|382:114,1,52.5
302,352,73439,2,0,L|278:265,1,52.5
208,4,73627,1,0,0:0:0:0:
451,197,74002,6,0,B|441:243|441:243|416:289,1,78.7500030040742
182,77,74189,2,0,B|192:31|192:31|217:-15,1,78.7500030040742
220,256,74377,6,0,B|173:262|173:262|121:254,1,78.7500030040742
403,41,74564,2,0,B|449:34|449:34|501:42,1,78.7500030040742
352,232,74752,6,0,B|332:304|332:304|280:358|280:358|237:359|237:359|176:370|176:370|125:363|125:363|81:366|81:366|33:352|33:352,1,393.750015020371
32,180,75314,2,0,L|32:271,1,78.7500030040742
155,152,75502,1,0,0:0:0:0:
155,82,75595,1,0,0:0:0:0:
100,39,75689,2,0,L|21:-6,1,78.7500030040742
177,235,75877,2,0,P|251:183|260:162,1,78.7500030040742
220,42,76064,2,0,P|146:94|137:115,1,78.7500030040742
338,211,76252,6,0,B|335:45|335:45|389:-4,1,236.250009012223
501,215,76627,2,0,L|416:214,1,78.7500030040742
419,80,76814,2,0,L|504:81,1,78.7500030040742
409,300,77002,6,0,P|291:302|217:185,1,236.250009012223
122,72,77377,2,0,L|32:71,1,78.7500030040742
276,143,77564,2,0,L|353:73,1,78.7500030040742
125,217,77752,2,0,L|148:375,2,157.500006008148
235,354,78314,1,0,0:0:0:0:
166,138,78502,6,0,P|120:132|64:153,1,78.7500030040742
342,177,78689,2,0,P|348:131|327:75,1,78.7500030040742
335,369,78877,6,0,P|398:377|474:348,1,78.7500030040742
87,307,79064,2,0,P|78:370|107:446,1,78.7500030040742
256,94,79252,6,0,P|226:56|159:39,1,78.7500030040742
178,134,79439,1,0,0:0:0:0:
251,170,79533,1,0,0:0:0:0:
320,130,79627,1,0,0:0:0:0:
87,307,79814,1,0,0:0:0:0:
388,242,80002,6,0,B|419:277|419:277|443:324,1,78.7500030040742
135,217,80189,2,0,B|103:182|103:182|79:135,1,78.7500030040742
294,328,80377,6,0,B|286:374|286:374|262:421,1,78.7500030040742
200,103,80564,2,0,B|208:56|208:56|231:9,1,78.7500030040742
