osu file format v14

[General]
AudioFilename: audio.mp3
AudioLeadIn: 0
PreviewTime: 157768
Countdown: 0
SampleSet: Normal
StackLeniency: 0.7
Mode: 1
LetterboxInBreaks: 0
WidescreenStoryboard: 0

[Editor]
Bookmarks: 85862,97862
DistanceSpacing: 0.1
BeatDivisor: 4
GridSize: 32
TimelineZoom: 1.5

[Metadata]
Title:Soumatou Labyrinth
TitleUnicode:走馬灯ラビリンス
Artist:Yunomi with Momobako&miko
ArtistUnicode:Yunomi with 桃箱&miko
Creator:komasy
Version:yzrin's Kantan
Source:
Tags:MMBK.COM yuzu__rinrin Charlotte
BeatmapID:1319427
BeatmapSetID:625493

[Difficulty]
HPDrainRate:7
CircleSize:2
OverallDifficulty:3
ApproachRate:10
SliderMultiplier:1.4
SliderTickRate:1

[Events]
//Background and Video events
0,0,"bg.jpg",0,100
//Break Periods
2,122076,127426
//Storyboard Layer 0 (Background)
//Storyboard Layer 1 (Fail)
//Storyboard Layer 2 (Pass)
//Storyboard Layer 3 (Foreground)
//Storyboard Sound Samples

[TimingPoints]
1876,375,4,1,0,70,1,0
1876,-100,4,1,0,70,0,0
13782,-100,4,1,0,80,0,0
19782,-100,4,1,0,85,0,0
24282,-100,4,1,0,70,0,0
25876,-100,4,1,0,95,0,1
37876,-100,4,1,0,85,0,0
61969,-100,4,1,0,75,0,0
67782,-100,4,1,0,85,0,0
72282,-100,4,1,0,70,0,0
73876,-100,4,1,0,95,0,1
85876,-100,4,1,0,95,0,0
85969,-100,4,1,0,85,0,0
97876,-100,4,1,0,85,0,0
97969,-100,4,1,0,50,0,0
100032,-100,4,1,0,75,0,0
100813,-100,4,1,0,85,0,0
121876,-100,4,1,0,85,0,0
121969,-100,4,1,0,70,0,0
127876,-100,4,1,0,70,0,0
133782,-100,4,1,0,75,0,0
145782,-100,4,1,0,85,0,0
157876,-100,4,1,0,95,0,1
169501,-100,4,1,0,95,0,0
169876,-100,4,1,0,95,0,1
181876,-100,4,1,0,75,0,0

[HitObjects]
256,192,1876,5,8,0:0:0:0:
256,192,2626,1,0,0:0:0:0:
256,192,3376,1,8,0:0:0:0:
256,192,3751,1,8,0:0:0:0:
256,192,4126,1,0,0:0:0:0:
256,192,4876,1,0,0:0:0:0:
256,192,5626,1,8,0:0:0:0:
256,192,6376,1,0,0:0:0:0:
256,192,6751,1,0,0:0:0:0:
256,192,7126,1,8,0:0:0:0:
256,192,7876,1,8,0:0:0:0:
256,192,8626,1,0,0:0:0:0:
256,192,9376,1,8,0:0:0:0:
256,192,9751,1,8,0:0:0:0:
256,192,10126,1,0,0:0:0:0:
256,192,10876,1,0,0:0:0:0:
256,192,11626,1,8,0:0:0:0:
256,192,12376,1,0,0:0:0:0:
256,192,13876,1,0,0:0:0:0:
256,192,14626,1,8,0:0:0:0:
256,192,15376,1,0,0:0:0:0:
256,192,15751,1,0,0:0:0:0:
256,192,16126,1,8,0:0:0:0:
256,192,16876,1,0,0:0:0:0:
256,192,17626,1,8,0:0:0:0:
256,192,18376,1,8,0:0:0:0:
256,192,18751,1,0,0:0:0:0:
256,192,19126,1,8,0:0:0:0:
256,192,19876,1,0,0:0:0:0:
256,192,20626,1,8,0:0:0:0:
256,192,21376,1,0,0:0:0:0:
256,192,21751,1,0,0:0:0:0:
256,192,22126,1,8,0:0:0:0:
256,192,22876,12,0,24376,0:0:0:0:
256,192,25876,5,4,0:0:0:0:
256,192,26626,1,8,0:0:0:0:
256,192,27376,1,0,0:0:0:0:
256,192,27751,1,0,0:0:0:0:
256,192,28126,1,8,0:0:0:0:
256,192,28876,1,0,0:0:0:0:
256,192,29626,1,8,0:0:0:0:
256,192,30001,1,8,0:0:0:0:
256,192,30376,1,0,0:0:0:0:
256,192,31126,1,8,0:0:0:0:
256,192,31876,1,0,0:0:0:0:
256,192,32626,1,8,0:0:0:0:
256,192,33376,1,0,0:0:0:0:
256,192,33751,1,0,0:0:0:0:
256,192,34126,1,8,0:0:0:0:
256,192,34876,1,0,0:0:0:0:
256,192,35626,1,8,0:0:0:0:
256,192,36001,1,8,0:0:0:0:
256,192,36376,1,0,0:0:0:0:
256,192,37876,1,0,0:0:0:0:
256,192,38626,1,8,0:0:0:0:
256,192,39376,1,0,0:0:0:0:
256,192,40126,1,8,0:0:0:0:
256,192,40501,1,8,0:0:0:0:
256,192,40876,1,0,0:0:0:0:
256,192,41626,1,8,0:0:0:0:
256,192,42376,1,0,0:0:0:0:
256,192,42751,1,0,0:0:0:0:
256,192,43126,1,8,0:0:0:0:
256,192,43876,1,0,0:0:0:0:
256,192,44626,1,8,0:0:0:0:
256,192,45376,1,0,0:0:0:0:
256,192,46126,1,8,0:0:0:0:
256,192,46501,1,8,0:0:0:0:
256,192,46876,1,0,0:0:0:0:
256,192,47626,1,0,0:0:0:0:
256,192,48376,1,8,0:0:0:0:
256,192,49876,1,4,0:0:0:0:
256,192,50626,1,8,0:0:0:0:
256,192,51376,1,0,0:0:0:0:
256,192,52126,1,8,0:0:0:0:
256,192,52501,1,8,0:0:0:0:
256,192,52876,1,0,0:0:0:0:
256,192,53626,1,8,0:0:0:0:
256,192,54376,1,0,0:0:0:0:
256,192,54751,1,0,0:0:0:0:
256,192,55126,1,8,0:0:0:0:
256,192,55876,1,0,0:0:0:0:
256,192,56626,1,8,0:0:0:0:
256,192,57376,1,0,0:0:0:0:
256,192,58126,1,8,0:0:0:0:
256,192,58501,1,8,0:0:0:0:
256,192,58876,1,0,0:0:0:0:
256,192,59626,1,0,0:0:0:0:
256,192,60376,1,8,0:0:0:0:
256,192,61876,1,0,0:0:0:0:
256,192,63376,1,8,0:0:0:0:
256,192,64876,1,0,0:0:0:0:
256,192,66376,1,0,0:0:0:0:
256,192,67126,1,8,0:0:0:0:
256,192,67876,1,8,0:0:0:0:
256,192,68251,1,8,0:0:0:0:
256,192,68626,1,8,0:0:0:0:
256,192,69376,1,0,0:0:0:0:
256,192,69751,1,0,0:0:0:0:
256,192,70126,1,0,0:0:0:0:
256,192,70876,1,0,0:0:0:0:
256,192,71626,1,8,0:0:0:0:
256,192,72376,1,0,0:0:0:0:
256,192,73876,1,4,0:0:0:0:
256,192,74626,1,8,0:0:0:0:
256,192,75376,1,0,0:0:0:0:
256,192,75751,1,0,0:0:0:0:
256,192,76126,1,8,0:0:0:0:
256,192,76876,1,0,0:0:0:0:
256,192,77626,1,8,0:0:0:0:
256,192,78001,1,8,0:0:0:0:
256,192,78376,1,0,0:0:0:0:
256,192,79126,1,8,0:0:0:0:
256,192,79876,1,0,0:0:0:0:
256,192,80626,1,8,0:0:0:0:
256,192,81376,1,0,0:0:0:0:
256,192,81751,1,0,0:0:0:0:
256,192,82126,1,8,0:0:0:0:
256,192,82876,1,0,0:0:0:0:
256,192,83626,1,8,0:0:0:0:
256,192,84001,1,8,0:0:0:0:
256,192,84376,1,0,0:0:0:0:
256,192,85876,1,4,0:0:0:0:
256,192,86626,1,8,0:0:0:0:
256,192,87376,1,0,0:0:0:0:
256,192,87751,1,0,0:0:0:0:
256,192,88126,1,8,0:0:0:0:
256,192,88876,1,0,0:0:0:0:
256,192,89626,1,8,0:0:0:0:
256,192,90376,1,8,0:0:0:0:
256,192,90751,1,0,0:0:0:0:
256,192,91126,1,8,0:0:0:0:
256,192,91876,1,0,0:0:0:0:
256,192,92251,1,0,0:0:0:0:
256,192,92626,1,8,0:0:0:0:
256,192,93376,1,0,0:0:0:0:
256,192,94126,1,8,0:0:0:0:
256,192,94876,1,0,0:0:0:0:
256,192,95626,1,8,0:0:0:0:
256,192,96001,1,8,0:0:0:0:
256,192,96376,1,0,0:0:0:0:
256,192,97876,1,0,0:0:0:0:
256,192,99376,1,8,0:0:0:0:
256,192,100126,1,0,0:0:0:0:
256,192,100876,1,4,0:0:0:0:
256,192,101626,1,8,0:0:0:0:
256,192,102376,1,0,0:0:0:0:
256,192,102751,1,8,0:0:0:0:
256,192,103126,1,8,0:0:0:0:
256,192,103876,1,0,0:0:0:0:
256,192,104626,1,8,0:0:0:0:
256,192,105376,1,0,0:0:0:0:
256,192,106126,1,8,0:0:0:0:
256,192,106501,1,8,0:0:0:0:
256,192,106876,1,0,0:0:0:0:
256,192,107626,1,0,0:0:0:0:
256,192,108376,1,8,0:0:0:0:
256,192,109876,1,4,0:0:0:0:
256,192,110626,1,0,0:0:0:0:
256,192,111376,1,8,0:0:0:0:
256,192,112126,1,8,0:0:0:0:
256,192,112876,1,0,0:0:0:0:
256,192,114376,1,0,0:0:0:0:
256,192,115126,1,12,0:0:0:0:
256,192,115876,1,8,0:0:0:0:
256,192,116251,1,8,0:0:0:0:
256,192,116626,1,8,0:0:0:0:
256,192,117376,1,0,0:0:0:0:
256,192,117751,1,0,0:0:0:0:
256,192,118126,1,0,0:0:0:0:
256,192,118876,1,0,0:0:0:0:
256,192,119626,1,8,0:0:0:0:
256,192,120376,1,0,0:0:0:0:
256,192,120751,1,0,0:0:0:0:
256,192,121126,1,8,0:0:0:0:
256,192,121876,1,8,0:0:0:0:
256,192,127876,5,8,0:0:0:0:
256,192,129376,1,8,0:0:0:0:
256,192,130126,1,8,0:0:0:0:
256,192,130876,1,8,0:0:0:0:
256,192,132376,1,8,0:0:0:0:
256,192,133876,1,4,0:0:0:0:
256,192,135376,1,8,0:0:0:0:
256,192,136126,1,8,0:0:0:0:
256,192,136876,1,0,0:0:0:0:
256,192,138376,1,0,0:0:0:0:
256,192,139126,1,8,0:0:0:0:
256,192,139876,1,0,0:0:0:0:
256,192,141376,1,8,0:0:0:0:
256,192,142126,1,8,0:0:0:0:
256,192,142876,1,0,0:0:0:0:
256,192,144376,1,8,0:0:0:0:
256,192,145876,1,0,0:0:0:0:
256,192,146626,1,8,0:0:0:0:
256,192,147376,1,0,0:0:0:0:
256,192,147751,1,0,0:0:0:0:
256,192,148126,1,0,0:0:0:0:
256,192,148876,1,8,0:0:0:0:
256,192,149626,1,0,0:0:0:0:
256,192,150376,1,8,0:0:0:0:
256,192,151876,1,8,0:0:0:0:
256,192,152251,1,8,0:0:0:0:
256,192,152626,1,8,0:0:0:0:
256,192,153376,1,0,0:0:0:0:
256,192,153751,1,0,0:0:0:0:
256,192,154126,1,0,0:0:0:0:
256,192,154876,1,0,0:0:0:0:
256,192,155626,1,0,0:0:0:0:
256,192,156376,1,8,0:0:0:0:
256,192,157876,1,4,0:0:0:0:
256,192,158626,1,8,0:0:0:0:
256,192,159376,1,0,0:0:0:0:
256,192,159751,1,0,0:0:0:0:
256,192,160126,1,8,0:0:0:0:
256,192,160876,1,0,0:0:0:0:
256,192,161626,1,8,0:0:0:0:
256,192,162001,1,8,0:0:0:0:
256,192,162376,1,0,0:0:0:0:
256,192,163126,1,8,0:0:0:0:
256,192,163876,1,0,0:0:0:0:
256,192,164626,1,8,0:0:0:0:
256,192,165376,1,0,0:0:0:0:
256,192,165751,1,0,0:0:0:0:
256,192,166126,1,8,0:0:0:0:
256,192,166876,1,0,0:0:0:0:
256,192,167626,1,8,0:0:0:0:
256,192,168001,1,8,0:0:0:0:
256,192,168376,1,0,0:0:0:0:
256,192,169876,1,4,0:0:0:0:
256,192,170626,1,8,0:0:0:0:
256,192,171376,1,0,0:0:0:0:
256,192,171751,1,0,0:0:0:0:
256,192,172126,1,8,0:0:0:0:
256,192,172876,1,0,0:0:0:0:
256,192,173626,1,8,0:0:0:0:
256,192,174001,1,8,0:0:0:0:
256,192,174376,1,8,0:0:0:0:
256,192,175126,1,0,0:0:0:0:
256,192,175876,1,0,0:0:0:0:
256,192,176626,1,8,0:0:0:0:
256,192,177376,1,0,0:0:0:0:
256,192,177751,1,0,0:0:0:0:
256,192,178126,1,8,0:0:0:0:
256,192,178876,1,0,0:0:0:0:
256,192,179626,1,8,0:0:0:0:
256,192,180001,1,8,0:0:0:0:
256,192,180376,1,0,0:0:0:0:
256,192,181876,1,8,0:0:0:0:
256,192,182626,1,8,0:0:0:0:
256,192,183376,1,8,0:0:0:0:
256,192,183751,1,8,0:0:0:0:
256,192,184126,1,8,0:0:0:0:
256,192,184876,1,0,0:0:0:0:
256,192,186376,1,0,0:0:0:0:
256,192,187126,1,8,0:0:0:0:
256,192,187876,1,8,0:0:0:0:
256,192,188626,1,8,0:0:0:0:
256,192,189376,1,8,0:0:0:0:
256,192,189751,1,8,0:0:0:0:
256,192,190126,1,8,0:0:0:0:
256,192,190876,1,0,0:0:0:0:
256,192,192376,1,0,0:0:0:0:
256,192,193126,1,12,0:0:0:0:
