osu file format v14

[General]
AudioFilename: audio.mp3
AudioLeadIn: 0
PreviewTime: 157768
Countdown: 0
SampleSet: Normal
StackLeniency: 0.7
Mode: 1
LetterboxInBreaks: 0
WidescreenStoryboard: 0

[Editor]
Bookmarks: 85862,97862
DistanceSpacing: 1
BeatDivisor: 2
GridSize: 16
TimelineZoom: 2.3

[Metadata]
Title:Soumatou Labyrinth
TitleUnicode:走馬灯ラビリンス
Artist:Yunomi with Momobako&miko
ArtistUnicode:Yunomi with 桃箱&miko
Creator:komasy
Version:Futsuu
Source:
Tags:MMBK.COM yuzu__rinrin Charlotte
BeatmapID:1319595
BeatmapSetID:625493

[Difficulty]
HPDrainRate:6
CircleSize:2
OverallDifficulty:4
ApproachRate:10
SliderMultiplier:1.4
SliderTickRate:1

[Events]
//Background and Video events
0,0,"bg.jpg",0,100
//Break Periods
//Storyboard Layer 0 (Background)
//Storyboard Layer 1 (Fail)
//Storyboard Layer 2 (Pass)
//Storyboard Layer 3 (Foreground)
//Storyboard Sound Samples

[TimingPoints]
1876,375,4,1,0,70,1,0
1876,-100,4,1,0,70,0,0
7876,-100,4,1,0,70,0,0
13782,-100,4,1,0,80,0,0
19782,-100,4,1,0,85,0,0
24282,-100,4,1,0,70,0,0
25407,-100,4,1,0,85,0,0
25782,-100,4,1,0,95,0,0
25876,-100,4,1,0,95,0,1
37782,-100,4,1,0,85,0,1
37876,-100,4,1,0,85,0,0
61969,-100,4,1,0,75,0,0
67782,-100,4,1,0,85,0,0
72282,-100,4,1,0,70,0,0
73407,-100,4,1,0,85,0,0
73782,-100,4,1,0,95,0,0
73876,-100,4,1,0,95,0,1
85876,-100,4,1,0,95,0,0
85969,-100,4,1,0,85,0,0
97501,-100,4,1,0,85,0,0
97876,-100,4,1,0,85,0,0
97969,-100,4,1,0,50,0,0
100032,-100,4,1,0,75,0,0
100813,-100,4,1,0,85,0,0
121876,-100,4,1,0,85,0,0
121969,-100,4,1,0,70,0,0
127876,-100,4,1,0,70,0,0
133782,-100,4,1,0,75,0,0
145782,-100,4,1,0,85,0,0
157782,-100,4,1,0,95,0,0
157876,-100,4,1,0,95,0,1
169501,-100,4,1,0,95,0,0
169876,-100,4,1,0,95,0,1
181782,-100,4,1,0,75,0,1
181876,-100,4,1,0,75,0,0

[HitObjects]
272,96,1876,5,0,0:0:0:0:
272,96,2626,1,8,0:0:0:0:
272,96,3376,1,8,0:0:0:0:
272,96,3751,1,8,0:0:0:0:
272,96,4126,1,8,0:0:0:0:
272,96,4876,1,8,0:0:0:0:
272,96,5626,1,8,0:0:0:0:
272,96,6376,1,8,0:0:0:0:
272,96,6751,1,8,0:0:0:0:
272,96,7126,1,8,0:0:0:0:
336,112,7876,1,0,0:0:0:0:
272,96,8626,1,8,0:0:0:0:
272,96,9376,1,8,0:0:0:0:
272,96,9751,1,8,0:0:0:0:
272,96,10126,1,8,0:0:0:0:
246,145,10876,1,0,0:0:0:0:
272,96,11626,1,8,0:0:0:0:
272,96,12001,1,8,0:0:0:0:
272,96,12376,1,8,0:0:0:0:
272,96,13126,1,8,0:0:0:0:
496,256,13876,1,4,0:0:0:0:
352,224,14251,1,0,0:0:0:0:
480,192,14626,1,8,0:0:0:0:
210,161,15376,1,8,0:0:0:0:
338,181,15751,1,8,0:0:0:0:
476,167,16126,1,0,0:0:0:0:
496,256,16876,1,0,0:0:0:0:
352,224,17251,1,0,0:0:0:0:
480,192,17626,1,8,0:0:0:0:
480,208,18188,1,8,0:0:0:0:
512,272,18376,1,0,0:0:0:0:
384,224,18751,1,0,0:0:0:0:
336,208,18938,1,8,0:0:0:0:
336,208,19126,1,8,0:0:0:0:
320,224,19876,1,0,0:0:0:0:
368,192,20063,1,0,0:0:0:0:
320,160,20251,1,0,0:0:0:0:
432,160,20626,1,8,0:0:0:0:
288,144,21001,1,0,0:0:0:0:
410,111,21376,1,8,0:0:0:0:
352,112,21563,1,8,0:0:0:0:
304,128,21751,1,8,0:0:0:0:
352,64,22126,1,0,0:0:0:0:
320,128,22876,1,0,0:0:0:0:
352,112,23063,1,0,0:0:0:0:
320,96,23251,1,8,0:0:0:0:
352,112,23626,1,0,0:0:0:0:
272,160,24001,1,8,0:0:0:0:
272,192,24376,1,0,0:0:0:0:
304,192,25126,1,0,0:0:0:0:
416,256,25501,1,12,0:0:0:0:
288,240,25876,1,4,0:0:0:0:
304,112,26251,1,0,0:0:0:0:
384,192,26626,1,8,0:0:0:0:
416,64,27001,1,0,0:0:0:0:
448,16,27188,1,8,0:0:0:0:
416,80,27376,1,0,0:0:0:0:
416,80,27751,1,8,0:0:0:0:
336,192,27938,1,8,0:0:0:0:
384,128,28126,1,0,0:0:0:0:
352,128,28501,1,8,0:0:0:0:
352,128,28876,1,0,0:0:0:0:
352,128,29251,1,0,0:0:0:0:
304,160,29438,1,8,0:0:0:0:
304,160,29626,1,0,0:0:0:0:
304,160,30001,1,8,0:0:0:0:
368,144,30376,1,0,0:0:0:0:
448,176,30751,1,8,0:0:0:0:
384,144,30938,1,8,0:0:0:0:
336,160,31126,1,8,0:0:0:0:
368,192,31876,1,4,0:0:0:0:
464,80,32251,1,0,0:0:0:0:
416,80,32626,1,8,0:0:0:0:
320,16,33001,1,0,0:0:0:0:
288,96,33188,1,8,0:0:0:0:
352,96,33376,1,0,0:0:0:0:
352,96,33751,1,8,0:0:0:0:
304,112,33938,1,8,0:0:0:0:
368,96,34126,1,0,0:0:0:0:
144,96,34501,1,8,0:0:0:0:
176,160,34876,1,0,0:0:0:0:
256,48,35251,1,0,0:0:0:0:
256,128,35438,1,8,0:0:0:0:
256,128,35626,1,0,0:0:0:0:
368,96,36001,1,8,0:0:0:0:
320,160,36376,1,0,0:0:0:0:
368,144,36751,1,0,0:0:0:0:
336,176,36938,1,0,0:0:0:0:
352,176,37126,1,8,0:0:0:0:
240,160,37876,1,4,0:0:0:0:
336,256,38251,1,0,0:0:0:0:
336,272,38626,1,8,0:0:0:0:
336,144,39376,1,0,0:0:0:0:
464,160,39751,1,0,0:0:0:0:
496,160,40126,1,8,0:0:0:0:
373,140,40501,1,8,0:0:0:0:
315,114,40688,1,8,0:0:0:0:
496,160,40876,1,0,0:0:0:0:
368,112,41251,1,0,0:0:0:0:
240,64,41626,1,8,0:0:0:0:
304,176,42376,1,0,0:0:0:0:
237,179,42563,1,0,0:0:0:0:
297,176,42751,1,0,0:0:0:0:
368,192,43126,1,8,0:0:0:0:
256,240,43876,1,4,0:0:0:0:
352,192,44251,1,0,0:0:0:0:
464,144,44626,1,8,0:0:0:0:
464,144,45376,1,0,0:0:0:0:
432,192,45751,1,0,0:0:0:0:
432,208,46126,1,8,0:0:0:0:
448,224,46501,1,8,0:0:0:0:
448,224,46688,1,8,0:0:0:0:
448,224,46876,1,0,0:0:0:0:
336,176,47251,1,0,0:0:0:0:
320,64,47626,1,8,0:0:0:0:
320,64,48001,1,8,0:0:0:0:
352,128,48376,1,0,0:0:0:0:
256,176,49501,1,0,0:0:0:0:
272,144,49876,1,4,0:0:0:0:
400,224,50251,1,0,0:0:0:0:
400,224,50626,1,8,0:0:0:0:
336,208,51376,1,0,0:0:0:0:
208,208,51751,1,0,0:0:0:0:
448,176,52126,1,8,0:0:0:0:
327,127,52501,1,0,0:0:0:0:
273,106,52688,1,8,0:0:0:0:
464,176,52876,1,0,0:0:0:0:
400,224,53251,1,0,0:0:0:0:
400,224,53626,1,8,0:0:0:0:
336,208,54376,1,0,0:0:0:0:
369,158,54563,1,0,0:0:0:0:
400,192,54751,1,0,0:0:0:0:
336,160,55126,1,8,0:0:0:0:
320,160,55501,1,8,0:0:0:0:
272,144,55876,1,4,0:0:0:0:
229,21,56251,1,0,0:0:0:0:
400,224,56626,1,8,0:0:0:0:
336,208,57376,1,0,0:0:0:0:
224,144,57751,1,0,0:0:0:0:
448,176,58126,1,8,0:0:0:0:
464,176,58501,1,0,0:0:0:0:
464,176,58688,1,8,0:0:0:0:
464,176,58876,1,0,0:0:0:0:
320,176,59251,1,0,0:0:0:0:
400,224,59626,1,8,0:0:0:0:
368,208,59814,1,8,0:0:0:0:
400,224,60001,1,8,0:0:0:0:
336,208,60376,1,0,0:0:0:0:
336,192,61126,1,8,0:0:0:0:
320,160,61501,1,8,0:0:0:0:
176,176,61876,1,4,0:0:0:0:
320,160,62626,1,8,0:0:0:0:
320,160,64126,1,8,0:0:0:0:
320,160,65626,1,8,0:0:0:0:
320,160,66751,1,8,0:0:0:0:
320,160,67126,1,8,0:0:0:0:
272,64,67876,1,0,0:0:0:0:
240,112,68063,1,0,0:0:0:0:
208,176,68251,1,0,0:0:0:0:
337,149,68626,1,8,0:0:0:0:
337,149,69001,1,0,0:0:0:0:
272,144,69376,1,8,0:0:0:0:
336,128,69563,1,8,0:0:0:0:
336,128,69751,1,8,0:0:0:0:
336,128,70126,1,0,0:0:0:0:
304,160,70876,1,0,0:0:0:0:
272,176,71251,1,8,0:0:0:0:
272,176,71439,1,8,0:0:0:0:
272,176,71626,1,8,0:0:0:0:
239,156,72001,1,8,0:0:0:0:
336,176,72376,1,0,0:0:0:0:
320,224,73126,1,0,0:0:0:0:
384,224,73501,1,12,0:0:0:0:
384,224,73876,1,4,0:0:0:0:
432,160,74251,1,0,0:0:0:0:
320,192,74626,1,8,0:0:0:0:
368,208,75001,1,0,0:0:0:0:
323,183,75188,1,8,0:0:0:0:
432,160,75376,1,0,0:0:0:0:
368,160,75751,1,8,0:0:0:0:
432,112,75938,1,8,0:0:0:0:
379,118,76126,1,0,0:0:0:0:
352,80,76501,1,8,0:0:0:0:
480,64,76876,1,0,0:0:0:0:
432,176,77251,1,0,0:0:0:0:
384,128,77438,1,8,0:0:0:0:
336,80,77626,1,0,0:0:0:0:
288,112,78001,1,8,0:0:0:0:
384,112,78376,1,0,0:0:0:0:
432,112,78751,1,8,0:0:0:0:
368,112,78938,1,0,0:0:0:0:
432,112,79126,1,8,0:0:0:0:
384,224,79876,1,4,0:0:0:0:
432,160,80251,1,0,0:0:0:0:
320,192,80626,1,8,0:0:0:0:
368,208,81001,1,0,0:0:0:0:
400,160,81188,1,8,0:0:0:0:
432,160,81376,1,0,0:0:0:0:
368,160,81751,1,8,0:0:0:0:
432,112,81938,1,8,0:0:0:0:
480,64,82126,1,0,0:0:0:0:
272,96,82501,1,8,0:0:0:0:
480,64,82876,1,0,0:0:0:0:
432,176,83251,1,0,0:0:0:0:
384,128,83438,1,8,0:0:0:0:
336,80,83626,1,0,0:0:0:0:
336,80,84001,1,8,0:0:0:0:
384,112,84376,1,0,0:0:0:0:
224,336,85126,1,8,0:0:0:0:
192,144,85876,1,4,0:0:0:0:
112,32,86251,1,0,0:0:0:0:
240,64,86626,1,8,0:0:0:0:
96,48,87001,1,0,0:0:0:0:
384,80,87751,1,0,0:0:0:0:
240,64,88126,1,8,0:0:0:0:
112,48,88501,1,0,0:0:0:0:
256,64,88876,1,0,0:0:0:0:
112,48,89251,1,0,0:0:0:0:
160,48,89438,1,0,0:0:0:0:
256,64,89626,1,8,0:0:0:0:
304,160,90001,1,0,0:0:0:0:
256,64,90751,1,0,0:0:0:0:
112,48,91126,1,8,0:0:0:0:
256,64,91501,1,8,0:0:0:0:
192,64,91876,1,0,0:0:0:0:
224,128,92063,1,0,0:0:0:0:
192,64,92251,1,0,0:0:0:0:
192,64,92626,1,12,0:0:0:0:
380,173,93188,1,8,0:0:0:0:
325,145,93376,1,0,0:0:0:0:
192,64,93751,1,0,0:0:0:0:
192,64,94126,1,8,0:0:0:0:
192,64,94501,1,0,0:0:0:0:
192,64,94876,1,0,0:0:0:0:
192,64,95251,1,0,0:0:0:0:
192,64,95438,1,0,0:0:0:0:
192,64,95626,1,8,0:0:0:0:
144,176,96001,1,0,0:0:0:0:
272,96,96376,1,0,0:0:0:0:
288,32,96563,1,8,0:0:0:0:
192,176,96751,1,0,0:0:0:0:
192,80,97126,1,8,0:0:0:0:
272,64,97876,1,4,0:0:0:0:
368,80,99376,1,8,0:0:0:0:
496,160,100126,1,0,0:0:0:0:
336,112,100501,1,8,0:0:0:0:
336,112,100876,1,0,0:0:0:0:
403,227,101251,1,0,0:0:0:0:
240,64,101626,1,8,0:0:0:0:
304,176,102376,1,0,0:0:0:0:
272,160,102751,1,8,0:0:0:0:
368,192,103126,1,8,0:0:0:0:
256,240,103876,1,4,0:0:0:0:
352,192,104251,1,0,0:0:0:0:
464,144,104626,1,8,0:0:0:0:
464,144,105376,1,0,0:0:0:0:
432,192,105751,1,0,0:0:0:0:
432,208,106126,1,8,0:0:0:0:
340,120,106501,1,0,0:0:0:0:
304,85,106688,1,8,0:0:0:0:
448,224,106876,1,0,0:0:0:0:
339,149,107251,1,0,0:0:0:0:
384,176,107626,1,8,0:0:0:0:
384,224,107813,1,8,0:0:0:0:
320,192,108001,1,8,0:0:0:0:
352,128,108376,1,0,0:0:0:0:
496,160,109126,1,8,0:0:0:0:
416,176,109501,1,0,0:0:0:0:
272,144,109876,1,4,0:0:0:0:
384,64,110251,1,8,0:0:0:0:
384,64,110626,1,0,0:0:0:0:
448,128,111376,1,8,0:0:0:0:
386,136,111563,1,8,0:0:0:0:
384,128,111751,1,8,0:0:0:0:
384,128,112126,1,0,0:0:0:0:
304,160,112876,1,0,0:0:0:0:
400,64,113251,1,0,0:0:0:0:
400,64,113626,1,8,0:0:0:0:
352,112,114376,1,0,0:0:0:0:
334,83,114563,1,0,0:0:0:0:
368,160,114751,1,0,0:0:0:0:
464,160,115126,1,8,0:0:0:0:
432,144,115876,1,0,0:0:0:0:
400,128,116063,1,0,0:0:0:0:
400,128,116251,1,0,0:0:0:0:
336,112,116626,1,8,0:0:0:0:
320,128,117001,1,0,0:0:0:0:
320,128,117376,1,8,0:0:0:0:
256,112,117563,1,8,0:0:0:0:
304,160,117751,1,8,0:0:0:0:
256,112,118126,1,0,0:0:0:0:
384,144,118876,1,0,0:0:0:0:
384,192,119251,1,0,0:0:0:0:
264,155,119626,1,8,0:0:0:0:
384,192,120001,1,0,0:0:0:0:
384,192,120188,1,8,0:0:0:0:
384,192,120376,1,0,0:0:0:0:
384,192,120751,1,0,0:0:0:0:
272,144,121126,1,8,0:0:0:0:
308,159,121876,1,12,0:0:0:0:
252,180,123376,1,8,0:0:0:0:
448,256,124126,1,8,0:0:0:0:
406,190,124876,1,8,0:0:0:0:
491,231,126376,1,8,0:0:0:0:
491,231,127126,1,8,0:0:0:0:
229,148,127876,1,0,0:0:0:0:
275,53,128626,1,8,0:0:0:0:
391,148,129376,1,8,0:0:0:0:
391,148,129751,1,8,0:0:0:0:
391,148,130126,1,8,0:0:0:0:
384,210,130876,1,0,0:0:0:0:
397,140,131626,1,8,0:0:0:0:
469,149,132376,1,0,0:0:0:0:
401,105,133126,1,8,0:0:0:0:
448,224,133501,1,8,0:0:0:0:
349,151,133876,1,4,0:0:0:0:
469,156,134626,1,8,0:0:0:0:
469,156,135376,1,0,0:0:0:0:
348,193,135751,1,0,0:0:0:0:
295,209,136126,1,8,0:0:0:0:
409,50,136876,1,0,0:0:0:0:
416,40,137626,1,8,0:0:0:0:
386,93,138376,1,0,0:0:0:0:
386,93,138751,1,8,0:0:0:0:
386,93,139126,1,8,0:0:0:0:
349,151,139876,1,0,0:0:0:0:
469,156,140626,1,8,0:0:0:0:
469,156,141376,1,0,0:0:0:0:
348,193,141751,1,0,0:0:0:0:
295,209,142126,1,8,0:0:0:0:
409,50,142876,1,0,0:0:0:0:
416,40,143626,1,0,0:0:0:0:
351,157,144001,1,8,0:0:0:0:
386,93,144376,1,0,0:0:0:0:
386,93,145126,1,8,0:0:0:0:
340,360,145876,1,4,0:0:0:0:
307,219,146251,1,0,0:0:0:0:
276,86,146626,1,8,0:0:0:0:
388,93,147376,1,8,0:0:0:0:
388,93,147751,1,8,0:0:0:0:
388,93,147938,1,8,0:0:0:0:
320,96,148126,1,0,0:0:0:0:
431,152,148876,1,0,0:0:0:0:
304,144,149251,1,0,0:0:0:0:
457,197,149626,1,8,0:0:0:0:
412,237,150376,1,0,0:0:0:0:
412,237,150751,1,0,0:0:0:0:
407,230,150938,1,0,0:0:0:0:
336,144,151126,1,8,0:0:0:0:
474,247,151876,1,0,0:0:0:0:
409,233,152063,1,0,0:0:0:0:
340,217,152251,1,0,0:0:0:0:
277,109,152626,1,8,0:0:0:0:
277,109,153001,1,0,0:0:0:0:
411,53,153376,1,8,0:0:0:0:
288,128,153563,1,8,0:0:0:0:
337,88,153751,1,8,0:0:0:0:
352,160,154126,1,0,0:0:0:0:
215,191,154876,1,0,0:0:0:0:
215,191,155251,1,8,0:0:0:0:
215,191,155626,1,0,0:0:0:0:
216,147,155813,1,0,0:0:0:0:
337,203,156001,1,8,0:0:0:0:
213,191,156376,1,0,0:0:0:0:
281,219,157126,1,0,0:0:0:0:
314,232,157501,1,12,0:0:0:0:
384,224,157876,5,4,0:0:0:0:
432,160,158251,1,0,0:0:0:0:
320,192,158626,1,8,0:0:0:0:
368,208,159001,1,0,0:0:0:0:
400,160,159188,1,8,0:0:0:0:
432,160,159376,1,0,0:0:0:0:
368,160,159751,1,8,0:0:0:0:
432,112,159938,1,8,0:0:0:0:
480,64,160126,1,0,0:0:0:0:
400,128,160501,1,8,0:0:0:0:
480,64,160876,1,0,0:0:0:0:
432,176,161251,1,0,0:0:0:0:
384,128,161438,1,8,0:0:0:0:
336,80,161626,1,0,0:0:0:0:
336,80,162001,1,8,0:0:0:0:
384,112,162376,1,0,0:0:0:0:
432,112,162751,1,8,0:0:0:0:
432,112,162938,1,0,0:0:0:0:
432,112,163126,1,8,0:0:0:0:
384,224,163876,1,4,0:0:0:0:
432,160,164251,1,0,0:0:0:0:
320,192,164626,1,8,0:0:0:0:
368,208,165001,1,0,0:0:0:0:
400,160,165188,1,8,0:0:0:0:
432,160,165376,1,0,0:0:0:0:
368,160,165751,1,8,0:0:0:0:
432,112,165938,1,8,0:0:0:0:
480,64,166126,1,0,0:0:0:0:
256,144,166501,1,8,0:0:0:0:
480,64,166876,1,0,0:0:0:0:
432,176,167251,1,0,0:0:0:0:
384,128,167438,1,8,0:0:0:0:
336,80,167626,1,0,0:0:0:0:
336,80,168001,1,8,0:0:0:0:
384,112,168376,1,0,0:0:0:0:
288,112,169126,1,8,0:0:0:0:
327,52,169876,1,4,0:0:0:0:
327,52,170251,1,0,0:0:0:0:
352,160,170626,1,8,0:0:0:0:
420,187,171001,1,0,0:0:0:0:
351,149,171188,1,8,0:0:0:0:
404,177,171376,1,0,0:0:0:0:
431,156,171751,1,8,0:0:0:0:
371,119,171938,1,0,0:0:0:0:
331,103,172126,1,0,0:0:0:0:
404,177,172501,1,8,0:0:0:0:
423,195,172876,1,0,0:0:0:0:
288,176,173251,1,0,0:0:0:0:
224,160,173438,1,8,0:0:0:0:
144,144,173626,1,0,0:0:0:0:
96,144,174001,1,8,0:0:0:0:
96,144,174376,1,0,0:0:0:0:
368,159,174751,1,8,0:0:0:0:
338,154,175126,1,0,0:0:0:0:
370,286,175876,1,0,0:0:0:0:
365,152,176251,1,0,0:0:0:0:
365,152,176626,1,8,0:0:0:0:
411,77,177001,1,0,0:0:0:0:
364,154,177188,1,8,0:0:0:0:
399,96,177376,1,0,0:0:0:0:
358,153,177751,1,8,0:0:0:0:
232,159,177938,1,0,0:0:0:0:
283,140,178126,1,0,0:0:0:0:
412,103,178501,1,8,0:0:0:0:
393,129,178876,1,0,0:0:0:0:
393,129,179251,1,0,0:0:0:0:
393,129,179438,1,8,0:0:0:0:
393,129,179626,1,0,0:0:0:0:
390,161,180001,1,8,0:0:0:0:
389,106,180376,1,0,0:0:0:0:
320,115,181126,1,8,0:0:0:0:
320,115,181501,1,0,0:0:0:0:
293,152,181876,1,4,0:0:0:0:
410,101,182251,1,0,0:0:0:0:
287,154,182626,1,8,0:0:0:0:
410,103,183001,1,0,0:0:0:0:
287,153,183751,1,0,0:0:0:0:
420,102,184126,1,8,0:0:0:0:
411,108,184876,1,0,0:0:0:0:
280,154,185251,1,0,0:0:0:0:
339,133,185438,1,0,0:0:0:0:
415,107,185626,1,8,0:0:0:0:
293,149,186001,1,0,0:0:0:0:
415,109,186751,1,0,0:0:0:0:
284,152,187126,1,8,0:0:0:0:
344,132,187876,1,0,0:0:0:0:
219,194,188251,1,0,0:0:0:0:
338,135,188626,1,8,0:0:0:0:
213,197,189001,1,0,0:0:0:0:
332,137,189751,1,0,0:0:0:0:
332,137,190126,1,8,0:0:0:0:
332,137,190876,1,0,0:0:0:0:
332,137,191251,1,0,0:0:0:0:
260,154,191438,1,0,0:0:0:0:
260,154,191626,1,8,0:0:0:0:
260,154,192001,1,0,0:0:0:0:
260,154,192751,1,0,0:0:0:0:
330,168,193126,1,12,0:0:0:0:
