osu file format v14

[General]
AudioFilename: audio.mp3
AudioLeadIn: 0
PreviewTime: 157768
Countdown: 0
SampleSet: Normal
StackLeniency: 0.7
Mode: 1
LetterboxInBreaks: 0
WidescreenStoryboard: 1

[Editor]
DistanceSpacing: 1
BeatDivisor: 4
GridSize: 4
TimelineZoom: 2

[Metadata]
Title:Soumatou Labyrinth
TitleUnicode:走馬灯ラビリンス
Artist:Yunomi with Momobako&miko
ArtistUnicode:Yunomi with 桃箱&miko
Creator:komasy
Version:Charlotte's Oni
Source:
Tags:MMBK.COM yuzu__rinrin Charlotte
BeatmapID:1325077
BeatmapSetID:625493

[Difficulty]
HPDrainRate:6
CircleSize:5
OverallDifficulty:5.5
ApproachRate:10
SliderMultiplier:1.4
SliderTickRate:1

[Events]
//Background and Video events
0,0,"bg.jpg",0,100
//Break Periods
//Storyboard Layer 0 (Background)
//Storyboard Layer 1 (Fail)
//Storyboard Layer 2 (Pass)
//Storyboard Layer 3 (Foreground)
//Storyboard Sound Samples

[TimingPoints]
1876,375,4,1,0,70,1,0
13782,-100,4,1,0,80,0,0
19782,-100,4,1,0,85,0,0
24282,-100,4,1,0,70,0,0
25407,-100,4,1,0,85,0,0
25782,-100,4,1,0,95,0,0
25876,-100,4,1,0,95,0,1
37782,-100,4,1,0,85,0,1
37876,-100,4,1,0,85,0,0
61969,-100,4,1,0,75,0,0
67782,-100,4,1,0,85,0,0
72282,-100,4,1,0,70,0,0
73407,-100,4,1,0,85,0,0
73782,-100,4,1,0,95,0,0
73876,-100,4,1,0,95,0,1
97876,-100,4,1,0,85,0,0
97969,-100,4,1,0,50,0,0
100032,-100,4,1,0,75,0,0
100813,-100,4,1,0,85,0,0
121969,-100,4,1,0,70,0,0
133782,-100,4,1,0,75,0,0
145782,-100,4,1,0,85,0,0
157782,-100,4,1,0,95,0,0
157876,-100,4,1,0,95,0,1
169501,-100,4,1,0,95,0,0
169876,-100,4,1,0,95,0,1
181782,-100,4,1,0,75,0,1
181876,-100,4,1,0,75,0,0

[HitObjects]
256,192,1876,5,8,0:0:0:0:
256,192,2626,1,8,0:0:0:0:
256,192,3376,1,8,0:0:0:0:
256,192,3751,1,8,0:0:0:0:
256,192,3938,1,8,0:0:0:0:
256,192,4126,1,8,0:0:0:0:
256,192,4407,1,8,0:0:0:0:
256,192,4501,1,8,0:0:0:0:
256,192,4688,1,0,0:0:0:0:
256,192,4876,1,8,0:0:0:0:
256,192,5251,1,8,0:0:0:0:
256,192,5438,1,0,0:0:0:0:
256,192,5626,1,8,0:0:0:0:
256,192,5813,1,8,0:0:0:0:
256,192,6001,1,0,0:0:0:0:
256,192,6376,1,8,0:0:0:0:
256,192,6563,1,8,0:0:0:0:
256,192,6751,1,0,0:0:0:0:
256,192,6938,1,0,0:0:0:0:
256,192,7126,1,8,0:0:0:0:
256,192,7407,1,8,0:0:0:0:
256,192,7501,1,8,0:0:0:0:
256,192,7688,1,0,0:0:0:0:
256,192,7876,1,8,0:0:0:0:
256,192,8626,1,8,0:0:0:0:
256,192,9376,1,8,0:0:0:0:
256,192,9751,1,8,0:0:0:0:
256,192,9938,1,8,0:0:0:0:
256,192,10126,1,8,0:0:0:0:
256,192,10407,1,8,0:0:0:0:
256,192,10501,1,8,0:0:0:0:
256,192,10688,1,0,0:0:0:0:
256,192,10876,1,8,0:0:0:0:
256,192,11251,1,8,0:0:0:0:
256,192,11438,1,0,0:0:0:0:
256,192,11626,1,8,0:0:0:0:
256,192,11813,1,8,0:0:0:0:
256,192,12001,1,0,0:0:0:0:
256,192,12376,1,8,0:0:0:0:
256,192,12751,1,0,0:0:0:0:
256,192,13126,1,8,0:0:0:0:
256,192,13876,1,4,0:0:0:0:
256,192,14251,1,0,0:0:0:0:
256,192,14438,1,8,0:0:0:0:
256,192,14626,1,0,0:0:0:0:
256,192,14907,1,0,0:0:0:0:
256,192,15001,1,8,0:0:0:0:
256,192,15188,1,0,0:0:0:0:
256,192,15376,1,8,0:0:0:0:
256,192,15751,1,0,0:0:0:0:
256,192,15938,1,8,0:0:0:0:
256,192,16126,1,0,0:0:0:0:
256,192,16313,1,8,0:0:0:0:
256,192,16407,1,8,0:0:0:0:
256,192,16501,1,8,0:0:0:0:
256,192,16688,1,8,0:0:0:0:
256,192,16876,1,0,0:0:0:0:
256,192,17251,1,8,0:0:0:0:
256,192,17438,1,0,0:0:0:0:
256,192,17626,1,8,0:0:0:0:
256,192,17907,1,8,0:0:0:0:
256,192,18001,1,8,0:0:0:0:
256,192,18188,1,8,0:0:0:0:
256,192,18376,1,0,0:0:0:0:
256,192,18563,1,8,0:0:0:0:
256,192,18751,1,0,0:0:0:0:
256,192,18938,1,0,0:0:0:0:
256,192,19126,1,8,0:0:0:0:
256,192,19407,1,0,0:0:0:0:
256,192,19501,1,8,0:0:0:0:
256,192,19688,1,0,0:0:0:0:
256,192,19876,1,0,0:0:0:0:
256,192,20063,1,0,0:0:0:0:
256,192,20251,1,8,0:0:0:0:
256,192,20438,1,0,0:0:0:0:
256,192,20531,1,8,0:0:0:0:
256,192,20625,1,0,0:0:0:0:
256,192,20907,1,0,0:0:0:0:
256,192,21001,1,8,0:0:0:0:
256,192,21188,1,0,0:0:0:0:
256,192,21376,1,8,0:0:0:0:
256,192,21563,1,0,0:0:0:0:
256,192,21751,1,8,0:0:0:0:
256,192,21938,1,0,0:0:0:0:
256,192,22032,1,8,0:0:0:0:
256,192,22126,1,0,0:0:0:0:
256,192,22407,1,0,0:0:0:0:
256,192,22501,1,8,0:0:0:0:
256,192,22688,1,0,0:0:0:0:
256,192,22876,1,0,0:0:0:0:
256,192,22969,1,0,0:0:0:0:
256,192,23063,1,8,0:0:0:0:
256,192,23157,1,8,0:0:0:0:
256,192,23251,1,0,0:0:0:0:
256,192,23344,1,0,0:0:0:0:
256,192,23438,1,8,0:0:0:0:
256,192,23626,1,0,0:0:0:0:
256,192,23813,1,0,0:0:0:0:
256,192,24001,1,8,0:0:0:0:
256,192,24188,1,0,0:0:0:0:
256,192,24376,1,0,0:0:0:0:
256,192,24469,1,0,0:0:0:0:
256,192,24563,1,8,0:0:0:0:
256,192,24751,1,8,0:0:0:0:
256,192,24844,1,8,0:0:0:0:
256,192,24938,1,0,0:0:0:0:
256,192,25032,1,0,0:0:0:0:
256,192,25126,1,8,0:0:0:0:
256,192,25313,1,0,0:0:0:0:
256,192,25501,1,12,0:0:0:0:
256,192,25876,1,4,0:0:0:0:
256,192,26063,1,8,0:0:0:0:
256,192,26157,1,8,0:0:0:0:
256,192,26251,1,0,0:0:0:0:
256,192,26438,1,8,0:0:0:0:
256,192,26626,1,0,0:0:0:0:
256,192,27001,1,8,0:0:0:0:
256,192,27188,1,8,0:0:0:0:
256,192,27376,1,0,0:0:0:0:
256,192,27563,1,0,0:0:0:0:
256,192,27657,1,8,0:0:0:0:
256,192,27751,1,0,0:0:0:0:
256,192,27938,1,0,0:0:0:0:
256,192,28126,1,8,0:0:0:0:
256,192,28501,1,0,0:0:0:0:
256,192,28688,1,8,0:0:0:0:
256,192,28876,1,0,0:0:0:0:
256,192,29063,1,0,0:0:0:0:
256,192,29157,1,0,0:0:0:0:
256,192,29251,1,8,0:0:0:0:
256,192,29438,1,0,0:0:0:0:
256,192,29626,1,8,0:0:0:0:
256,192,29813,1,8,0:0:0:0:
256,192,29907,1,8,0:0:0:0:
256,192,30001,1,0,0:0:0:0:
256,192,30188,1,0,0:0:0:0:
256,192,30376,1,8,0:0:0:0:
256,192,30563,1,0,0:0:0:0:
256,192,30657,1,0,0:0:0:0:
256,192,30751,1,8,0:0:0:0:
256,192,30938,1,0,0:0:0:0:
256,192,31126,1,8,0:0:0:0:
256,192,31407,1,0,0:0:0:0:
256,192,31501,1,8,0:0:0:0:
256,192,31688,1,0,0:0:0:0:
256,192,31876,1,0,0:0:0:0:
256,192,32063,1,8,0:0:0:0:
256,192,32157,1,0,0:0:0:0:
256,192,32251,1,0,0:0:0:0:
256,192,32438,1,8,0:0:0:0:
256,192,32626,1,0,0:0:0:0:
256,192,33001,1,8,0:0:0:0:
256,192,33188,1,8,0:0:0:0:
256,192,33376,1,0,0:0:0:0:
256,192,33563,1,0,0:0:0:0:
256,192,33657,1,8,0:0:0:0:
256,192,33751,1,0,0:0:0:0:
256,192,33938,1,8,0:0:0:0:
256,192,34126,1,0,0:0:0:0:
256,192,34501,1,8,0:0:0:0:
256,192,34688,1,8,0:0:0:0:
256,192,34876,1,0,0:0:0:0:
256,192,35063,1,0,0:0:0:0:
256,192,35157,1,0,0:0:0:0:
256,192,35251,1,8,0:0:0:0:
256,192,35438,1,0,0:0:0:0:
256,192,35626,1,8,0:0:0:0:
256,192,35813,1,8,0:0:0:0:
256,192,35907,1,8,0:0:0:0:
256,192,36001,1,0,0:0:0:0:
256,192,36188,1,0,0:0:0:0:
256,192,36376,1,8,0:0:0:0:
256,192,36563,1,0,0:0:0:0:
256,192,36657,1,0,0:0:0:0:
256,192,36751,1,8,0:0:0:0:
256,192,36844,1,8,0:0:0:0:
256,192,36938,1,0,0:0:0:0:
256,192,37126,1,8,0:0:0:0:
256,192,37313,1,0,0:0:0:0:
256,192,37407,1,0,0:0:0:0:
256,192,37501,1,0,0:0:0:0:
256,192,37876,1,4,0:0:0:0:
256,192,38251,1,0,0:0:0:0:
256,192,38438,1,0,0:0:0:0:
256,192,38626,1,8,0:0:0:0:
288,200,39001,1,8,0:0:0:0:
336,144,39188,1,8,0:0:0:0:
336,144,39376,1,0,0:0:0:0:
464,160,39751,1,0,0:0:0:0:
464,160,39938,1,8,0:0:0:0:
496,160,40126,1,0,0:0:0:0:
496,160,40313,1,0,0:0:0:0:
496,160,40501,1,8,0:0:0:0:
496,160,40876,1,0,0:0:0:0:
368,112,41251,1,0,0:0:0:0:
320,80,41438,1,0,0:0:0:0:
240,64,41626,1,8,0:0:0:0:
290,88,41813,1,0,0:0:0:0:
304,176,42001,1,8,0:0:0:0:
304,176,42188,1,8,0:0:0:0:
304,176,42376,1,0,0:0:0:0:
297,176,42751,1,8,0:0:0:0:
403,157,42938,1,0,0:0:0:0:
368,192,43126,1,8,0:0:0:0:
400,224,43219,1,8,0:0:0:0:
400,240,43313,1,0,0:0:0:0:
368,304,43501,1,8,0:0:0:0:
256,240,43876,1,4,0:0:0:0:
352,192,44251,1,8,0:0:0:0:
400,160,44438,1,0,0:0:0:0:
464,144,44626,1,8,0:0:0:0:
464,144,45001,1,0,0:0:0:0:
464,144,45188,1,8,0:0:0:0:
464,144,45376,1,0,0:0:0:0:
432,192,45751,1,0,0:0:0:0:
480,240,45938,1,8,0:0:0:0:
432,208,46126,1,0,0:0:0:0:
496,240,46313,1,8,0:0:0:0:
448,224,46407,1,8,0:0:0:0:
448,224,46501,1,8,0:0:0:0:
448,224,46688,1,8,0:0:0:0:
448,224,46876,1,0,0:0:0:0:
368,192,47157,1,0,0:0:0:0:
336,176,47251,1,8,0:0:0:0:
336,128,47438,1,8,0:0:0:0:
320,64,47626,1,0,0:0:0:0:
326,83,47719,1,0,0:0:0:0:
320,64,47813,1,8,0:0:0:0:
320,64,48001,1,0,0:0:0:0:
352,128,48188,1,8,0:0:0:0:
352,128,48376,1,0,0:0:0:0:
496,160,48751,1,0,0:0:0:0:
432,128,48938,1,0,0:0:0:0:
496,160,49126,1,8,0:0:0:0:
464,144,49219,1,8,0:0:0:0:
464,144,49313,1,0,0:0:0:0:
416,176,49501,1,0,0:0:0:0:
272,144,49876,1,4,0:0:0:0:
400,224,50251,1,8,0:0:0:0:
400,224,50438,1,0,0:0:0:0:
400,224,50626,1,0,0:0:0:0:
400,224,51001,1,0,0:0:0:0:
400,224,51188,1,8,0:0:0:0:
336,208,51376,1,8,0:0:0:0:
208,208,51751,1,0,0:0:0:0:
400,208,51938,1,8,0:0:0:0:
448,176,52126,1,0,0:0:0:0:
512,192,52313,1,8,0:0:0:0:
464,176,52407,1,8,0:0:0:0:
464,176,52501,1,8,0:0:0:0:
464,176,52688,1,8,0:0:0:0:
464,176,52876,1,0,0:0:0:0:
384,128,53157,1,0,0:0:0:0:
400,224,53251,1,8,0:0:0:0:
400,224,53438,1,8,0:0:0:0:
400,224,53626,1,0,0:0:0:0:
368,208,53813,1,8,0:0:0:0:
400,224,53907,1,8,0:0:0:0:
400,224,54001,1,0,0:0:0:0:
400,224,54188,1,8,0:0:0:0:
336,208,54376,1,0,0:0:0:0:
276,180,54563,1,8,0:0:0:0:
276,180,54657,1,8,0:0:0:0:
448,224,54751,1,8,0:0:0:0:
400,192,54938,1,0,0:0:0:0:
336,160,55126,1,8,0:0:0:0:
320,144,55219,1,8,0:0:0:0:
272,128,55313,1,0,0:0:0:0:
320,160,55501,1,8,0:0:0:0:
272,144,55876,1,4,0:0:0:0:
400,224,56251,1,0,0:0:0:0:
400,224,56438,1,8,0:0:0:0:
400,224,56626,1,0,0:0:0:0:
400,224,57001,1,0,0:0:0:0:
400,224,57188,1,8,0:0:0:0:
336,208,57376,1,0,0:0:0:0:
208,208,57751,1,0,0:0:0:0:
400,208,57938,1,8,0:0:0:0:
448,176,58126,1,0,0:0:0:0:
512,192,58313,1,8,0:0:0:0:
464,176,58407,1,8,0:0:0:0:
464,176,58501,1,8,0:0:0:0:
464,176,58688,1,8,0:0:0:0:
464,176,58876,1,0,0:0:0:0:
384,128,59157,1,0,0:0:0:0:
400,224,59251,1,8,0:0:0:0:
400,224,59438,1,8,0:0:0:0:
400,224,59626,1,0,0:0:0:0:
400,224,59719,1,0,0:0:0:0:
368,208,59813,1,8,0:0:0:0:
400,224,59907,1,8,0:0:0:0:
400,224,60001,1,0,0:0:0:0:
400,224,60188,1,8,0:0:0:0:
336,208,60376,1,0,0:0:0:0:
284,172,60563,1,0,0:0:0:0:
252,156,60657,1,0,0:0:0:0:
288,160,60751,1,8,0:0:0:0:
288,160,60938,1,0,0:0:0:0:
336,160,61126,1,8,0:0:0:0:
320,144,61219,1,8,0:0:0:0:
272,128,61313,1,0,0:0:0:0:
320,160,61501,1,8,0:0:0:0:
176,176,61876,1,4,0:0:0:0:
320,160,62251,1,8,0:0:0:0:
320,160,62626,1,8,0:0:0:0:
320,160,63376,1,0,0:0:0:0:
320,160,63751,1,8,0:0:0:0:
320,160,64126,1,8,0:0:0:0:
320,160,64876,1,0,0:0:0:0:
320,160,65251,1,8,0:0:0:0:
320,160,65626,1,0,0:0:0:0:
320,160,66001,1,8,0:0:0:0:
320,160,66188,1,8,0:0:0:0:
320,160,66376,1,0,0:0:0:0:
320,160,66751,1,0,0:0:0:0:
320,160,66938,1,0,0:0:0:0:
320,160,67126,1,8,0:0:0:0:
430,189,67407,1,8,0:0:0:0:
430,189,67501,1,0,0:0:0:0:
430,189,67688,1,8,0:0:0:0:
272,64,67876,1,0,0:0:0:0:
240,112,68063,1,0,0:0:0:0:
208,176,68251,1,8,0:0:0:0:
208,176,68438,1,0,0:0:0:0:
208,176,68532,1,8,0:0:0:0:
208,176,68626,1,0,0:0:0:0:
208,176,68907,1,0,0:0:0:0:
208,176,69001,1,8,0:0:0:0:
208,176,69188,1,0,0:0:0:0:
208,176,69376,1,8,0:0:0:0:
208,176,69563,1,0,0:0:0:0:
208,176,69751,1,8,0:0:0:0:
208,176,69938,1,0,0:0:0:0:
208,176,70032,1,8,0:0:0:0:
208,176,70126,1,0,0:0:0:0:
448,128,70407,1,0,0:0:0:0:
416,128,70501,1,8,0:0:0:0:
352,144,70688,1,0,0:0:0:0:
320,208,70876,1,0,0:0:0:0:
336,160,70969,1,0,0:0:0:0:
336,176,71063,1,8,0:0:0:0:
320,224,71157,1,8,0:0:0:0:
336,176,71251,1,0,0:0:0:0:
336,176,71344,1,0,0:0:0:0:
336,176,71438,1,8,0:0:0:0:
304,160,71626,1,0,0:0:0:0:
304,160,71813,1,0,0:0:0:0:
239,156,72001,1,8,0:0:0:0:
182,152,72188,1,0,0:0:0:0:
336,176,72376,1,0,0:0:0:0:
384,224,72563,1,0,0:0:0:0:
368,224,72657,1,0,0:0:0:0:
336,224,72751,1,8,0:0:0:0:
256,224,72938,1,0,0:0:0:0:
320,224,73126,1,8,0:0:0:0:
320,224,73313,1,0,0:0:0:0:
384,224,73501,1,12,0:0:0:0:
384,224,73876,1,4,0:0:0:0:
432,160,74251,1,0,0:0:0:0:
384,208,74438,1,8,0:0:0:0:
320,192,74626,1,0,0:0:0:0:
368,208,75001,1,0,0:0:0:0:
400,160,75188,1,8,0:0:0:0:
432,160,75376,1,0,0:0:0:0:
400,160,75469,1,8,0:0:0:0:
416,160,75657,1,8,0:0:0:0:
368,160,75751,1,0,0:0:0:0:
432,112,75938,1,8,0:0:0:0:
480,64,76126,1,0,0:0:0:0:
400,128,76501,1,8,0:0:0:0:
336,144,76688,1,8,0:0:0:0:
480,64,76876,1,0,0:0:0:0:
384,96,77157,1,8,0:0:0:0:
432,176,77251,1,0,0:0:0:0:
384,128,77438,1,8,0:0:0:0:
336,80,77626,1,0,0:0:0:0:
336,80,77813,1,8,0:0:0:0:
336,80,77907,1,8,0:0:0:0:
336,80,78001,1,0,0:0:0:0:
384,112,78376,1,0,0:0:0:0:
432,112,78563,1,0,0:0:0:0:
432,112,78657,1,0,0:0:0:0:
432,112,78751,1,8,0:0:0:0:
432,112,78938,1,0,0:0:0:0:
432,112,79126,1,8,0:0:0:0:
272,112,79219,1,0,0:0:0:0:
320,144,79313,1,0,0:0:0:0:
320,112,79407,1,0,0:0:0:0:
320,112,79501,1,8,0:0:0:0:
272,112,79688,1,0,0:0:0:0:
384,224,79876,1,4,0:0:0:0:
432,160,80251,1,0,0:0:0:0:
384,208,80438,1,8,0:0:0:0:
320,192,80626,1,0,0:0:0:0:
368,208,81001,1,0,0:0:0:0:
400,160,81188,1,8,0:0:0:0:
432,160,81376,1,0,0:0:0:0:
400,160,81469,1,8,0:0:0:0:
416,160,81657,1,8,0:0:0:0:
368,160,81751,1,0,0:0:0:0:
432,112,81938,1,8,0:0:0:0:
480,64,82126,1,0,0:0:0:0:
400,128,82501,1,8,0:0:0:0:
336,144,82688,1,8,0:0:0:0:
480,64,82876,1,0,0:0:0:0:
384,96,83157,1,8,0:0:0:0:
432,176,83251,1,0,0:0:0:0:
384,128,83438,1,8,0:0:0:0:
336,80,83626,1,0,0:0:0:0:
336,80,83813,1,8,0:0:0:0:
304,96,83907,1,8,0:0:0:0:
336,80,84001,1,0,0:0:0:0:
384,112,84376,1,0,0:0:0:0:
352,100,84469,1,0,0:0:0:0:
336,112,84563,1,0,0:0:0:0:
320,112,84657,1,0,0:0:0:0:
288,112,84751,1,8,0:0:0:0:
288,112,84938,1,0,0:0:0:0:
288,112,85126,1,8,0:0:0:0:
320,112,85313,1,0,0:0:0:0:
320,112,85407,1,0,0:0:0:0:
320,112,85501,1,8,0:0:0:0:
192,144,85876,1,4,0:0:0:0:
112,32,86251,1,0,0:0:0:0:
165,53,86438,1,0,0:0:0:0:
240,64,86626,1,8,0:0:0:0:
96,48,87001,1,0,0:0:0:0:
152,56,87188,1,8,0:0:0:0:
288,64,87376,1,8,0:0:0:0:
384,80,87751,1,0,0:0:0:0:
352,128,87938,1,0,0:0:0:0:
240,64,88126,1,8,0:0:0:0:
112,48,88501,1,0,0:0:0:0:
160,76,88688,1,8,0:0:0:0:
256,64,88876,1,0,0:0:0:0:
278,147,89157,1,0,0:0:0:0:
112,48,89251,1,8,0:0:0:0:
160,48,89438,1,0,0:0:0:0:
256,64,89626,1,8,0:0:0:0:
307,103,89813,1,8,0:0:0:0:
339,128,89907,1,8,0:0:0:0:
128,48,90001,1,0,0:0:0:0:
181,70,90188,1,0,0:0:0:0:
208,96,90376,1,8,0:0:0:0:
336,80,90563,1,8,0:0:0:0:
256,64,90751,1,0,0:0:0:0:
300,107,90938,1,0,0:0:0:0:
112,48,91126,1,8,0:0:0:0:
256,64,91501,1,0,0:0:0:0:
283,92,91594,1,0,0:0:0:0:
192,64,91688,1,8,0:0:0:0:
192,64,91876,1,0,0:0:0:0:
192,64,92063,1,0,0:0:0:0:
208,80,92157,1,8,0:0:0:0:
192,64,92251,1,0,0:0:0:0:
192,64,92438,1,0,0:0:0:0:
192,64,92626,1,12,0:0:0:0:
288,126,93001,1,8,0:0:0:0:
325,145,93188,1,0,0:0:0:0:
380,173,93376,1,8,0:0:0:0:
192,64,93563,1,8,0:0:0:0:
388,177,93657,1,8,0:0:0:0:
192,64,93751,1,0,0:0:0:0:
240,91,93938,1,0,0:0:0:0:
192,64,94126,1,8,0:0:0:0:
192,64,94501,1,0,0:0:0:0:
242,95,94688,1,8,0:0:0:0:
192,64,94876,1,0,0:0:0:0:
153,131,95157,1,0,0:0:0:0:
192,64,95251,1,8,0:0:0:0:
192,64,95438,1,0,0:0:0:0:
192,64,95626,1,8,0:0:0:0:
188,108,95813,1,8,0:0:0:0:
186,127,95907,1,8,0:0:0:0:
336,80,96001,1,0,0:0:0:0:
297,114,96188,1,0,0:0:0:0:
192,80,96376,1,8,0:0:0:0:
192,80,96563,1,8,0:0:0:0:
192,80,96751,1,0,0:0:0:0:
240,112,96938,1,0,0:0:0:0:
263,105,97032,1,0,0:0:0:0:
192,80,97126,1,8,0:0:0:0:
256,208,97313,1,0,0:0:0:0:
228,188,97407,1,0,0:0:0:0:
256,208,97501,1,0,0:0:0:0:
272,64,97876,1,4,0:0:0:0:
272,192,98251,1,0,0:0:0:0:
272,192,98438,1,0,0:0:0:0:
272,192,98626,1,8,0:0:0:0:
272,192,99001,1,8,0:0:0:0:
272,192,99188,1,0,0:0:0:0:
272,192,99376,1,0,0:0:0:0:
272,192,99751,1,0,0:0:0:0:
340,184,99938,1,8,0:0:0:0:
272,192,100126,1,0,0:0:0:0:
336,112,100501,1,0,0:0:0:0:
336,112,100626,1,0,0:0:0:0:
336,112,100751,1,0,0:0:0:0:
336,112,100876,1,0,0:0:0:0:
403,227,101251,1,8,0:0:0:0:
320,80,101438,1,0,0:0:0:0:
240,64,101626,1,8,0:0:0:0:
320,111,101907,1,0,0:0:0:0:
304,176,102001,1,8,0:0:0:0:
368,192,102188,1,0,0:0:0:0:
304,176,102376,1,8,0:0:0:0:
304,176,102501,1,8,0:0:0:0:
336,208,102626,1,0,0:0:0:0:
272,160,102751,1,8,0:0:0:0:
304,176,102876,1,8,0:0:0:0:
272,160,103001,1,0,0:0:0:0:
368,192,103126,1,8,0:0:0:0:
336,180,103219,1,8,0:0:0:0:
400,240,103313,1,0,0:0:0:0:
368,304,103501,1,8,0:0:0:0:
256,240,103876,1,4,0:0:0:0:
336,192,104157,1,0,0:0:0:0:
352,192,104251,1,0,0:0:0:0:
400,160,104438,1,0,0:0:0:0:
464,144,104626,1,8,0:0:0:0:
464,144,104907,1,8,0:0:0:0:
464,144,105001,1,8,0:0:0:0:
464,144,105188,1,8,0:0:0:0:
464,144,105376,1,0,0:0:0:0:
432,192,105751,1,0,0:0:0:0:
480,240,105938,1,8,0:0:0:0:
432,208,106126,1,0,0:0:0:0:
496,240,106313,1,8,0:0:0:0:
448,224,106407,1,0,0:0:0:0:
448,224,106501,1,8,0:0:0:0:
448,224,106688,1,8,0:0:0:0:
448,224,106876,1,0,0:0:0:0:
352,192,107157,1,8,0:0:0:0:
496,208,107251,1,0,0:0:0:0:
448,192,107438,1,8,0:0:0:0:
384,176,107626,1,0,0:0:0:0:
384,224,107813,1,8,0:0:0:0:
352,176,107907,1,8,0:0:0:0:
320,192,108001,1,0,0:0:0:0:
352,128,108188,1,8,0:0:0:0:
352,128,108376,1,0,0:0:0:0:
284,140,108563,1,0,0:0:0:0:
248,144,108657,1,0,0:0:0:0:
504,160,108751,1,8,0:0:0:0:
432,128,108938,1,0,0:0:0:0:
496,160,109126,1,8,0:0:0:0:
464,144,109219,1,8,0:0:0:0:
464,144,109313,1,0,0:0:0:0:
416,176,109501,1,0,0:0:0:0:
272,144,109876,1,4,0:0:0:0:
384,64,110251,1,0,0:0:0:0:
384,64,110438,1,8,0:0:0:0:
384,64,110626,1,0,0:0:0:0:
448,128,111001,1,8,0:0:0:0:
448,128,111376,1,0,0:0:0:0:
384,128,111751,1,0,0:0:0:0:
384,128,111938,1,8,0:0:0:0:
384,128,112126,1,0,0:0:0:0:
384,128,112501,1,0,0:0:0:0:
384,160,112688,1,8,0:0:0:0:
304,160,112876,1,0,0:0:0:0:
200,156,113157,1,0,0:0:0:0:
400,64,113251,1,8,0:0:0:0:
352,112,113438,1,8,0:0:0:0:
400,64,113626,1,0,0:0:0:0:
336,128,113907,1,0,0:0:0:0:
352,112,114001,1,8,0:0:0:0:
400,64,114188,1,8,0:0:0:0:
352,112,114376,1,0,0:0:0:0:
368,160,114563,1,8,0:0:0:0:
368,160,114657,1,8,0:0:0:0:
368,160,114751,1,0,0:0:0:0:
416,128,114938,1,0,0:0:0:0:
464,160,115126,1,8,0:0:0:0:
400,128,115313,1,0,0:0:0:0:
432,144,115407,1,0,0:0:0:0:
432,144,115501,1,8,0:0:0:0:
432,144,115876,1,4,0:0:0:0:
400,128,116063,1,0,0:0:0:0:
400,128,116251,1,8,0:0:0:0:
400,128,116438,1,0,0:0:0:0:
400,128,116626,1,8,0:0:0:0:
384,144,116719,1,0,0:0:0:0:
384,144,116907,1,0,0:0:0:0:
384,144,117001,1,8,0:0:0:0:
384,144,117188,1,8,0:0:0:0:
384,144,117376,1,0,0:0:0:0:
384,144,117563,1,0,0:0:0:0:
352,144,117657,1,0,0:0:0:0:
448,128,117751,1,8,0:0:0:0:
384,144,117938,1,0,0:0:0:0:
384,144,118126,1,8,0:0:0:0:
384,144,118219,1,0,0:0:0:0:
384,144,118407,1,0,0:0:0:0:
384,144,118501,1,8,0:0:0:0:
384,144,118594,1,8,0:0:0:0:
384,144,118688,1,0,0:0:0:0:
384,144,118876,1,0,0:0:0:0:
384,224,119157,1,8,0:0:0:0:
384,192,119251,1,0,0:0:0:0:
384,192,119438,1,8,0:0:0:0:
384,192,119626,1,0,0:0:0:0:
384,192,119813,1,0,0:0:0:0:
384,192,119907,1,0,0:0:0:0:
384,192,120001,1,8,0:0:0:0:
384,192,120188,1,8,0:0:0:0:
384,192,120376,1,0,0:0:0:0:
384,192,120501,1,0,0:0:0:0:
384,192,120626,1,8,0:0:0:0:
384,192,120751,1,0,0:0:0:0:
432,272,120876,1,0,0:0:0:0:
432,272,121001,1,8,0:0:0:0:
432,272,121126,1,0,0:0:0:0:
416,256,121251,1,8,0:0:0:0:
416,256,121376,1,8,0:0:0:0:
416,256,121501,1,0,0:0:0:0:
308,159,121876,1,12,0:0:0:0:
336,368,122626,1,8,0:0:0:0:
252,180,123376,1,8,0:0:0:0:
252,180,123751,1,8,0:0:0:0:
448,256,124126,1,8,0:0:0:0:
406,190,124876,1,8,0:0:0:0:
224,96,125626,1,8,0:0:0:0:
491,231,126376,1,8,0:0:0:0:
371,204,126751,1,8,0:0:0:0:
491,231,127126,1,8,0:0:0:0:
229,148,127876,1,0,0:0:0:0:
275,53,128626,1,8,0:0:0:0:
391,148,129376,1,8,0:0:0:0:
391,148,129751,1,8,0:0:0:0:
391,148,129938,1,8,0:0:0:0:
391,148,130126,1,8,0:0:0:0:
384,210,130876,1,0,0:0:0:0:
472,27,131251,1,8,0:0:0:0:
397,140,131626,1,8,0:0:0:0:
425,96,131813,1,8,0:0:0:0:
394,145,132001,1,8,0:0:0:0:
424,97,132188,1,8,0:0:0:0:
469,149,132376,1,0,0:0:0:0:
360,176,132751,1,0,0:0:0:0:
401,105,133126,1,8,0:0:0:0:
401,105,133313,1,8,0:0:0:0:
401,105,133501,1,8,0:0:0:0:
352,128,133688,1,8,0:0:0:0:
349,151,133876,1,4,0:0:0:0:
469,156,134626,1,8,0:0:0:0:
469,156,135188,1,8,0:0:0:0:
469,156,135376,1,0,0:0:0:0:
295,209,135751,1,0,0:0:0:0:
295,209,135938,1,0,0:0:0:0:
295,209,136126,1,8,0:0:0:0:
376,96,136501,1,8,0:0:0:0:
409,50,136688,1,8,0:0:0:0:
409,50,136876,1,0,0:0:0:0:
350,166,137251,1,0,0:0:0:0:
383,100,137438,1,8,0:0:0:0:
416,40,137626,1,8,0:0:0:0:
320,144,138001,1,8,0:0:0:0:
268,120,138188,1,0,0:0:0:0:
386,93,138376,1,0,0:0:0:0:
328,120,138563,1,8,0:0:0:0:
386,93,138751,1,0,0:0:0:0:
384,80,138938,1,0,0:0:0:0:
386,93,139126,1,8,0:0:0:0:
480,240,139688,1,8,0:0:0:0:
349,151,139876,1,0,0:0:0:0:
469,156,140626,1,8,0:0:0:0:
469,156,141188,1,8,0:0:0:0:
469,156,141376,1,0,0:0:0:0:
348,193,141751,1,0,0:0:0:0:
295,209,141938,1,0,0:0:0:0:
295,209,142126,1,8,0:0:0:0:
376,96,142501,1,8,0:0:0:0:
409,50,142688,1,8,0:0:0:0:
409,50,142876,1,0,0:0:0:0:
383,100,143063,1,0,0:0:0:0:
368,112,143251,1,8,0:0:0:0:
416,40,143438,1,8,0:0:0:0:
354,58,143626,1,0,0:0:0:0:
351,157,144001,1,0,0:0:0:0:
412,136,144188,1,0,0:0:0:0:
386,93,144376,1,8,0:0:0:0:
386,93,144751,1,0,0:0:0:0:
386,93,145126,1,8,0:0:0:0:
340,360,145876,1,4,0:0:0:0:
307,219,146251,1,0,0:0:0:0:
352,178,146438,1,8,0:0:0:0:
276,86,146626,1,0,0:0:0:0:
364,123,146907,1,0,0:0:0:0:
398,137,147001,1,8,0:0:0:0:
457,164,147188,1,0,0:0:0:0:
403,139,147376,1,8,0:0:0:0:
431,152,147751,1,0,0:0:0:0:
431,152,147938,1,8,0:0:0:0:
431,152,148126,1,0,0:0:0:0:
431,152,148313,1,8,0:0:0:0:
431,152,148407,1,8,0:0:0:0:
431,152,148501,1,8,0:0:0:0:
431,152,148688,1,8,0:0:0:0:
431,152,148876,1,0,0:0:0:0:
491,268,149251,1,8,0:0:0:0:
465,217,149438,1,0,0:0:0:0:
457,197,149626,1,8,0:0:0:0:
457,197,149907,1,8,0:0:0:0:
424,194,150001,1,8,0:0:0:0:
366,190,150188,1,8,0:0:0:0:
412,237,150376,1,0,0:0:0:0:
412,237,150563,1,8,0:0:0:0:
412,237,150751,1,0,0:0:0:0:
412,237,150938,1,0,0:0:0:0:
412,237,151126,1,8,0:0:0:0:
412,237,151407,1,8,0:0:0:0:
412,237,151501,1,0,0:0:0:0:
474,247,151688,1,8,0:0:0:0:
474,247,151876,1,0,0:0:0:0:
409,233,152063,1,0,0:0:0:0:
340,217,152251,1,8,0:0:0:0:
279,205,152438,1,0,0:0:0:0:
262,191,152532,1,8,0:0:0:0:
215,191,152626,1,0,0:0:0:0:
215,191,152907,1,0,0:0:0:0:
204,165,153001,1,8,0:0:0:0:
227,184,153188,1,0,0:0:0:0:
215,191,153376,1,8,0:0:0:0:
215,191,153563,1,0,0:0:0:0:
283,187,153751,1,8,0:0:0:0:
215,190,153938,1,0,0:0:0:0:
253,198,154032,1,8,0:0:0:0:
215,191,154126,1,0,0:0:0:0:
215,191,154407,1,0,0:0:0:0:
253,193,154501,1,8,0:0:0:0:
215,191,154688,1,0,0:0:0:0:
215,191,154876,1,0,0:0:0:0:
215,191,154969,1,0,0:0:0:0:
215,191,155063,1,8,0:0:0:0:
215,191,155157,1,0,0:0:0:0:
215,191,155251,1,8,0:0:0:0:
215,191,155344,1,8,0:0:0:0:
215,191,155438,1,0,0:0:0:0:
215,191,155626,1,0,0:0:0:0:
280,198,155813,1,0,0:0:0:0:
244,204,155907,1,0,0:0:0:0:
337,203,156001,1,8,0:0:0:0:
264,188,156188,1,8,0:0:0:0:
280,198,156376,1,0,0:0:0:0:
280,198,156751,1,0,0:0:0:0:
280,198,156844,1,0,0:0:0:0:
280,198,156938,1,0,0:0:0:0:
280,198,157032,1,0,0:0:0:0:
280,198,157126,1,8,0:0:0:0:
280,198,157313,1,0,0:0:0:0:
280,198,157501,1,12,0:0:0:0:
384,224,157876,1,4,0:0:0:0:
432,160,158251,1,0,0:0:0:0:
384,208,158438,1,8,0:0:0:0:
320,192,158626,1,0,0:0:0:0:
368,208,159001,1,0,0:0:0:0:
400,160,159188,1,8,0:0:0:0:
432,160,159376,1,0,0:0:0:0:
400,160,159469,1,8,0:0:0:0:
416,160,159657,1,8,0:0:0:0:
368,160,159751,1,0,0:0:0:0:
432,112,159938,1,8,0:0:0:0:
480,64,160126,1,0,0:0:0:0:
432,112,160313,1,8,0:0:0:0:
448,96,160407,1,8,0:0:0:0:
400,128,160501,1,8,0:0:0:0:
336,144,160688,1,8,0:0:0:0:
480,64,160876,1,0,0:0:0:0:
384,96,161157,1,8,0:0:0:0:
432,176,161251,1,0,0:0:0:0:
384,128,161438,1,8,0:0:0:0:
336,80,161626,1,0,0:0:0:0:
336,80,161813,1,8,0:0:0:0:
336,80,161907,1,8,0:0:0:0:
336,80,162001,1,0,0:0:0:0:
336,80,162188,1,8,0:0:0:0:
384,112,162376,1,0,0:0:0:0:
432,112,162563,1,0,0:0:0:0:
432,112,162657,1,0,0:0:0:0:
432,112,162751,1,8,0:0:0:0:
432,112,162938,1,0,0:0:0:0:
432,112,163126,1,8,0:0:0:0:
396,116,163219,1,0,0:0:0:0:
320,144,163313,1,0,0:0:0:0:
320,112,163407,1,0,0:0:0:0:
320,112,163501,1,8,0:0:0:0:
272,112,163594,1,8,0:0:0:0:
272,112,163688,1,0,0:0:0:0:
384,224,163876,1,4,0:0:0:0:
432,160,164251,1,0,0:0:0:0:
384,208,164438,1,8,0:0:0:0:
320,192,164626,1,0,0:0:0:0:
368,208,165001,1,0,0:0:0:0:
400,160,165188,1,8,0:0:0:0:
432,160,165376,1,0,0:0:0:0:
400,160,165469,1,8,0:0:0:0:
416,160,165657,1,8,0:0:0:0:
368,160,165751,1,0,0:0:0:0:
432,112,165938,1,8,0:0:0:0:
480,64,166126,1,0,0:0:0:0:
448,96,166313,1,8,0:0:0:0:
432,112,166407,1,0,0:0:0:0:
400,128,166501,1,8,0:0:0:0:
336,144,166688,1,8,0:0:0:0:
480,64,166876,1,0,0:0:0:0:
384,96,167157,1,8,0:0:0:0:
432,176,167251,1,0,0:0:0:0:
384,128,167438,1,8,0:0:0:0:
336,80,167626,1,0,0:0:0:0:
336,80,167813,1,8,0:0:0:0:
304,96,167907,1,8,0:0:0:0:
336,80,168001,1,0,0:0:0:0:
336,80,168188,1,8,0:0:0:0:
384,112,168376,1,0,0:0:0:0:
368,112,168469,1,0,0:0:0:0:
336,112,168563,1,0,0:0:0:0:
320,112,168657,1,0,0:0:0:0:
288,112,168751,1,8,0:0:0:0:
288,112,168844,1,8,0:0:0:0:
288,112,168938,1,0,0:0:0:0:
288,112,169126,1,8,0:0:0:0:
320,112,169313,1,0,0:0:0:0:
320,112,169407,1,0,0:0:0:0:
320,112,169501,1,8,0:0:0:0:
192,144,169876,1,4,0:0:0:0:
256,192,170063,1,8,0:0:0:0:
256,192,170157,1,8,0:0:0:0:
256,192,170251,1,0,0:0:0:0:
256,192,170438,1,8,0:0:0:0:
256,192,170626,1,0,0:0:0:0:
256,192,170907,1,0,0:0:0:0:
256,192,171001,1,8,0:0:0:0:
256,192,171188,1,8,0:0:0:0:
256,192,171376,1,0,0:0:0:0:
256,192,171563,1,0,0:0:0:0:
256,192,171657,1,8,0:0:0:0:
256,192,171751,1,0,0:0:0:0:
256,192,171938,1,0,0:0:0:0:
256,192,172126,1,8,0:0:0:0:
256,192,172501,1,0,0:0:0:0:
256,192,172688,1,8,0:0:0:0:
256,192,172876,1,0,0:0:0:0:
256,192,173063,1,0,0:0:0:0:
256,192,173157,1,0,0:0:0:0:
256,192,173251,1,8,0:0:0:0:
256,192,173344,1,8,0:0:0:0:
256,192,173438,1,0,0:0:0:0:
256,192,173626,1,8,0:0:0:0:
256,192,173813,1,8,0:0:0:0:
256,192,173907,1,8,0:0:0:0:
256,192,174001,1,0,0:0:0:0:
256,192,174188,1,0,0:0:0:0:
256,192,174376,1,8,0:0:0:0:
256,192,174469,1,8,0:0:0:0:
256,192,174563,1,0,0:0:0:0:
256,192,174657,1,0,0:0:0:0:
256,192,174751,1,8,0:0:0:0:
256,192,174938,1,0,0:0:0:0:
256,192,175126,1,8,0:0:0:0:
256,192,175407,1,0,0:0:0:0:
256,192,175501,1,8,0:0:0:0:
256,192,175688,1,0,0:0:0:0:
256,192,175876,1,0,0:0:0:0:
256,192,176063,1,8,0:0:0:0:
256,192,176157,1,0,0:0:0:0:
256,192,176251,1,0,0:0:0:0:
256,192,176438,1,8,0:0:0:0:
256,192,176626,1,0,0:0:0:0:
256,192,176907,1,0,0:0:0:0:
256,192,177001,1,8,0:0:0:0:
256,192,177188,1,8,0:0:0:0:
256,192,177376,1,0,0:0:0:0:
256,192,177563,1,0,0:0:0:0:
256,192,177657,1,8,0:0:0:0:
256,192,177751,1,0,0:0:0:0:
256,192,177938,1,8,0:0:0:0:
256,192,178126,1,0,0:0:0:0:
256,192,178501,1,8,0:0:0:0:
256,192,178688,1,8,0:0:0:0:
256,192,178876,1,0,0:0:0:0:
256,192,179063,1,0,0:0:0:0:
256,192,179157,1,0,0:0:0:0:
256,192,179251,1,8,0:0:0:0:
256,192,179438,1,0,0:0:0:0:
256,192,179626,1,8,0:0:0:0:
256,192,179813,1,8,0:0:0:0:
256,192,179907,1,8,0:0:0:0:
256,192,180001,1,0,0:0:0:0:
256,192,180188,1,0,0:0:0:0:
256,192,180376,1,8,0:0:0:0:
256,192,180469,1,8,0:0:0:0:
256,192,180563,1,0,0:0:0:0:
256,192,180657,1,0,0:0:0:0:
256,192,180751,1,8,0:0:0:0:
256,192,180844,1,8,0:0:0:0:
256,192,180938,1,0,0:0:0:0:
256,192,181126,1,8,0:0:0:0:
256,192,181313,1,0,0:0:0:0:
256,192,181407,1,0,0:0:0:0:
256,192,181501,1,0,0:0:0:0:
256,192,181876,1,0,0:0:0:0:
256,192,182626,1,0,0:0:0:0:
256,192,183376,1,8,0:0:0:0:
256,192,183751,1,8,0:0:0:0:
256,192,183938,1,8,0:0:0:0:
256,192,184126,1,0,0:0:0:0:
256,192,184501,1,8,0:0:0:0:
256,192,184688,1,0,0:0:0:0:
256,192,184876,1,8,0:0:0:0:
256,192,185251,1,8,0:0:0:0:
256,192,185438,1,0,0:0:0:0:
256,192,185626,1,8,0:0:0:0:
256,192,185813,1,8,0:0:0:0:
256,192,186001,1,0,0:0:0:0:
256,192,186376,1,8,0:0:0:0:
256,192,186563,1,8,0:0:0:0:
256,192,186751,1,0,0:0:0:0:
256,192,186938,1,0,0:0:0:0:
256,192,187126,1,8,0:0:0:0:
256,192,187407,1,8,0:0:0:0:
256,192,187500,1,8,0:0:0:0:
256,192,187688,1,8,0:0:0:0:
256,192,187876,1,0,0:0:0:0:
256,192,188625,1,0,0:0:0:0:
256,192,189376,1,8,0:0:0:0:
256,192,189751,1,8,0:0:0:0:
256,192,189938,1,8,0:0:0:0:
256,192,190125,1,0,0:0:0:0:
256,192,190501,1,8,0:0:0:0:
256,192,190688,1,0,0:0:0:0:
256,192,190876,1,8,0:0:0:0:
256,192,191251,1,8,0:0:0:0:
256,192,191438,1,0,0:0:0:0:
256,192,191626,1,8,0:0:0:0:
256,192,191813,1,8,0:0:0:0:
256,192,192001,1,0,0:0:0:0:
256,192,192376,1,8,0:0:0:0:
256,192,192563,1,0,0:0:0:0:
256,192,192657,1,8,0:0:0:0:
256,192,192751,1,0,0:0:0:0:
256,192,192938,1,0,0:0:0:0:
256,192,193126,1,8,0:0:0:0:
