osu file format v14

[General]
AudioFilename: audio.mp3
AudioLeadIn: 0
PreviewTime: 58900
Countdown: 1
SampleSet: Normal
StackLeniency: 0.7
Mode: 0
LetterboxInBreaks: 0
WidescreenStoryboard: 0

[Editor]
Bookmarks: 62500,81700
DistanceSpacing: 1
BeatDivisor: 12
GridSize: 16
TimelineZoom: 1

[Metadata]
Title:Indoor Kei Nara Trackmaker (CurryRice Remix)
TitleUnicode:Indoor Kei Nara Trackmaker (CurryRice Remix)
Artist:Yunomi ft Nicamoq
ArtistUnicode:Yunomi ft Nicamoq
Creator:Keiger
Version:Curry
Source:
Tags:Future Bass, Yunomi, ItsSurreal, Nicamoq, Maxylan, Kaphat
BeatmapID:1432446
BeatmapSetID:677278

[Difficulty]
HPDrainRate:4
CircleSize:4.2
OverallDifficulty:6
ApproachRate:9.5
SliderMultiplier:1.4
SliderTickRate:1

[Events]
//Background and Video events
0,0,"anime pic for beatmap.jpg",0,0
//Break Periods
//Storyboard Layer 0 (Background)
//Storyboard Layer 1 (Fail)
//Storyboard Layer 2 (Pass)
//Storyboard Layer 3 (Foreground)
//Storyboard Layer 4 (Overlay)
//Storyboard Sound Samples

[TimingPoints]
100,600,4,1,0,35,1,0
1300,-200,4,1,0,35,0,0
19300,-100,4,1,0,35,0,0
22900,-52.6315789473684,4,1,0,35,0,0
23500,-100,4,1,0,35,0,0
43300,-74.0740740740741,4,1,0,35,0,0
49300,-86.9565217391304,4,1,0,35,0,0
50500,-74.0740740740741,4,1,0,35,0,0
52750,-68.9655172413793,4,1,0,35,0,0
62500,-57.1428571428571,4,1,0,35,0,1
81700,-60.6060606060606,4,1,0,35,0,0
98500,-58.8235294117647,4,1,0,35,0,0
100900,-55.5555555555556,4,1,0,35,0,0
103525,-111.111111111111,4,1,0,35,0,0
103900,-55.5555555555556,4,1,0,35,0,0
110050,-111.111111111111,4,1,0,35,0,0
110650,-55.5555555555556,4,1,0,35,0,0
114625,-111.111111111111,4,1,0,35,0,0
115000,-55.5555555555556,4,1,0,35,0,0
120096,-54.054054054054,4,1,0,35,0,0
129701,-52.6315789473684,4,1,0,35,0,0
139300,-51.2820512820513,4,1,0,35,0,0
158500,-52.6315789473684,4,1,0,35,0,0

[HitObjects]
113,203,100,5,0,0:0:0:0:
101,200,1300,2,0,P|111:165|182:137,1,116.666666666667
146,81,2500,2,0,P|181:83|230:144,1,116.666666666667
167,246,3700,2,0,P|196:238|244:167,1,116.666666666667
170,81,4900,2,0,P|201:77|261:134,1,116.666666666667
320,110,6100,2,0,P|314:145|260:208,1,116.666666666667
173,266,7300,2,0,P|212:268|288:245,1,116.666666666667
231,190,8500,2,0,P|272:218|271:280,1,116.666666666667
103,211,9700,2,0,P|119:142|156:118,1,116.666666666667
203,58,10900,2,0,P|215:72|205:166,1,116.666666666667
171,252,12100,2,0,P|212:244|270:193,1,116.666666666667
144,167,13300,2,0,P|229:146|251:157,1,116.666666666667
237,116,14500,2,0,P|259:132|252:212,1,116.666666666667
174,270,15700,2,0,P|136:213|155:173,1,116.666666666667
67,142,16900,2,0,P|88:123|175:109,1,116.666666666667
176,58,18100,2,0,P|193:73|202:161,1,116.666666666667
96,256,19300,1,0,0:0:0:0:
96,256,19600,6,0,L|160:208,1,70
160,80,20200,2,0,L|200:148,1,70
336,176,20800,2,0,L|256:208,1,70
218,272,21400,1,0,0:0:0:0:
172,182,21700,2,0,L|210:153,2,35
285,264,22300,1,0,0:0:0:0:
91,225,22600,2,0,L|130:248,1,35
230,144,22900,6,0,L|215:216,2,70
215,212,23500,1,0,0:0:0:0:
320,283,23800,1,0,0:0:0:0:
320,283,24100,2,0,L|362:283,2,35
230,142,24700,1,0,0:0:0:0:
118,278,25000,2,0,L|189:253,1,70
341,193,25600,2,0,L|292:251,1,70
100,144,26200,1,0,0:0:0:0:
194,273,26500,6,0,L|261:238,1,70
144,176,27100,1,0,0:0:0:0:
320,144,27250,1,0,0:0:0:0:
160,304,27400,2,0,L|209:292,1,35
352,272,27700,2,0,L|318:301,1,35
192,144,28000,2,0,L|222:173,1,35
240,320,28300,5,0,0:0:0:0:
304,208,28450,2,0,L|314:258,1,35
416,304,28900,2,0,L|380:329,2,35
352,176,29500,1,0,0:0:0:0:
208,240,29650,1,0,0:0:0:0:
224,80,29800,1,0,0:0:0:0:
224,80,29950,2,0,L|267:88,1,35
328,238,30250,6,0,L|296:274,1,35
142,281,30550,2,0,L|174:249,1,35
213,129,31000,2,0,L|244:151,2,35
130,138,31450,1,0,0:0:0:0:
130,138,31600,1,0,0:0:0:0:
211,182,31750,1,0,0:0:0:0:
209,279,31900,1,0,0:0:0:0:
209,279,32200,2,0,L|241:263,1,35
290,173,32500,6,0,L|327:200,1,35
256,297,32800,1,0,0:0:0:0:
394,245,32950,2,0,L|371:271,1,35
135,282,33700,2,0,L|206:257,1,70
332,183,34150,1,0,0:0:0:0:
332,183,34300,2,0,L|291:160,1,35
210,224,34600,2,0,L|251:235,2,35
192,320,35050,1,0,0:0:0:0:
104,215,35200,5,0,0:0:0:0:
104,215,35350,2,0,L|136:183,1,35
256,176,35650,1,0,0:0:0:0:
256,176,35800,2,0,P|288:176|327:207,1,70
359,253,36250,1,0,0:0:0:0:
359,253,36400,2,0,P|341:283|333:282,1,46.6666666666667
335,282,36700,1,0,0:0:0:0:
130,234,37000,1,0,0:0:0:0:
296,204,37150,1,0,0:0:0:0:
222,314,37300,1,0,0:0:0:0:
130,234,37450,1,0,0:0:0:0:
130,234,37600,6,0,L|169:212,1,35
134,110,37900,2,0,L|118:152,1,35
296,204,38200,1,0,0:0:0:0:
256,192,39400,12,0,40900,0:0:0:0:
164,218,41500,5,0,0:0:0:0:
138,75,42100,1,0,0:0:0:0:
256,112,42250,1,0,0:0:0:0:
256,112,42400,2,0,L|272:160,1,35
128,208,42700,1,0,0:0:0:0:
128,208,42850,2,0,L|192:224,1,35
224,128,43150,1,0,0:0:0:0:
285,305,43300,6,0,B|333:321|333:321|381:289,1,94.5000003604889
98,192,43900,2,0,B|130:144|130:144|178:112,1,94.5000003604889
55,69,44500,1,0,0:0:0:0:
189,255,44800,1,0,0:0:0:0:
196,46,45100,1,0,0:0:0:0:
208,176,45400,2,0,L|272:192,1,47.2500001802444
411,79,45700,2,0,L|395:127,1,47.2500001802444
320,304,46000,5,0,0:0:0:0:
176,304,46300,1,0,0:0:0:0:
144,64,46600,1,0,0:0:0:0:
176,304,46900,1,0,0:0:0:0:
176,304,47050,1,0,0:0:0:0:
176,304,47200,2,0,L|224:288,1,47.2500001802444
352,240,47500,1,0,0:0:0:0:
176,112,47650,5,0,0:0:0:0:
176,112,47800,2,0,L|224:96,1,47.2500001802444
400,48,48100,1,0,0:0:0:0:
208,208,48250,2,0,L|220:187,2,15.7500000600815
304,320,48550,1,0,0:0:0:0:
304,320,48700,2,0,L|318:268,1,47.2500001802444
272,112,49000,2,0,L|320:144,1,47.2500001802444
64,144,49300,6,0,B|128:144|128:144|144:160,1,80.5000015354157
240,224,49900,2,0,P|208:256|160:272,1,80.5000015354157
96,80,50350,1,0,0:0:0:0:
96,80,50500,2,0,L|144:96,1,47.2500001802444
320,128,50800,2,0,L|272:160,1,47.2500001802444
144,288,51100,2,0,L|192:288,2,47.2500001802444
80,128,51700,2,0,L|112:112,2,23.6250000901222
224,96,52000,5,0,0:0:0:0:
304,208,52150,1,0,0:0:0:0:
304,208,52300,1,0,0:0:0:0:
304,208,52450,2,0,L|256:256,1,47.2500001802444
160,256,52900,2,0,L|176:240,2,23.6250000901222
208,320,53200,2,0,L|256:272,1,47.2500001802444
256,80,53500,1,0,0:0:0:0:
368,224,53650,1,0,0:0:0:0:
368,224,53800,6,0,L|320:272,1,50.7500015487671
208,320,54100,1,0,0:0:0:0:
80,192,54250,1,0,0:0:0:0:
80,192,54400,2,0,L|144:160,1,50.7500015487671
224,48,54700,2,0,L|256:96,1,50.7500015487671
368,160,55000,1,0,0:0:0:0:
144,256,55300,2,0,L|192:224,1,50.7500015487671
240,288,55600,6,0,L|192:320,1,50.7500015487671
64,160,55900,1,0,0:0:0:0:
288,224,56200,1,0,0:0:0:0:
304,176,56500,2,0,L|288:224,2,50.7500015487671
64,176,57100,2,0,L|128:144,1,50.7500015487671
160,288,57400,5,0,0:0:0:0:
160,288,57700,2,0,L|224:272,1,50.7500015487671
224,80,58000,2,0,L|272:128,1,50.7500015487671
368,288,58300,2,0,L|304:288,1,50.7500015487671
128,176,58600,6,0,L|192:192,1,50.7500015487671
144,80,58900,1,0,0:0:0:0:
112,304,59050,1,0,0:0:0:0:
256,96,59200,1,0,0:0:0:0:
224,304,59350,1,0,0:0:0:0:
352,112,59500,1,0,0:0:0:0:
320,320,59650,1,0,0:0:0:0:
96,192,59800,1,0,0:0:0:0:
416,192,59950,1,0,0:0:0:0:
288,192,60100,6,0,L|272:165,2,16.9166671829224
288,64,60400,2,0,P|336:80|384:48,1,101.500003097534
448,128,60850,1,0,0:0:0:0:
352,288,61000,2,0,L|384:256,2,25.3750007743836
352,288,61300,1,0,0:0:0:0:
176,192,61450,1,0,0:0:0:0:
176,192,61600,2,0,P|224:144|272:160,1,101.500003097534
128,288,62050,6,0,L|160:256,2,25.3750007743836
96,160,62500,2,0,L|162:167,1,61.2500005841255
368,192,62800,2,0,L|306:232,1,61.2500005841255
80,320,63100,1,0,0:0:0:0:
144,80,63250,1,0,0:0:0:0:
160,272,63400,1,0,0:0:0:0:
160,272,63550,2,0,L|197:271,2,30.6250002920628
224,144,63850,2,0,L|283:181,1,61.2500005841255
416,192,64150,6,0,L|384:256,1,64.7499997529984
64,208,64500,2,0,L|84:180,2,20.4166668613752
160,208,64650,2,0,L|152:234,2,20.4166668613752
112,336,64900,1,0,0:0:0:0:
237,271,65050,1,0,0:0:0:0:
237,271,65200,2,0,L|292:244,2,61.2500005841255
64,224,65650,1,0,0:0:0:0:
64,224,65800,5,0,0:0:0:0:
68,119,65950,1,0,0:0:0:0:
64,224,66100,2,0,L|147:219,1,61.2500005841255
352,176,66400,2,0,L|286:215,1,64.7499997529984
192,304,66700,1,0,0:0:0:0:
192,304,66850,2,0,L|264:299,1,64.7499997529984
400,240,67150,1,0,0:0:0:0:
400,240,67300,1,0,0:0:0:0:
144,128,67450,1,0,0:0:0:0:
144,128,67600,6,0,L|203:159,1,64.7499997529984
336,80,67900,2,0,L|255:97,1,64.7499997529984
288,192,68200,1,0,0:0:0:0:
256,272,68350,1,0,0:0:0:0:
256,272,68500,2,0,L|341:268,2,61.2500005841255
96,256,68950,1,0,0:0:0:0:
96,256,69100,2,0,L|17:280,1,64.7499997529984
96,176,69400,2,0,L|175:212,1,64.7499997529984
256,112,69700,1,0,0:0:0:0:
192,320,69850,1,0,0:0:0:0:
192,320,70000,2,0,L|217:290,2,32.3749998764992
368,208,70300,6,0,L|284:224,1,70
238,254,70600,2,0,L|309:288,1,70
185,174,70900,1,0,0:0:0:0:
296,97,71050,1,0,0:0:0:0:
336,192,71200,2,0,L|414:149,1,70
312,271,71500,2,0,L|238:222,2,70
327,192,72100,2,0,L|411:167,2,64.7499997529984
135,135,72550,5,0,0:0:0:0:
135,135,72700,1,0,0:0:0:0:
328,166,72850,1,0,0:0:0:0:
328,166,73000,2,0,L|239:189,1,64.7499997529984
157,239,73300,2,0,L|229:263,1,64.7499997529984
304,240,73600,1,0,0:0:0:0:
128,80,73750,1,0,0:0:0:0:
128,80,73900,2,0,L|160:128,1,32.3749998764992
58,275,74100,1,0,0:0:0:0:
58,275,74200,2,0,P|81:285|127:278,1,61.2500005841255
224,272,74500,2,0,L|208:224,2,32.3749998764992
128,112,74800,2,0,B|160:96|160:96|211:88,1,64.7499997529984
351,86,75100,6,0,B|336:112|336:112|284:144,1,64.7499997529984
247,301,75400,1,0,0:0:0:0:
353,213,75550,2,0,L|317:254,2,32.3749998764992
261,113,75850,1,0,0:0:0:0:
126,115,76000,1,0,0:0:0:0:
83,224,76150,1,0,0:0:0:0:
83,224,76300,2,0,B|144:224|144:224|174:222,1,64.7499997529984
257,238,76600,2,0,L|326:231,1,64.7499997529984
294,152,76900,6,0,L|349:212,1,64.7499997529984
252,308,77200,1,0,0:0:0:0:
252,308,77350,1,0,0:0:0:0:
110,175,77500,1,0,0:0:0:0:
110,175,77650,2,0,L|173:217,1,64.7499997529984
311,247,77950,2,0,L|243:213,1,64.7499997529984
126,105,78250,1,0,0:0:0:0:
126,105,78400,1,0,0:0:0:0:
158,262,78550,5,0,0:0:0:0:
158,262,78700,2,0,L|230:237,1,64.7499997529984
304,95,79000,2,0,L|316:173,1,64.7499997529984
297,243,79300,1,0,0:0:0:0:
138,220,79450,2,0,L|78:177,2,61.2500005841255
240,266,79900,1,0,0:0:0:0:
372,174,80050,1,0,0:0:0:0:
372,174,80200,2,0,L|332:252,1,64.7499997529984
477,237,80500,5,0,0:0:0:0:
477,237,80650,2,0,L|437:299,1,64.7499997529984
247,266,80950,2,0,L|203:223,2,32.3749998764992
323,288,81250,1,0,0:0:0:0:
210,140,81400,1,0,0:0:0:0:
339,127,81550,1,0,0:0:0:0:
339,127,81700,2,0,L|301:195,1,57.7500005507469
410,254,82000,2,0,L|345:268,1,57.7500005507469
175,208,82300,6,0,L|215:222,2,28.8750002753735
192,298,82600,1,0,0:0:0:0:
256,177,82750,1,0,0:0:0:0:
96,135,82900,1,0,0:0:0:0:
96,135,83050,2,0,L|163:149,1,57.7500005507469
268,121,83350,2,0,L|255:188,1,57.7500005507469
90,229,83800,1,0,0:0:0:0:
183,309,84100,2,0,L|209:277,2,28.8750002753735
301,225,84400,5,0,0:0:0:0:
301,225,84550,1,0,0:0:0:0:
403,313,84700,1,0,0:0:0:0:
403,313,85000,2,0,L|437:282,2,32.3749998764992
234,81,85300,1,0,0:0:0:0:
310,57,85450,1,0,0:0:0:0:
391,92,85600,1,0,0:0:0:0:
305,160,85750,1,0,0:0:0:0:
305,160,85900,6,0,L|254:220,1,64.7499997529984
168,288,86200,1,0,0:0:0:0:
101,164,86500,2,0,L|175:177,1,57.7500005507469
267,215,86800,2,0,L|218:262,1,57.7500005507469
105,255,87100,1,0,0:0:0:0:
213,323,87250,1,0,0:0:0:0:
322,268,87400,5,0,0:0:0:0:
129,172,87700,2,0,L|195:153,1,57.7500005507469
323,130,88000,2,0,L|285:198,1,57.7500005507469
245,266,88300,1,0,0:0:0:0:
175,193,88450,1,0,0:0:0:0:
77,235,88600,1,0,0:0:0:0:
77,235,88750,2,0,L|95:178,1,57.7500005507469
135,278,89050,6,0,L|188:333,1,57.7500005507469
160,208,89500,2,0,L|191:203,2,28.8750002753735
301,295,89800,2,0,L|223:313,1,57.7500005507469
283,220,90100,2,0,L|211:235,1,57.7500005507469
77,214,90400,1,0,0:0:0:0:
168,297,90550,1,0,0:0:0:0:
266,230,90700,5,0,0:0:0:0:
266,230,90850,2,0,L|201:208,1,57.7500005507469
336,112,91300,2,0,L|283:173,1,57.7500005507469
380,272,91600,2,0,L|334:253,1,28.8750002753735
175,222,91750,2,0,L|212:257,1,28.8750002753735
224,160,91900,1,0,0:0:0:0:
288,240,92200,6,0,L|242:295,1,57.7500005507469
69,277,92500,2,0,L|140:249,1,57.7500005507469
64,176,92800,1,0,0:0:0:0:
144,112,92950,1,0,0:0:0:0:
222,184,93100,1,0,0:0:0:0:
120,277,93400,2,0,L|194:262,1,57.7500005507469
283,253,93700,1,0,0:0:0:0:
287,134,93850,5,0,0:0:0:0:
128,144,94000,1,0,0:0:0:0:
128,144,94150,2,0,L|205:173,1,57.7500005507469
140,282,94600,2,0,L|191:266,2,28.8750002753735
101,213,94900,1,0,0:0:0:0:
224,160,95050,1,0,0:0:0:0:
351,208,95200,6,0,L|281:222,1,57.7500005507469
341,311,95500,2,0,L|270:332,1,57.7500005507469
176,288,95800,1,0,0:0:0:0:
180,180,96100,2,0,L|239:193,1,57.7500005507469
375,152,96400,2,0,L|319:205,1,57.7500005507469
139,289,96700,2,0,L|202:252,1,57.7500005507469
305,304,97000,2,0,L|345:293,2,28.8750002753735
256,224,97300,5,0,0:0:0:0:
256,80,97450,1,0,0:0:0:0:
256,80,97600,1,0,0:0:0:0:
125,147,97750,2,0,L|192:167,1,57.7500005507469
121,284,98050,2,0,L|167:291,2,28.8750002753735
212,236,98350,1,0,0:0:0:0:
256,336,98500,1,0,0:0:0:0:
352,240,98650,6,0,L|310:272,2,29.7500005674362
112,304,98950,1,0,0:0:0:0:
112,304,99100,2,0,L|128:273,2,29.7500005674362
128,192,99400,1,0,0:0:0:0:
128,192,99700,2,0,L|203:215,1,59.5000011348725
224,128,100000,2,0,L|260:146,2,29.7500005674362
208,304,100300,2,0,L|275:280,1,59.5000011348725
168,176,100600,1,0,0:0:0:0:
168,176,100900,2,0,L|240:171,1,62.9999980773926
256,48,101200,1,0,0:0:0:0:
400,112,101350,5,0,0:0:0:0:
400,112,101500,2,0,L|349:131,2,31.4999990386963
240,304,101800,2,0,L|308:286,1,62.9999980773926
384,208,102100,2,0,L|385:253,2,31.4999990386963
300,287,102400,1,0,0:0:0:0:
94,311,102550,1,0,0:0:0:0:
160,176,102700,1,0,0:0:0:0:
160,176,103000,2,0,L|288:96,1,125.999996154785
384,160,103450,5,0,0:0:0:0:
320,272,103600,2,0,L|256:288,1,62.9999980773926
73,141,104050,2,0,L|134:170,1,62.9999980773926
262,186,104350,2,0,L|201:237,1,62.9999980773926
105,292,104650,2,0,L|169:308,1,62.9999980773926
256,160,104950,1,0,0:0:0:0:
384,240,105100,1,0,0:0:0:0:
384,240,105250,2,0,L|320:288,1,62.9999980773926
173,303,105550,5,0,0:0:0:0:
128,144,105700,1,0,0:0:0:0:
128,144,105850,2,0,L|208:128,1,62.9999980773926
272,128,106150,2,0,L|224:192,1,62.9999980773926
208,320,106450,1,0,0:0:0:0:
96,240,106600,1,0,0:0:0:0:
96,240,106750,2,0,L|160:192,1,62.9999980773926
128,96,107050,2,0,L|192:112,1,62.9999980773926
320,128,107350,6,0,L|288:192,1,62.9999980773926
160,288,107800,2,0,L|192:288,2,31.4999990386963
240,176,108100,2,0,L|304:240,1,62.9999980773926
448,272,108400,2,0,L|384:208,1,62.9999980773926
288,336,108700,2,0,L|368:320,1,62.9999980773926
192,256,109000,1,0,0:0:0:0:
141,139,109300,5,0,0:0:0:0:
163,241,109450,1,0,0:0:0:0:
163,241,109600,2,0,L|195:257,2,31.4999990386963
272,192,109900,1,0,0:0:0:0:
272,192,110200,2,0,P|320:208|336:224,1,62.9999980773926
98,161,110800,2,0,L|146:241,1,62.9999980773926
267,294,111100,2,0,L|203:278,1,62.9999980773926
61,330,111400,6,0,L|141:298,1,62.9999980773926
217,158,111700,1,0,0:0:0:0:
361,271,111850,1,0,0:0:0:0:
361,271,112000,2,0,L|281:287,1,62.9999980773926
208,240,112300,1,0,0:0:0:0:
208,240,112600,2,0,L|256:208,2,31.4999990386963
244,137,112900,1,0,0:0:0:0:
352,224,113050,1,0,0:0:0:0:
352,224,113200,6,0,L|288:256,1,62.9999980773926
128,288,113500,2,0,L|192:240,1,62.9999980773926
240,192,113800,1,0,0:0:0:0:
160,96,113950,1,0,0:0:0:0:
160,96,114100,2,0,L|192:96,2,31.4999990386963
227,159,114400,1,0,0:0:0:0:
96,288,114550,1,0,0:0:0:0:
96,288,114700,2,0,P|160:272|160:272,1,62.9999980773926
368,288,115150,5,0,0:0:0:0:
250,234,115300,1,0,0:0:0:0:
152,309,115450,2,0,P|168:261|152:245,1,62.9999980773926
64,224,115750,2,0,L|128:160,1,62.9999980773926
62,117,116050,2,0,L|35:141,2,20.9999993591309
272,48,116350,1,0,0:0:0:0:
272,48,116500,2,0,L|336:96,1,62.9999980773926
384,160,116800,2,0,L|320:208,1,62.9999980773926
333,197,117100,1,0,0:0:0:0:
229,78,117250,1,0,0:0:0:0:
238,75,117400,2,0,P|257:115|253:127,1,41.9999987182618
112,242,117700,6,0,P|192:210|224:226,1,125.999996154785
336,192,118150,2,0,L|320:224,2,31.4999990386963
112,224,118600,2,0,L|160:160,1,62.9999980773926
169,84,118900,2,0,L|233:148,1,62.9999980773926
324,184,119200,2,0,L|244:216,1,62.9999980773926
254,307,119500,1,0,0:0:0:0:
128,256,119800,1,0,0:0:0:0:
128,256,120100,6,0,L|176:176,1,64.7499997529984
112,112,120400,1,0,0:0:0:0:
224,144,120700,2,0,L|272:192,1,64.7499997529984
256,288,121000,1,0,0:0:0:0:
41,166,121300,2,0,L|121:198,1,64.7499997529984
229,234,121600,2,0,L|165:282,1,64.7499997529984
34,307,121900,2,0,L|98:323,1,64.7499997529984
224,320,122200,5,0,0:0:0:0:
320,192,122350,1,0,0:0:0:0:
320,192,122500,2,0,L|368:176,2,32.3749998764992
425,153,122800,2,0,L|377:201,1,64.7499997529984
253,273,123100,2,0,L|317:273,1,64.7499997529984
327,344,123400,2,0,L|252:345,1,64.7499997529984
148,199,123700,1,0,0:0:0:0:
250,236,123850,1,0,0:0:0:0:
250,236,124000,6,0,L|221:259,2,32.3749998764992
384,208,124300,1,0,0:0:0:0:
384,208,124450,2,0,P|352:256|320:272,1,64.7499997529984
160,304,124750,1,0,0:0:0:0:
160,304,124900,2,0,L|208:240,1,64.7499997529984
355,286,125200,2,0,L|283:318,1,64.7499997529984
256,224,125500,2,0,L|336:192,1,64.7499997529984
208,128,125800,1,0,0:0:0:0:
296,162,125950,5,0,0:0:0:0:
296,162,126100,2,0,L|340:113,2,64.7499997529984
192,208,126550,1,0,0:0:0:0:
334,314,126700,1,0,0:0:0:0:
192,304,126850,2,0,L|240:272,2,32.3749998764992
268,212,127150,2,0,L|300:276,1,64.7499997529984
400,272,127600,1,0,0:0:0:0:
308,124,127750,1,0,0:0:0:0:
149,114,127900,2,0,L|190:53,1,64.7499997529984
290,98,128200,6,0,L|248:165,1,64.7499997529984
231,200,128500,1,0,0:0:0:0:
149,254,129700,2,0,L|213:206,1,64.7499997529984
267,289,130000,2,0,L|213:334,1,66.4999982242585
80,224,130300,1,0,0:0:0:0:
80,224,130450,2,0,L|112:192,2,33.2499991121292
168,105,130750,5,0,0:0:0:0:
272,160,130900,1,0,0:0:0:0:
272,160,131050,2,0,L|208:192,1,66.4999982242585
144,256,131350,2,0,L|240:272,1,66.4999982242585
336,256,131650,1,0,0:0:0:0:
336,256,131800,2,0,L|272:304,1,66.4999982242585
80,336,132100,2,0,L|80:240,1,66.4999982242585
133,122,132400,5,0,0:0:0:0:
304,96,132550,1,0,0:0:0:0:
304,96,132700,2,0,L|288:144,2,33.2499991121292
208,160,133000,2,0,L|272:208,1,66.4999982242585
400,176,133300,1,0,0:0:0:0:
320,240,133450,2,0,L|384:272,1,66.4999982242585
96,224,133750,1,0,0:0:0:0:
160,288,133900,6,0,L|192:256,2,33.2499991121292
240,208,134200,1,0,0:0:0:0:
336,256,134350,2,0,L|272:288,1,66.4999982242585
90,242,134650,1,0,0:0:0:0:
64,144,134800,2,0,L|112:128,2,33.2499991121292
176,96,135100,2,0,L|208:128,2,33.2499991121292
320,112,135400,2,0,L|272:128,2,33.2499991121292
55,248,135700,1,0,0:0:0:0:
152,154,135850,5,0,0:0:0:0:
161,323,136000,1,0,0:0:0:0:
253,124,136150,1,0,0:0:0:0:
265,298,136300,1,0,0:0:0:0:
385,114,136450,1,0,0:0:0:0:
392,299,136600,1,0,0:0:0:0:
385,114,136750,1,0,0:0:0:0:
384,176,136900,2,0,L|384:256,1,66.4999982242585
224,288,137200,2,0,L|256:256,2,33.2499991121292
112,192,137500,6,0,L|144:208,2,33.2499991121292
183,147,137800,1,0,0:0:0:0:
316,110,138100,1,0,0:0:0:0:
336,224,138250,1,0,0:0:0:0:
336,224,138400,2,0,L|288:272,1,66.4999982242585
336,320,138700,1,0,0:0:0:0:
448,272,139000,5,0,0:0:0:0:
144,256,139300,2,0,L|192:224,1,34.1250001301765
144,144,139600,2,0,L|240:128,1,68.2500002603531
240,224,139900,1,0,0:0:0:0:
384,128,140050,1,0,0:0:0:0:
336,304,140200,2,0,L|368:288,2,34.1250001301765
304,192,140500,6,0,L|352:208,2,34.1250001301765
176,283,140800,1,0,0:0:0:0:
253,218,140950,1,0,0:0:0:0:
288,320,141100,1,0,0:0:0:0:
288,320,141250,2,0,L|352:288,1,68.2500002603531
390,179,141550,1,0,0:0:0:0:
284,108,141700,1,0,0:0:0:0:
176,192,141850,6,0,L|208:160,2,34.1250001301765
112,80,142150,2,0,L|192:80,1,68.2500002603531
286,41,142450,1,0,0:0:0:0:
331,169,142600,1,0,0:0:0:0:
160,256,142750,2,0,L|224:208,1,68.2500002603531
304,240,143050,2,0,L|272:288,2,34.1250001301765
192,320,143350,1,0,0:0:0:0:
64,265,143500,5,0,0:0:0:0:
208,256,143800,1,0,0:0:0:0:
208,256,144100,2,0,L|256:224,2,34.1250001301765
192,96,144400,2,0,L|272:144,1,68.2500002603531
416,144,144700,2,0,L|352:208,1,68.2500002603531
288,304,145000,2,0,L|288:256,2,34.1250001301765
112,192,145300,2,0,L|192:144,1,68.2500002603531
170,156,145600,5,0,0:0:0:0:
263,94,145750,1,0,0:0:0:0:
336,176,145900,2,0,L|304:208,2,34.1250001301765
112,240,146200,2,0,L|176:240,2,34.1250001301765
208,304,146500,2,0,L|256:224,1,68.2500002603531
336,256,146800,2,0,L|304:336,1,68.2500002603531
400,320,147100,2,0,L|432:288,2,34.1250001301765
416,176,147400,2,0,L|336:160,1,68.2500002603531
114,230,147700,6,0,L|142:202,2,22.7500000867844
231,231,147900,2,0,L|219:257,2,22.7500000867844
296,153,148100,2,0,L|311:181,2,22.7500000867844
464,96,148350,2,0,L|442:123,2,22.7500000867844
368,64,148600,1,0,0:0:0:0:
416,176,148750,2,0,L|368:224,1,68.2500002603531
240,80,149050,1,0,0:0:0:0:
160,144,149200,6,0,L|224:176,1,68.2500002603531
192,265,149500,1,0,0:0:0:0:
304,288,149650,1,0,0:0:0:0:
304,288,149800,2,0,L|352:288,2,34.1250001301765
398,199,150100,1,0,0:0:0:0:
327,97,150250,1,0,0:0:0:0:
327,97,150400,2,0,L|375:81,2,34.1250001301765
426,66,150700,1,0,0:0:0:0:
256,33,150850,5,0,0:0:0:0:
105,130,151000,2,0,L|201:146,1,68.2500002603531
196,247,151300,1,0,0:0:0:0:
196,247,151450,2,0,L|228:231,2,34.1250001301765
321,273,151750,2,0,L|321:193,1,68.2500002603531
274,100,152050,2,0,L|354:116,1,68.2500002603531
340,113,152350,5,0,0:0:0:0:
440,129,152500,1,0,0:0:0:0:
437,241,152650,2,0,L|357:273,1,68.2500002603531
178,187,152950,2,0,L|258:219,1,68.2500002603531
283,297,153400,1,0,0:0:0:0:
283,297,153700,2,0,L|347:265,1,68.2500002603531
369,139,154000,2,0,L|417:203,1,68.2500002603531
422,270,154300,5,0,0:0:0:0:
284,210,154450,1,0,0:0:0:0:
166,267,154600,2,0,L|230:283,2,34.1250001301765
146,145,154900,1,0,0:0:0:0:
258,85,155050,1,0,0:0:0:0:
368,73,155200,2,0,L|336:137,1,68.2500002603531
291,236,155500,1,0,0:0:0:0:
127,302,155650,2,0,L|223:302,1,68.2500002603531
102,202,155950,1,0,0:0:0:0:
244,175,156100,5,0,0:0:0:0:
244,175,156250,2,0,L|276:143,2,34.1250001301765
288,277,156550,1,0,0:0:0:0:
400,144,156700,1,0,0:0:0:0:
295,106,156850,2,0,L|327:186,1,68.2500002603531
192,269,157150,1,0,0:0:0:0:
100,192,157300,1,0,0:0:0:0:
164,127,157450,6,0,L|180:159,2,34.1250001301765
272,176,157750,2,0,L|240:192,2,34.1250001301765
64,288,158050,2,0,L|144:272,1,68.2500002603531
114,172,158350,1,0,0:0:0:0:
223,257,158500,1,0,0:0:0:0:
194,158,158650,2,0,L|274:174,1,68.2500002603531
374,164,158950,2,0,L|326:244,1,68.2500002603531
245,322,159250,1,0,0:0:0:0:
272,208,159400,5,0,0:0:0:0:
272,208,159550,2,0,L|352:240,1,68.2500002603531
358,327,159850,2,0,L|390:311,2,34.1250001301765
451,244,160150,2,0,L|403:180,1,68.2500002603531
342,98,160450,1,0,0:0:0:0:
261,247,160600,1,0,0:0:0:0:
261,247,160750,2,0,L|181:243,1,66.4999982242585
84,234,161050,5,0,0:0:0:0:
110,100,161200,1,0,0:0:0:0:
110,100,161350,2,0,L|158:116,2,34.1250001301765
216,62,161650,2,0,L|264:126,1,68.2500002603531
192,240,161950,1,0,0:0:0:0:
328,110,162100,1,0,0:0:0:0:
288,240,162250,2,0,L|320:208,2,34.1250001301765
379,242,162550,1,0,0:0:0:0:
274,149,162700,5,0,0:0:0:0:
93,278,162850,2,0,L|125:214,1,68.2500002603531
123,216,163150,1,0,0:0:0:0:
189,116,163300,1,0,0:0:0:0:
189,116,163450,2,0,L|221:100,2,34.1250001301765
288,80,163750,2,0,L|352:128,1,68.2500002603531
386,220,164050,1,0,0:0:0:0:
289,303,164200,1,0,0:0:0:0:
289,303,164350,2,0,L|241:271,2,34.1250001301765
149,256,164650,1,0,0:0:0:0:
208,144,164800,5,0,0:0:0:0:
241,244,164950,2,0,P|273:212|321:228,1,68.2500002603531
400,179,165250,2,0,L|400:259,1,66.4999982242585
241,178,165700,1,0,0:0:0:0:
241,178,165850,2,0,L|280:168,2,33.2499991121292
346,108,166150,1,0,0:0:0:0:
388,228,166300,1,0,0:0:0:0:
388,228,166450,2,0,L|356:244,2,33.2499991121292
208,208,166750,2,0,L|272:224,1,66.4999982242585
224,320,167050,6,0,L|256:304,2,33.2499991121292
336,222,167350,1,0,0:0:0:0:
160,176,167500,1,0,0:0:0:0:
160,176,167650,2,0,L|224:144,1,66.4999982242585
176,272,168100,2,0,L|240:240,1,66.4999982242585
334,174,168400,1,0,0:0:0:0:
448,240,168550,1,0,0:0:0:0:
448,240,168700,2,0,L|416:272,2,33.2499991121292
286,321,169000,1,0,0:0:0:0:
151,271,169150,1,0,0:0:0:0:
151,271,169300,6,0,L|231:223,1,66.4999982242585
145,127,169600,2,0,L|241:143,1,66.4999982242585
326,140,169900,2,0,L|262:204,1,66.4999982242585
264,278,170200,2,0,L|296:246,2,33.2499991121292
70,247,170500,2,0,L|118:199,1,66.4999982242585
176,105,170800,1,0,0:0:0:0:
294,145,170950,1,0,0:0:0:0:
294,145,171100,6,0,L|246:177,2,33.2499991121292
178,305,171400,1,0,0:0:0:0:
116,162,171550,1,0,0:0:0:0:
116,162,171700,2,0,L|180:194,1,66.4999982242585
302,193,172000,2,0,L|286:273,1,66.4999982242585
191,320,172300,1,0,0:0:0:0:
191,320,172450,2,0,L|175:288,2,33.2499991121292
69,176,172750,6,0,L|133:128,1,66.4999982242585
185,183,173050,2,0,L|116:238,1,66.4999982242585
176,297,173500,1,0,0:0:0:0:
304,269,173650,2,0,L|320:221,2,33.2499991121292
211,191,173950,1,0,0:0:0:0:
299,122,174100,1,0,0:0:0:0:
416,160,174250,2,0,L|384:224,1,66.4999982242585
336,328,174550,1,0,0:0:0:0:
128,295,174700,2,0,L|176:295,2,33.2499991121292
70,200,175000,6,0,L|134:168,1,66.4999982242585
186,88,175300,2,0,L|234:104,2,33.2499991121292
322,84,175600,1,0,0:0:0:0:
251,308,175750,2,0,L|283:292,2,33.2499991121292
112,252,176050,1,0,0:0:0:0:
96,96,176200,6,0,B|256:112|224:352|400:48,1,398.999989345551
256,192,177400,12,0,184900,0:0:0:0:
