osu file format v14

[General]
AudioFilename: audio.mp3
AudioLeadIn: 0
PreviewTime: 58900
Countdown: 1
SampleSet: Normal
StackLeniency: 0.7
Mode: 0
LetterboxInBreaks: 0
WidescreenStoryboard: 1

[Editor]
DistanceSpacing: 1
BeatDivisor: 4
GridSize: 16
TimelineZoom: 1

[Metadata]
Title:Indoor Kei Nara Trackmaker (CurryRice Remix)
TitleUnicode:Indoor Kei Nara Trackmaker (CurryRice Remix)
Artist:Yunomi ft Nicamoq
ArtistUnicode:Yunomi ft Nicamoq
Creator:Keiger
Version:Normal
Source:
Tags:
BeatmapID:0
BeatmapSetID:-1

[Difficulty]
HPDrainRate:2.5
CircleSize:3.5
OverallDifficulty:3
ApproachRate:4.5
SliderMultiplier:1.4
SliderTickRate:1

[Events]
//Background and Video events
0,0,"anime pic for beatmap.jpg",0,0
//Break Periods
//Storyboard Layer 0 (Background)
//Storyboard Layer 1 (Fail)
//Storyboard Layer 2 (Pass)
//Storyboard Layer 3 (Foreground)
//Storyboard Layer 4 (Overlay)
//Storyboard Sound Samples

[TimingPoints]
100,600,4,1,0,100,1,0

[HitObjects]
112,176,19600,6,0,P|192:160|256:192,1,140
178,240,20500,1,0,0:0:0:0:
278,289,20800,2,0,P|330:233|335:165,1,140
336,172,21700,1,0,0:0:0:0:
269,120,22000,2,0,P|195:91|132:117,1,140
63,182,22900,2,0,P|103:254|167:271,1,140
148,148,23800,1,0,0:0:0:0:
241,64,24100,2,0,P|297:120|293:184,2,140
110,229,25600,1,0,0:0:0:0:
144,121,25900,2,0,P|228:111|228:111,1,70
203,204,26500,5,0,0:0:0:0:
307,128,26800,1,0,0:0:0:0:
307,128,27100,2,0,L|357:192,1,70
241,291,27700,2,0,L|309:266,1,70
504,302,28300,2,0,L|436:258,1,70
392,198,28900,1,0,0:0:0:0:
245,213,29200,1,0,0:0:0:0:
245,213,29500,2,0,L|312:170,1,70
361,66,30100,2,0,L|412:126,1,70
425,208,30700,1,0,0:0:0:0:
292,266,31300,1,0,0:0:0:0:
128,192,31600,6,0,L|192:144,1,70
176,48,32200,1,0,0:0:0:0:
288,80,32500,2,0,P|336:112|336:128,2,70
194,220,33700,2,0,P|274:188|322:204,1,140
265,274,34600,1,0,0:0:0:0:
176,320,34900,2,0,P|112:256|128:192,1,140
256,192,38500,12,0,40900,0:0:0:0:
176,160,41500,5,0,0:0:0:0:
272,128,42100,1,0,0:0:0:0:
416,176,42400,2,0,L|336:224,1,70
176,240,43000,2,0,L|256:288,1,70
320,304,43600,1,0,0:0:0:0:
352,208,43900,1,0,0:0:0:0:
304,128,44200,1,0,0:0:0:0:
128,176,44500,2,0,L|288:240,2,140
198,70,46000,1,0,0:0:0:0:
352,80,46300,5,0,0:0:0:0:
352,80,46600,2,0,P|336:128|320:144,1,70
288,304,47200,1,0,0:0:0:0:
288,304,47500,2,0,P|304:256|288:240,2,70
96,320,48400,2,0,P|96:224|144:192,1,140
217,151,49300,1,0,0:0:0:0:
304,208,49600,1,0,0:0:0:0:
304,208,49900,2,0,P|256:256|224:256,1,70
96,192,50500,2,0,P|112:240|128:240,1,70
108,315,51100,1,0,0:0:0:0:
206,250,51400,5,0,0:0:0:0:
164,131,51700,1,0,0:0:0:0:
48,144,52000,1,0,0:0:0:0:
64,224,52300,2,0,P|128:208|144:192,1,70
256,144,52900,2,0,P|272:224|224:240,1,140
112,288,53800,1,0,0:0:0:0:
64,176,54100,1,0,0:0:0:0:
160,96,54400,1,0,0:0:0:0:
176,192,54700,6,0,L|256:240,1,70
384,192,55300,2,0,P|352:272|288:304,1,140
128,144,56500,2,0,P|144:224|208:272,1,140
256,249,57700,1,0,0:0:0:0:
332,182,58000,1,0,0:0:0:0:
286,101,58300,1,0,0:0:0:0:
201,100,58600,1,0,0:0:0:0:
48,128,58900,2,0,L|96:208,1,70
224,160,59500,2,0,L|176:224,1,70
280,239,60100,2,0,P|194:305|146:307,2,140
96,144,62500,6,0,P|192:160|224:208,1,140
352,144,63700,2,0,P|368:224|336:272,1,140
240,288,64600,2,0,L|240:208,2,70
160,288,65500,2,0,P|96:224|112:160,1,140
256,192,66700,2,0,P|224:112|160:96,1,140
136,164,67600,1,0,0:0:0:0:
207,250,67900,1,0,0:0:0:0:
314,287,68200,1,0,0:0:0:0:
320,288,68500,6,0,P|384:240|352:176,1,140
208,224,69700,2,0,P|224:144|288:96,1,140
368,96,70900,2,0,P|416:176|384:224,1,140
