osu file format v14

[General]
AudioFilename: audio.mp3
AudioLeadIn: 0
PreviewTime: 166021
Countdown: 0
SampleSet: None
StackLeniency: 0.3
Mode: 0
LetterboxInBreaks: 0
WidescreenStoryboard: 0

[Editor]
Bookmarks: 11711,17228,19987,22745,33780,44814,50332,55849,61366,66883,72401,77918,83435,86194,88952,94470,97228,99987,111021,116539,122056,127573,131711,133090,155159
DistanceSpacing: 1.2
BeatDivisor: 4
GridSize: 4
TimelineZoom: 1.5

[Metadata]
Title:idfk
TitleUnicode:サンデーモーニングコーヒー
Artist:Yunomi feat. nicamoq
ArtistUnicode:Yunomi feat. nicamoq
Creator:caned
Version:dfd
Source:sdfsdf
Tags:sdgsdg
BeatmapID:1558814
BeatmapSetID:738617

[Difficulty]
HPDrainRate:2
CircleSize:3.6
OverallDifficulty:8.6
ApproachRate:9
SliderMultiplier:2.2
SliderTickRate:2

[Events]
//Background and Video events
0,0,"bbbbbbbb.jpg",0,0
//Break Periods
2,133290,134559
2,135359,136973
2,138118,140077
//Storyboard Layer 0 (Background)
//Storyboard Layer 1 (Fail)
//Storyboard Layer 2 (Pass)
//Storyboard Layer 3 (Foreground)
//Storyboard Sound Samples

[TimingPoints]
677,344.827586206897,4,1,0,70,1,0
677,-200,4,2,0,30,0,0
2573,-200,4,2,0,5,0,0
2745,-133.333333333333,4,2,0,30,0,0
2918,-133.333333333333,4,2,0,5,0,0
3090,-100,4,2,0,30,0,0
3263,-100,4,2,0,5,0,0
3435,-200,4,2,0,30,0,0
5159,-200,4,2,0,30,0,0
5332,-200,4,2,0,5,0,0
5504,-133.333333333333,4,2,0,30,0,0
5677,-133.333333333333,4,2,0,5,0,0
5849,-100,4,2,0,30,0,0
6021,-100,4,2,0,5,0,0
6194,-100,4,2,0,30,0,0
7918,-166.666666666667,4,2,0,30,0,0
11711,-166.666666666667,4,2,0,45,0,0
17573,-142.857142857143,4,2,0,45,0,0
17918,-125,4,2,0,45,0,0
18263,-125,4,2,0,45,0,0
18608,-111.111111111111,4,2,0,45,0,0
18952,-99.9999999999999,4,2,0,45,0,0
19297,-90.9090909090909,4,2,0,45,0,0
19642,-83.3333333333333,4,2,0,45,0,0
19987,-166.666666666667,4,2,0,45,0,0
20159,-125,4,2,0,45,0,0
20332,-100,4,2,0,45,0,0
20504,-83.3333333333333,4,2,0,45,0,0
20677,-71.4285714285714,4,2,0,45,0,0
20849,-62.5,4,2,0,45,0,0
21366,-200,4,2,0,45,0,0
22056,-200,4,2,0,80,0,0
22745,-100,4,2,0,80,0,1
25159,-133.333333333333,4,2,0,80,0,1
25504,-83.3333333333333,4,2,0,80,0,1
27918,-133.333333333333,4,2,0,80,0,1
28263,-83.3333333333333,4,2,0,80,0,1
33090,-200,4,2,0,80,0,1
33780,-83.3333333333333,4,2,0,80,0,1
36539,-66.6666666666667,4,2,0,80,0,1
37573,-83.3333333333333,4,2,0,80,0,1
38608,-66.6666666666667,4,2,0,80,0,1
38952,-133.333333333333,4,2,0,80,0,1
39297,-83.3333333333333,4,2,0,80,0,1
44125,-83.3333333333333,4,2,0,80,0,0
44814,-142.857142857143,4,2,0,55,0,0
49297,-200,4,2,0,55,0,0
50332,-142.857142857143,4,2,0,55,0,0
55849,-100,4,2,0,55,0,0
57573,-200,4,2,0,5,0,0
57918,-100,4,2,0,55,0,0
63090,-200,4,2,0,5,0,0
63435,-100,4,2,0,55,0,0
66883,-200,4,2,0,55,0,0
72745,-133.333333333333,4,2,0,55,0,0
73090,-100,4,2,0,55,0,0
73435,-79.9999999999999,4,2,0,55,0,0
76539,-200,4,2,0,55,0,0
77918,-66.6666666666667,4,2,0,55,0,0
88952,-57.1428571428571,4,2,0,55,0,0
99987,-80,4,2,0,55,0,1
102745,-55.5555555555556,4,2,0,55,0,1
103435,-79.9999999999999,4,2,0,55,0,1
107401,-68.9655172413793,4,2,0,55,0,1
107573,-60.6060606060606,4,2,0,55,0,1
107745,-80,4,2,0,55,0,1
108435,-100,4,2,0,55,0,1
108608,-133.333333333333,4,2,0,55,0,1
108952,-200,4,2,0,55,0,1
109642,-200,4,2,0,55,0,0
110332,-79.9999999999999,4,2,0,55,0,0
111021,-142.857142857143,4,2,0,55,0,0
113952,-142.857142857143,4,2,0,5,0,0
114297,-142.857142857143,4,2,0,55,0,0
114470,-142.857142857143,4,2,0,5,0,0
114814,-142.857142857143,4,2,0,55,0,0
114987,-142.857142857143,4,2,0,5,0,0
115159,-142.857142857143,4,2,0,55,0,0
117228,-100,4,2,0,55,0,0
117918,-142.857142857143,4,2,0,55,0,0
119125,-142.857142857143,4,2,0,5,0,0
119297,-142.857142857143,4,2,0,55,0,0
122056,-100,4,2,0,55,0,0
145849,-200,4,2,0,55,0,0
146021,-200,4,2,0,5,0,0
146194,-133.333333333333,4,2,0,55,0,0
146366,-133.333333333333,4,2,0,5,0,0
146539,-100,4,2,0,55,0,0
146711,-100,4,2,0,5,0,0
146883,-100,4,2,0,55,0,0
148608,-200,4,2,0,55,0,0
148780,-200,4,2,0,5,0,0
148952,-133.333333333333,4,2,0,55,0,0
149125,-133.333333333333,4,2,0,5,0,0
149297,-100,4,2,0,55,0,0
149470,-100,4,2,0,5,0,0
149642,-100,4,2,0,55,0,0

[HitObjects]
124,284,677,5,4,0:0:0:0:
128,272,1194,1,0,0:0:0:0:
132,260,1711,1,0,0:0:0:0:
368,72,2401,6,0,L|312:64,1,55
368,72,2745,6,0,B|314:64|314:64|342:80,1,82.5000031471254
368,72,3090,6,0,B|314:64|314:64|367:92,1,110
124,100,3435,5,4,0:0:0:0:
128,112,3952,1,0,0:0:0:0:
132,124,4470,1,0,0:0:0:0:
368,312,5159,6,0,L|312:320,1,55
368,312,5504,6,0,B|314:320|314:320|342:304,1,82.5000031471254
368,312,5849,6,0,B|314:320|314:320|367:292,1,110
388,100,6194,5,4,0:0:0:0:
384,112,6711,1,0,0:0:0:0:
380,124,7228,1,0,0:0:0:0:
121,313,7918,6,0,B|148:281|144:250|144:250|150:280|208:313,2,131.99999597168
375,136,8952,5,4,0:0:0:0:
200,202,9297,6,0,P|139:175|75:227,2,131.99999597168
143,253,10332,5,4,0:0:0:0:
394,52,10677,5,0,0:0:0:0:
256,228,11021,1,0,0:0:0:0:
118,52,11366,1,0,0:0:0:0:
268,301,11711,6,0,L|318:291,1,32.99999899292,4|0,0:0|0:0,0:0:0:0:
256,228,11883,2,0,L|206:218,1,32.99999899292
252,152,12056,2,0,L|302:142,1,32.99999899292
240,79,12228,2,0,L|190:69,1,32.99999899292
118,52,12401,5,8,0:0:0:0:
252,152,12573,2,0,L|328:144,2,65.9999979858399
127,245,13090,1,0,0:0:0:0:
260,121,13263,1,0,0:0:0:0:
253,132,13349,1,0,0:0:0:0:
246,140,13435,6,0,L|171:124,1,65.9999979858399
268,301,13780,1,8,0:0:0:0:
260,121,13952,2,0,L|331:106,2,65.9999979858399
127,245,14470,6,0,L|137:295,1,32.99999899292,4|0,0:0|0:0,0:0:0:0:
200,233,14642,2,0,L|210:183,1,32.99999899292
276,228,14814,2,0,L|286:278,1,32.99999899292
349,217,14987,2,0,L|359:167,1,32.99999899292
376,94,15159,5,8,0:0:0:0:
276,228,15332,2,0,L|284:304,2,65.9999979858399
183,104,15849,1,0,0:0:0:0:
307,237,16021,1,0,0:0:0:0:
296,230,16108,1,0,0:0:0:0:
288,223,16194,6,0,L|304:148,1,65.9999979858399
127,245,16539,1,8,0:0:0:0:
307,237,16711,2,0,L|322:308,2,65.9999979858399
127,245,17228,6,0,L|136:315,1,65.9999979858399,4|0,0:0|0:0,0:0:0:0:
409,202,17573,6,0,L|399:282,1,76.9999976501466
123,201,17918,6,0,L|132:296,1,88,12|0,0:0|0:0,0:0:0:0:
417,157,18263,6,0,L|402:271,1,88
111,143,18608,6,0,L|127:265,1,98.9999969787599,4|0,0:0|0:0,0:0:0:0:
430,87,18952,6,0,L|412:218,1,110
105,87,19297,6,0,L|122:230,1,121.000003692627,12|0,0:0|0:0,0:0:0:0:
441,18,19642,6,0,L|420:176,1,131.99999597168
99,54,19987,6,0,L|107:104,1,32.99999899292,12|0,0:0|0:0,0:0:0:0:
125,163,20159,6,0,L|116:226,1,44
189,242,20332,6,0,L|224:326,1,55,12|0,0:0|0:0,0:0:0:0:
289,292,20504,6,0,L|352:340,1,65.9999979858399
354,214,20677,6,0,L|518:160,1,153.999995300293,12|0,0:0|0:0,0:0:0:0:
348,195,21021,6,0,L|156:152,1,176,12|0,0:0|0:0,0:0:0:0:
84,333,21366,6,0,B|27:338|27:338|84:353,1,110
217,183,22056,6,0,B|260:144|293:165|293:165|258:183|207:137,1,165
172,85,22745,6,0,P|153:110|142:141,1,55,4|0,0:0|0:0,0:0:0:0:
217,183,22918,2,0,P|248:186|280:180,1,55
291,106,23090,2,0,P|278:77|257:52,1,55
172,85,23263,2,0,P|153:110|142:141,1,55
217,183,23435,1,8,0:0:0:0:
291,106,23608,1,0,0:0:0:0:
205,197,23780,6,0,L|86:184,1,110
295,93,24125,1,0,0:0:0:0:
201,208,24297,1,0,0:0:0:0:
196,218,24383,1,0,0:0:0:0:
192,228,24470,1,0,0:0:0:0:
303,75,24642,1,0,0:0:0:0:
74,217,24814,2,0,L|206:189,1,110,8|0,0:0|0:0,0:0:0:0:
286,317,25159,6,0,P|329:244|306:187,1,123.750004720688
255,245,25504,6,0,L|164:220,1,65.9999979858399,4|0,0:0|0:0,0:0:0:0:
120,167,25677,2,0,L|211:142,1,65.9999979858399
275,95,25849,2,0,L|184:70,1,65.9999979858399
140,17,26021,2,0,L|231:-8,1,65.9999979858399
120,167,26194,1,8,0:0:0:0:
303,75,26366,1,0,0:0:0:0:
106,180,26539,2,0,L|248:164,1,131.99999597168
266,130,26883,5,0,0:0:0:0:
202,318,27056,1,0,0:0:0:0:
198,330,27142,1,0,0:0:0:0:
195,342,27228,1,0,0:0:0:0:
106,180,27401,1,0,0:0:0:0:
288,247,27573,1,8,0:0:0:0:
119,174,27745,1,0,0:0:0:0:
367,147,27918,6,0,B|402:157|447:153|447:153|388:191,1,123.750004720688
374,202,28263,6,0,L|292:177,1,65.9999979858399,4|0,0:0|0:0,0:0:0:0:
250,278,28435,2,0,L|332:253,1,65.9999979858399
227,194,28608,2,0,L|145:169,1,65.9999979858399
103,270,28780,2,0,L|185:245,1,65.9999979858399
310,182,28952,1,8,0:0:0:0:
85,122,29125,1,0,0:0:0:0:
315,205,29297,6,0,L|460:213,1,131.99999597168
275,113,29642,1,0,0:0:0:0:
250,278,29814,1,0,0:0:0:0:
264,127,29987,6,0,B|197:168|125:90|125:90|196:84,1,197.99999395752
206,75,30332,2,0,B|249:60|249:60|206:131|253:214,1,197.99999395752,8|0,0:0|0:0,0:0:0:0:
204,191,30677,2,0,B|272:252|300:339|300:339|272:247|310:119,1,395.999987915039
190,288,31366,6,0,B|207:226|265:178|265:178|192:192,1,197.99999395752
161,207,31711,2,0,P|175:125|75:159,1,197.99999395752,8|0,0:0|0:0,0:0:0:0:
128,167,32056,2,0,B|83:194|65:244|65:244|1:145|88:68|218:95|218:95|269:119|288:115|299:47|237:27|195:41,1,527.999983886719
370,169,33090,6,2,B|274:142|274:142|268:145|268:145|166:122,1,192.5,10|2,0:0|0:0,0:0:0:0:
130,68,33780,6,0,P|115:97|104:137,1,65.9999979858399,4|0,0:0|0:0,0:0:0:0:
260,206,33952,2,0,P|275:177|286:137,1,65.9999979858399
184,126,34125,2,0,P|169:155|158:195,1,65.9999979858399
345,229,34297,2,0,P|360:200|371:160,1,65.9999979858399
340,83,34470,1,8,0:0:0:0:
260,206,34642,1,0,0:0:0:0:
190,83,34814,1,0,0:0:0:0:
264,190,34987,1,0,0:0:0:0:
357,38,35159,5,0,0:0:0:0:
360,64,35245,1,0,0:0:0:0:
363,90,35332,1,0,0:0:0:0:
366,116,35418,1,0,0:0:0:0:
368,142,35504,1,0,0:0:0:0:
185,169,35677,5,0,0:0:0:0:
172,172,35763,1,0,0:0:0:0:
159,176,35849,1,8,0:0:0:0:
368,142,36021,1,0,0:0:0:0:
381,145,36108,1,0,0:0:0:0:
394,149,36194,1,0,0:0:0:0:
262,64,36366,1,0,0:0:0:0:
159,176,36539,6,0,B|106:178|106:178|131:274|312:223,1,247.500009441376
287,198,36883,2,0,P|339:176|221:109,1,247.500009441376
254,95,37228,2,0,B|292:129|292:129|208:193|79:121,1,247.500009441376,8|0,0:0|0:0,0:0:0:0:
122,111,37573,5,0,0:0:0:0:
172,244,37745,1,0,0:0:0:0:
254,95,37918,1,0,0:0:0:0:
277,118,38004,1,0,0:0:0:0:
278,150,38090,1,0,0:0:0:0:
261,179,38177,1,0,0:0:0:0:
240,204,38263,6,0,B|262:257|231:292|231:292|286:264,1,131.99999597168
122,111,38608,6,0,P|46:109|121:142,1,165.000006294251,8|0,0:0|0:0,0:0:0:0:
270,224,38952,6,0,B|305:234|350:230|350:230|291:268,1,123.750004720688
244,266,39297,6,0,L|270:343,1,65.9999979858399,4|0,0:0|0:0,0:0:0:0:
176,209,39470,2,0,L|127:253,1,65.9999979858399
257,159,39642,2,0,L|273:241,1,65.9999979858399
189,102,39814,2,0,L|134:141,1,65.9999979858399
287,71,39987,1,8,0:0:0:0:
198,13,40159,1,0,0:0:0:0:
257,159,40332,2,0,L|115:143,1,131.99999597168
97,109,40677,5,0,0:0:0:0:
161,297,40849,1,0,0:0:0:0:
165,309,40935,1,0,0:0:0:0:
168,321,41021,1,0,0:0:0:0:
257,159,41194,1,0,0:0:0:0:
75,226,41366,1,8,0:0:0:0:
244,153,41539,1,0,0:0:0:0:
65,240,41711,6,0,B|36:269|36:269|58:212|27:168,1,131.99999597168
82,81,42056,1,0,0:0:0:0:
161,297,42228,1,0,0:0:0:0:
100,96,42401,1,0,0:0:0:0:
100,96,42487,1,0,0:0:0:0:
100,96,42573,1,0,0:0:0:0:
156,316,42745,1,8,0:0:0:0:
280,144,42918,1,0,0:0:0:0:
120,100,43090,5,0,0:0:0:0:
160,332,43263,1,0,0:0:0:0:
264,148,43435,1,0,0:0:0:0:
48,184,43608,1,0,0:0:0:0:
280,144,43780,1,8,0:0:0:0:
393,338,44125,6,0,P|409:284|385:232,1,87.9999973144532,0|0,3:0|3:0,3:0:0:0:
378,235,44297,1,0,3:0:0:0:
355,249,44383,1,0,3:0:0:0:
326,269,44470,6,0,L|219:260,2,87.9999973144532,0|0|0,3:0|3:0|3:0,3:0:0:0:
378,235,44814,6,0,B|420:226|420:226|349:220|301:181,1,153.999995300293
412,96,45332,2,0,P|338:52|261:72,1,153.999995300293
181,182,45849,2,0,B|139:138|148:78|148:78|118:121,1,153.999995300293
124,111,46883,5,2,0:0:0:0:
130,151,47228,5,0,0:0:0:0:
134,185,47573,6,0,B|92:176|92:176|163:170|211:131,1,153.999995300293
308,47,48090,2,0,P|352:121|332:198,1,153.999995300293
222,278,48608,2,0,B|266:320|326:311|326:311|283:341,1,153.999995300293
122,92,49297,6,0,B|138:55|128:21|128:21|140:55|162:67,2,110,2|2|2,0:0|0:0|0:0,0:0:0:0:
56,187,50332,6,0,P|131:208|211:158,1,153.999995300293
303,68,50849,1,0,0:0:0:0:
303,68,51021,2,0,B|345:37|345:37|316:112|347:156,1,153.999995300293
122,92,51711,5,0,0:0:0:0:
89,333,52056,6,0,L|64:240,1,76.9999976501466
89,333,52401,6,0,P|82:291|61:243,1,76.9999976501466,2|0,0:0|0:0,0:0:0:0:
4,172,52745,2,0,P|41:156|106:150,1,76.9999976501466
192,200,53090,1,0,0:0:0:0:
143,69,53263,1,0,0:0:0:0:
185,183,53435,1,0,0:0:0:0:
76,149,53608,6,0,B|46:118|46:118|52:193|27:238,1,153.999995300293
185,183,54125,2,0,B|261:213|371:195|371:195|287:216|287:216|236:239,1,307.999990600586
178,164,55159,5,8,0:0:0:0:
172,192,55504,1,8,0:0:0:0:
128,82,55677,1,0,0:0:0:0:
87,210,55849,6,0,L|72:279,4,55
128,82,56366,2,0,L|143:151,4,55
53,12,56883,1,8,0:0:0:0:
87,210,57056,1,0,0:0:0:0:
128,82,57228,6,0,P|186:67|252:85,1,110
192,172,57573,6,0,B|210:160|210:160|182:151|182:151|199:135,1,55,0|0,3:0|3:0,3:0:0:0:
128,82,57918,1,8,0:0:0:0:
101,222,58090,2,0,L|82:340,2,110
128,82,58608,5,8,0:0:0:0:
192,172,58780,1,0,0:0:0:0:
128,82,58952,1,0,0:0:0:0:
195,187,59125,6,0,B|233:209|257:261|257:261|279:195|210:126,1,220,8|0,0:0|0:0,0:0:0:0:
128,82,59642,2,0,P|75:142|160:268,1,220
261,324,60159,5,0,0:0:0:0:
282,319,60245,1,0,0:0:0:0:
303,313,60332,1,0,0:0:0:0:
324,307,60418,1,0,0:0:0:0:
344,298,60504,6,0,L|375:289,3,27.5
163,286,60849,5,0,0:0:0:0:
344,298,61021,1,0,0:0:0:0:
174,279,61194,1,0,0:0:0:0:
370,290,61366,6,0,B|434:260|434:260|358:285|269:225,1,220
373,45,61883,2,0,B|439:143|377:187|377:187|385:154|357:115,1,220
290,238,62401,2,0,P|229:252|182:234,1,110
107,153,62745,2,0,L|229:125,1,110
192,260,63090,6,0,B|174:248|174:248|202:239|202:239|185:223,1,55,0|0,3:0|3:0,3:0:0:0:
107,153,63435,1,0,0:0:0:0:
192,260,63608,2,0,L|331:248,2,110
107,153,64125,5,8,0:0:0:0:
197,89,64297,1,0,0:0:0:0:
107,153,64470,1,0,0:0:0:0:
212,86,64642,6,0,B|234:48|286:24|286:24|220:2|151:71,1,220,8|0,0:0|0:0,0:0:0:0:
107,153,65159,2,0,P|167:206|293:121,1,220
198,109,65677,6,0,L|203:72,3,27.5
194,126,66194,5,0,0:0:0:0:
193,147,66280,1,0,0:0:0:0:
192,168,66366,1,0,0:0:0:0:
191,189,66452,1,0,0:0:0:0:
190,211,66539,5,2,0:0:0:0:
395,267,66883,6,0,B|335:351|242:279|242:279|279:243|279:243|320:275,1,275
330,59,67918,6,0,B|377:111|347:202|347:202|454:128|454:128|415:110|415:110|399:132,1,330
155,313,69297,5,0,0:0:0:0:
155,313,69642,2,0,P|143:255|271:221,1,220
290,131,70677,2,0,B|181:100|105:159|105:159|171:64|235:107,1,330
215,269,72056,5,0,0:0:0:0:
207,243,72228,1,0,0:0:0:0:
290,131,72401,6,0,L|272:193,1,55,2|0,0:0|0:0,0:0:0:0:
207,243,72745,6,0,P|242:268|292:275,1,82.5000031471254
194,133,73090,6,0,L|208:256,1,110
273,300,73435,6,0,P|207:330|145:301,1,137.5
92,198,73780,5,0,0:0:0:0:
194,133,73952,1,0,0:0:0:0:
75,213,74125,6,0,B|218:257|227:103|227:103|190:136,2,275
254,74,74987,1,0,0:0:0:0:
309,226,75159,5,0,0:0:0:0:
277,62,75332,1,0,0:0:0:0:
221,284,75504,5,0,0:0:0:0:
254,74,75677,1,0,0:0:0:0:
121,333,75849,5,0,0:0:0:0:
231,88,76021,1,0,0:0:0:0:
61,226,76194,5,0,0:0:0:0:
217,99,76366,1,0,0:0:0:0:
32,116,76539,6,0,B|18:67|18:67|32:35|32:35|46:58,1,110
105,321,77228,5,2,0:0:0:0:
105,321,77573,5,0,0:0:0:0:
224,68,77918,6,0,B|224:119|224:119|232:218,1,110.000004196167
290,321,78133,2,0,P|240:341|171:312,1,110.000004196167
121,201,78392,2,0,L|241:174,1,110.000004196167
105,321,78608,5,0,0:0:0:0:
153,120,78780,1,0,0:0:0:0:
290,321,78952,2,0,B|312:275|312:224|312:224|342:293,1,165.000006294251
220,249,79297,6,0,B|102:223,1,110.000004196167
224,69,79513,2,0,B|211:108|211:108|229:157|229:157|259:119,1,110.000004196167
337,283,79771,2,0,P|354:227|334:164,1,110.000004196167
224,69,79987,6,0,P|179:57|142:66,1,82.5000031471254
61,120,80159,1,0,0:0:0:0:
100,149,80245,1,0,0:0:0:0:
147,164,80332,1,0,0:0:0:0:
196,163,80418,1,0,0:0:0:0:
243,151,80504,1,0,0:0:0:0:
285,126,80590,1,0,0:0:0:0:
311,83,80677,6,0,L|336:222,1,110.000004196167
395,335,80892,2,0,P|342:351|275:324,1,110.000004196167
330,191,81151,2,0,P|272:176|194:201,1,110.000004196167
122,98,81366,5,0,0:0:0:0:
170,299,81539,1,0,0:0:0:0:
307,98,81711,2,0,B|329:144|329:195|329:195|359:126,1,165.000006294251
241,161,82056,6,0,P|182:156|125:195,1,110.000004196167
170,299,82271,2,0,P|228:308|281:266,1,110.000004196167
241,161,82530,2,0,L|213:44,1,110.000004196167
109,131,82745,5,0,0:0:0:0:
109,131,82832,1,0,0:0:0:0:
109,131,82918,2,0,P|87:167|90:225,1,82.5000031471254
217,236,83090,5,0,0:0:0:0:
217,236,83177,1,0,0:0:0:0:
217,236,83263,2,0,P|238:199|235:141,1,82.5000031471254
167,73,83435,6,0,P|112:48|42:73,1,110.000004196167
84,206,83651,2,0,L|107:314,1,110.000004196167
217,236,83909,2,0,L|238:126,1,110.000004196167
109,131,84125,5,0,0:0:0:0:
157,332,84297,1,0,0:0:0:0:
294,131,84470,2,0,B|316:177|316:228|316:228|346:159,1,165.000006294251
223,199,84814,6,0,B|169:183|169:183|95:207,1,110.000004196167
294,131,85030,2,0,B|352:124|352:124|417:135,1,110.000004196167
223,54,85289,2,0,L|103:47,1,110.000004196167
37,125,85504,5,0,0:0:0:0:
31,174,85590,1,0,0:0:0:0:
36,223,85677,1,0,0:0:0:0:
63,264,85763,1,0,0:0:0:0:
103,292,85849,1,0,0:0:0:0:
150,306,85935,1,0,0:0:0:0:
199,301,86021,1,0,0:0:0:0:
244,281,86108,1,0,0:0:0:0:
277,244,86194,6,0,B|272:182|272:182|268:176|268:176|264:98,1,110.000004196167
481,120,86409,2,0,P|425:110|363:137,1,110.000004196167
277,244,86668,2,0,P|221:254|159:227,1,110.000004196167
70,149,86883,5,0,0:0:0:0:
118,350,87056,1,0,0:0:0:0:
255,149,87228,2,0,B|277:195|277:246|277:246|307:177,1,165.000006294251
218,33,87573,5,0,0:0:0:0:
186,70,87659,1,0,0:0:0:0:
171,117,87745,1,0,0:0:0:0:
168,166,87832,1,0,0:0:0:0:
180,213,87918,1,0,0:0:0:0:
213,249,88004,1,0,0:0:0:0:
254,276,88090,1,0,0:0:0:0:
302,289,88177,1,0,0:0:0:0:
350,282,88263,6,0,L|448:260,1,82.5000031471254
324,187,88435,2,0,L|226:165,1,82.5000031471254
380,117,88608,2,0,L|478:95,1,82.5000031471254
354,22,88780,2,0,L|256:0,1,82.5000031471254
186,70,88952,6,0,B|149:135|70:122|70:122|183:176|254:90,1,288.750002753735
324,187,89297,2,0,P|277:218|300:187,1,192.500001835823
186,70,89642,1,0,0:0:0:0:
230,288,89814,1,0,0:0:0:0:
191,44,89987,2,0,B|239:67|285:75|285:75|238:70|160:87,1,192.500001835823
230,288,90332,6,0,B|145:263|25:279|25:279|111:245,1,288.750002753735
189,83,90677,2,0,B|213:126|216:174|216:174|216:126|241:61,1,192.500001835823
390,149,91021,2,0,L|504:171,1,96.2500009179115
438,263,91194,1,0,0:0:0:0:
401,305,91280,1,0,0:0:0:0:
348,325,91366,1,0,0:0:0:0:
291,324,91452,1,0,0:0:0:0:
234,311,91539,1,0,0:0:0:0:
193,271,91625,1,0,0:0:0:0:
174,216,91711,6,0,B|136:241|142:309|142:309|91:203|178:147,1,288.750002753735
317,185,92056,2,0,B|346:136|322:89|322:89|351:138|404:154,1,192.500001835823
241,122,92401,1,0,0:0:0:0:
266,351,92573,1,0,0:0:0:0:
240,147,92745,2,0,B|195:164|195:164|150:148|150:148|89:163|89:163|143:200,1,192.500001835823
266,351,93090,6,0,B|349:346|409:306|409:306|328:321|192:250,1,288.750002753735
116,182,93435,2,0,P|194:148|336:241,1,192.500001835823
408,308,93780,6,0,P|422:251|383:188,1,96.2500009179115
292,178,93952,2,0,P|277:234|317:298,1,96.2500009179115
160,335,94125,2,0,P|174:278|135:215,1,96.2500009179115
44,205,94297,2,0,P|29:261|69:325,1,96.2500009179115
162,243,94470,6,0,B|225:199|296:178|296:178|182:148|130:200,1,288.750002753735
44,205,94814,2,0,B|9:192|34:140|34:140|111:137|140:61,1,192.500001835823
45,54,95159,1,0,0:0:0:0:
89,283,95332,1,0,0:0:0:0:
46,96,95504,6,0,B|182:28|257:102|257:102|142:100|69:151|69:151|220:138|263:163|263:163|215:170|184:199,1,705.833340064685
329,232,96194,2,0,P|362:146|313:42,1,192.500001835823
263,163,96539,2,0,B|214:181|214:181|223:118|144:58,1,192.500001835823
30,111,96883,5,0,0:0:0:0:
2,183,96970,1,0,0:0:0:0:
20,257,97056,1,0,0:0:0:0:
86,295,97142,1,0,0:0:0:0:
158,321,97228,5,0,0:0:0:0:
158,321,97314,1,0,0:0:0:0:
158,321,97401,2,0,P|207:332|276:309,1,96.2500009179115
165,164,97573,5,0,0:0:0:0:
165,164,97659,1,0,0:0:0:0:
165,164,97745,2,0,P|116:175|47:152,1,96.2500009179115
251,323,97918,5,0,0:0:0:0:
251,323,98004,1,0,0:0:0:0:
251,323,98090,2,0,L|275:201,1,96.2500009179115
165,164,98263,5,0,0:0:0:0:
165,164,98349,1,0,0:0:0:0:
165,164,98435,2,0,L|141:42,1,96.2500009179115
233,48,98608,5,0,0:0:0:0:
306,26,98694,1,0,0:0:0:0:
381,39,98780,1,0,0:0:0:0:
435,92,98866,1,0,0:0:0:0:
458,165,98952,1,0,0:0:0:0:
444,241,99039,1,0,0:0:0:0:
380,284,99125,1,0,0:0:0:0:
303,293,99211,1,0,0:0:0:0:
227,276,99297,6,0,L|48:221,2,128.333334557215
329,215,99642,2,0,L|413:199,3,64.1666672786077
227,276,99987,6,0,L|152:291,1,68.75
36,224,100159,2,0,L|111:239,1,68.75
245,180,100332,2,0,L|170:195,1,68.75
54,128,100504,2,0,L|129:143,1,68.75
243,90,100677,1,0,0:0:0:0:
227,276,100849,1,0,0:0:0:0:
54,128,101021,2,0,B|17:94|17:94|32:155|2:217,1,137.5
94,44,101366,5,0,0:0:0:0:
154,210,101539,1,0,0:0:0:0:
154,210,101625,1,0,0:0:0:0:
154,210,101711,1,0,0:0:0:0:
243,90,101883,1,0,0:0:0:0:
44,134,102056,1,0,0:0:0:0:
228,94,102228,1,0,0:0:0:0:
37,148,102401,6,0,B|13:203|13:203|104:167|165:218,1,206.25
204,144,102745,6,0,B|266:206|191:281|191:281|257:227|321:221,1,296.99999093628
340,222,103090,2,0,B|382:192|348:53|348:53|342:120|295:201,1,296.99999093628
238,249,103435,6,0,P|187:205|217:133,1,137.5
276,35,103780,1,0,0:0:0:0:
246,240,103952,1,0,0:0:0:0:
136,89,104125,1,0,0:0:0:0:
354,117,104297,1,0,0:0:0:0:
367,120,104383,1,0,0:0:0:0:
380,122,104470,1,0,0:0:0:0:
145,99,104642,1,0,0:0:0:0:
249,194,104814,5,0,0:0:0:0:
263,171,104901,1,0,0:0:0:0:
274,147,104987,1,0,0:0:0:0:
281,120,105073,1,0,0:0:0:0:
281,94,105159,1,0,0:0:0:0:
276,68,105245,1,0,0:0:0:0:
263,43,105332,1,0,0:0:0:0:
244,24,105418,1,0,0:0:0:0:
216,22,105504,6,0,L|136:7,1,68.75
43,113,105677,2,0,L|123:98,1,68.75
249,194,105849,2,0,L|169:179,1,68.75
79,285,106021,2,0,L|159:270,1,68.75
249,209,106194,5,0,0:0:0:0:
253,236,106280,1,0,0:0:0:0:
266,259,106366,1,0,0:0:0:0:
287,275,106452,1,0,0:0:0:0:
312,285,106539,2,0,L|402:267,3,68.75
287,312,106883,5,0,0:0:0:0:
316,88,107056,1,0,0:0:0:0:
316,88,107142,1,0,0:0:0:0:
316,88,107228,6,0,P|276:83|220:54,1,68.75
150,157,107401,6,0,P|191:136|247:172,1,79.7500024337769
324,198,107573,6,0,P|274:203|263:253,1,90.7500008654595
164,251,107745,6,0,L|187:319,2,68.75
114,88,108090,1,0,0:0:0:0:
177,258,108263,6,0,P|174:220|192:172,1,68.75
265,191,108435,6,0,P|256:154|224:128,1,55
114,88,108608,6,0,L|215:69,1,82.5000031471254
265,191,108952,6,0,L|193:172,1,55
111,94,109297,1,0,0:0:0:0:
172,265,109470,1,0,0:0:0:0:
278,107,109642,5,0,0:0:0:0:
103,171,109814,1,0,0:0:0:0:
90,177,109901,1,0,0:0:0:0:
77,181,109987,1,0,0:0:0:0:
172,265,110159,1,0,0:0:0:0:
269,23,110332,6,0,P|285:77|261:129,1,87.9999973144532,0|0,3:0|3:0,3:0:0:0:
254,126,110504,1,0,3:0:0:0:
231,112,110590,1,0,3:0:0:0:
202,92,110677,6,0,L|95:101,2,87.9999973144532,0|0|0,3:0|3:0|3:0,3:0:0:0:
62,35,111021,6,0,P|38:121|94:186,1,153.999995300293
269,23,111539,2,0,P|293:109|237:174,1,153.999995300293
160,96,112056,1,0,0:0:0:0:
207,343,112745,5,2,0:0:0:0:
199,308,113090,5,2,0:0:0:0:
193,275,113435,6,0,L|173:185,1,76.9999976501466
92,98,113780,6,0,B|72:114|72:114|96:124|96:124|71:140|71:140|81:159,1,76.9999976501466
261,236,114297,6,0,B|281:252|281:252|256:248|256:248|284:261|284:261|271:272,1,76.9999976501466
453,109,114814,6,0,B|436:99|436:99|458:120|458:120|430:106|430:106|446:126,1,76.9999976501466
433,107,115504,5,0,0:0:0:0:
423,132,115849,1,0,0:0:0:0:
415,156,116194,1,0,0:0:0:0:
407,181,116539,6,0,B|372:232|372:232|405:141|353:54,1,230.99999295044
438,280,117228,6,0,P|359:308|305:188,1,220
296,207,118263,5,0,0:0:0:0:
300,174,118608,1,0,0:0:0:0:
302,143,118780,6,0,P|261:135|255:242,1,153.999995300293
239,254,119297,6,0,B|211:251|167:264|167:264|193:280,2,76.9999976501466
373,229,119814,2,0,B|435:213|470:235|470:235|440:235|415:249|399:273,1,153.999995300293
263,285,120332,2,0,B|196:336|105:286|105:286|174:296|262:240,1,307.999990600586
373,229,121366,1,0,0:0:0:0:
154,193,121711,1,0,0:0:0:0:
248,124,121883,5,0,0:0:0:0:
373,229,122056,2,0,L|464:218,4,55
257,137,122573,2,0,L|166:126,4,55
413,119,123090,1,0,0:0:0:0:
264,149,123263,1,0,0:0:0:0:
369,241,123435,6,0,L|388:114,1,110
269,159,123780,1,0,0:0:0:0:
361,248,123952,1,0,0:0:0:0:
191,268,124125,1,0,0:0:0:0:
352,252,124297,1,0,0:0:0:0:
266,144,124470,1,0,0:0:0:0:
241,342,124642,1,0,0:0:0:0:
258,155,124814,6,0,P|216:181|231:75,1,220
337,74,125332,2,0,B|370:247|370:247|341:193,1,220
258,155,125849,6,0,L|190:172,3,55
349,208,126194,2,0,L|417:225,3,55
309,238,126539,1,0,0:0:0:0:
278,113,126711,1,0,0:0:0:0:
176,251,126884,1,0,0:0:0:0:
282,116,127056,2,0,B|302:109|326:85|326:85|275:163|287:209|290:228|320:246,1,220
371,174,127573,6,0,B|397:144|430:150|430:150|463:238|416:328,1,220
297,247,128090,2,0,P|191:279|74:230,1,220
162,72,128608,2,0,L|191:191,1,110
285,264,128952,5,0,0:0:0:0:
287,247,129039,1,0,0:0:0:0:
290,230,129125,1,0,0:0:0:0:
293,213,129211,1,0,0:0:0:0:
295,196,129297,5,0,0:0:0:0:
354,307,129470,1,0,0:0:0:0:
398,141,129642,1,0,0:0:0:0:
356,295,129814,1,0,0:0:0:0:
286,204,129987,2,0,L|152:216,1,110
81,75,130332,6,0,P|66:149|180:212,1,220
286,204,130849,2,0,B|334:171|389:174|389:174|328:165|274:152,1,220
163,229,131366,2,0,B|67:269|10:236|10:236|105:193,1,220
381,254,131826,6,0,L|401:350,2,73.3333333333333
300,132,132171,6,0,L|280:228,2,73.3333333333333
403,81,132516,5,0,0:0:0:0:
372,59,132631,5,0,0:0:0:0:
319,43,132746,5,0,0:0:0:0:
246,52,132860,5,0,0:0:0:0:
188,98,132976,5,0,0:0:0:0:
145,174,133090,5,0,0:0:0:0:
141,265,135159,5,2,0:0:0:0:
247,342,137573,5,2,0:0:0:0:
254,314,137918,5,2,0:0:0:0:
347,144,140677,5,2,0:0:0:0:
256,192,141366,12,0,143780,0:0:0:0:
388,100,144125,5,4,0:0:0:0:
384,112,144642,1,0,0:0:0:0:
380,124,145159,1,0,0:0:0:0:
144,312,145849,6,0,P|168:316|220:296,1,55
121,326,146194,6,0,P|145:330|201:306,1,82.5000031471254
119,365,146539,6,0,P|151:365|197:298,1,110
124,284,146883,5,4,0:0:0:0:
128,272,147400,1,0,0:0:0:0:
132,260,147917,1,0,0:0:0:0:
368,72,148608,6,0,P|344:68|292:88,1,55
391,58,148952,6,0,P|367:54|311:78,1,82.5000031471254
393,19,149297,6,0,P|361:19|315:86,1,110
