osu file format v14

[General]
AudioFilename: audio.mp3
AudioLeadIn: 0
PreviewTime: -1
Countdown: 0
SampleSet: Soft
StackLeniency: 0.2
Mode: 0
LetterboxInBreaks: 0
WidescreenStoryboard: 1

[Editor]
Bookmarks: 52707
DistanceSpacing: 2
BeatDivisor: 8
GridSize: 4
TimelineZoom: 1

[Metadata]
Title:fruit of the dance floor (feat. nicamoq)
TitleUnicode:「ダンスフロアの果実 (feat. nicamoq)」
Artist:Yunomi
ArtistUnicode:Yunomi
Creator:ii_william_ii
Version:dance!!
Source:
Tags:
BeatmapID:1826807
BeatmapSetID:873149

[Difficulty]
HPDrainRate:6.5
CircleSize:4
OverallDifficulty:8.5
ApproachRate:9
SliderMultiplier:2
SliderTickRate:1

[Events]
//Background and Video events
//Break Periods
2,18472,27064
2,29429,35933
2,49777,62020
2,66994,77672
//Storyboard Layer 0 (Background)
//Storyboard Layer 1 (Fail)
//Storyboard Layer 2 (Pass)
//Storyboard Layer 3 (Foreground)
//Storyboard Sound Samples

[TimingPoints]
4186,521.739130434783,4,2,0,45,1,0
12534,-66.6666666666667,4,2,0,60,0,0
29229,-60.6060606060606,4,2,0,70,0,0
45925,-74.0740740740741,4,2,0,60,0,0
54273,-64.5161290322581,4,2,0,75,0,0
58447,-57.1428571428571,4,2,0,80,0,0
60534,-100,4,2,0,70,0,0
62620,-50,4,2,0,90,0,1
65229,-58.8235294117647,4,2,0,90,0,1
65751,-66.6666666666667,4,2,0,90,0,1
66533,-50,4,2,0,90,0,1
79316,-400,4,2,0,90,0,1
79838,-47.6190476190476,4,2,0,90,0,1
87664,-250,4,2,0,90,0,1
88186,-142.857142857143,4,2,0,90,0,1
88707,-47.6190476190476,4,2,0,90,0,1
96012,-68.9655172413793,4,2,0,75,0,0
100186,-64.5161290322581,4,2,0,75,0,0
112707,-57.1428571428571,4,2,0,75,0,0
129403,-74.0740740740741,4,2,0,75,0,0
137751,-64.5161290322581,4,2,0,75,0,0
146099,-58.8235294117647,4,2,0,75,0,0
154446,-57.1428571428571,4,2,0,75,0,0
158620,-50,4,2,0,75,0,0
160707,-100,4,2,0,75,0,0
162794,-50,4,2,0,100,0,1
179490,-47.6190476190476,4,2,0,100,0,1
196186,-76.9230769230769,4,2,0,100,0,1
197229,-45.4545454545455,4,2,0,100,0,1
212881,-83.3333333333333,4,2,0,100,0,0

[HitObjects]
85,155,12533,5,0,0:0:0:0:
90,161,12794,2,0,L|160:133,1,75.0000028610231
301,97,13055,1,0,0:0:0:0:
301,97,13316,2,0,L|242:176,1,75.0000028610231
164,270,13577,1,0,0:0:0:0:
401,84,13838,1,0,0:0:0:0:
401,84,14099,2,0,B|434:129|434:129|395:212|395:212|292:183,1,225.000008583069
171,172,14620,1,0,0:0:0:0:
305,311,14881,5,0,0:0:0:0:
288,209,15142,1,0,0:0:0:0:
263,104,15403,1,0,0:0:0:0:
236,2,15664,2,0,L|106:91,1,150.000005722046
72,228,16186,5,0,0:0:0:0:
181,184,16316,1,0,0:0:0:0:
289,131,16446,1,0,0:0:0:0:
289,131,16707,1,0,0:0:0:0:
230,282,16968,5,0,0:0:0:0:
127,207,17099,1,0,0:0:0:0:
131,80,17229,1,0,0:0:0:0:
237,157,17490,5,0,0:0:0:0:
140,45,17620,1,0,0:0:0:0:
0,103,17751,1,0,0:0:0:0:
0,103,17816,1,0,0:0:0:0:
49,255,18012,6,0,P|63:215|97:206,1,75.0000028610231
137,299,18272,1,0,0:0:0:0:
327,275,27664,5,0,0:0:0:0:
356,231,27794,1,0,0:0:0:0:
363,189,27925,1,0,0:0:0:0:
346,130,28055,1,0,0:0:0:0:
293,83,28186,1,0,0:0:0:0:
220,72,28316,1,0,0:0:0:0:
145,126,28446,1,0,0:0:0:0:
143,224,28577,1,0,0:0:0:0:
201,295,28707,1,0,0:0:0:0:
320,284,28838,1,0,0:0:0:0:
364,176,28968,1,0,0:0:0:0:
293,83,29099,1,0,0:0:0:0:
252,191,29229,1,0,0:0:0:0:
206,130,36533,5,0,0:0:0:0:
206,130,36664,2,0,L|236:229,1,82.5000007867813
229,208,36925,1,0,0:0:0:0:
229,208,37055,2,0,L|261:295,1,82.5000007867813
257,286,37316,1,0,0:0:0:0:
327,80,37577,6,0,L|403:223,1,123.750001180172
430,261,37838,1,0,0:0:0:0:
220,45,38099,2,0,L|280:160,1,123.750001180172
322,228,38359,1,0,0:0:0:0:
187,177,38620,2,0,B|113:208|113:208|50:239|102:309|102:309|154:289,1,247.500002360344
322,228,39142,1,0,0:0:0:0:
122,204,39403,5,0,0:0:0:0:
218,51,39533,1,0,0:0:0:0:
218,51,39664,2,0,P|284:57|343:106,1,123.750001180172
386,226,39925,2,0,P|350:187|320:176,1,82.5000007867813
222,148,40186,1,0,0:0:0:0:
43,238,40316,1,0,0:0:0:0:
166,70,40446,1,0,0:0:0:0:
87,59,40707,6,0,L|120:300,1,206.250001966953
131,345,41099,1,0,0:0:0:0:
177,128,41229,2,0,P|140:74|81:59,1,123.750001180172
114,263,41490,1,0,0:0:0:0:
324,316,41751,5,0,0:0:0:0:
400,177,41881,1,0,0:0:0:0:
291,73,42012,1,0,0:0:0:0:
173,313,42272,2,0,L|257:190,1,123.750001180172
164,209,42533,1,0,0:0:0:0:
317,186,42664,1,0,0:0:0:0:
173,313,42794,1,0,0:0:0:0:
105,108,45925,6,0,L|112:191,1,67.5000002574921
224,190,46186,2,0,L|203:261,1,67.5000002574921
108,125,46446,2,0,L|115:208,1,67.5000002574921
220,209,46707,2,0,L|199:280,1,67.5000002574921
123,325,46968,5,0,0:0:0:0:
331,255,47229,1,0,0:0:0:0:
123,325,47490,1,0,0:0:0:0:
331,255,47751,1,0,0:0:0:0:
67,79,48012,6,0,P|88:51|137:67,1,67.5000002574921
145,90,48272,2,0,L|177:178,1,67.5000002574921
186,198,48533,2,0,P|213:224|247:224,1,67.5000002574921
186,198,48794,2,0,P|213:224|247:224,1,67.5000002574921
168,154,49055,5,0,0:0:0:0:
168,154,49186,1,0,0:0:0:0:
168,154,49577,1,0,0:0:0:0:
316,96,62620,5,0,0:0:0:0:
364,190,62881,2,0,L|236:153,1,100
210,221,63142,2,0,L|141:127,1,100
77,176,63403,2,0,L|44:67,1,100
210,221,63664,2,0,B|152:178|163:138|163:138|181:81|130:38,1,200
138,43,64186,1,0,0:0:0:0:
138,43,64446,2,0,L|174:131,2,50
210,221,64707,2,0,B|191:171|191:171|119:151|119:151|245:99|245:99|162:90|162:90|126:13,1,400
63,83,65359,2,0,L|-7:140,2,85.0000016212464
56,210,65751,2,0,L|76:179,2,37.5000014305115
157,282,66012,6,0,L|176:203,1,75.0000028610231
174,209,66272,2,0,L|157:282,2,75.0000028610231
174,209,66794,1,0,0:0:0:0:
70,151,78272,5,0,0:0:0:0:
70,151,78403,6,0,L|36:192,2,50
177,272,78664,2,0,L|188:220,2,50
88,297,79055,1,0,0:0:0:0:
88,297,79120,1,0,0:0:0:0:
88,297,79186,1,0,0:0:0:0:
88,297,79316,6,0,L|101:261,1,37.5
88,297,79838,2,0,L|169:96,1,209.999993591309
262,73,80229,1,0,0:0:0:0:
262,73,80294,1,0,0:0:0:0:
262,73,80359,2,0,L|183:285,1,209.999993591309
97,223,85055,6,0,P|42:198|32:149,1,104.999996795654
30,158,85316,2,0,L|206:263,1,157.499995193482
269,298,85577,5,0,0:0:0:0:
269,298,85838,2,0,L|281:171,1,104.999996795654
162,202,86099,6,0,P|107:177|97:128,1,104.999996795654
95,137,86359,2,0,L|271:237,1,157.499995193482
327,260,86620,1,0,0:0:0:0:
327,260,86751,2,0,L|371:226,2,52.4999983978272
281,162,87012,1,0,0:0:0:0:
281,162,87142,2,0,L|246:120,2,52.4999983978272
352,95,87403,2,0,P|323:42|303:77,1,104.999996795654
251,180,87664,6,0,P|276:155|281:169,1,60
344,241,88186,6,0,L|273:153,1,104.999996795654
212,76,88707,2,0,L|355:255,1,209.999993591309
