osu file format v14

[General]
AudioFilename: audio.mp3
AudioLeadIn: 0
PreviewTime: -1
Countdown: 0
SampleSet: None
StackLeniency: 0.7
Mode: 0
LetterboxInBreaks: 0
WidescreenStoryboard: 1

[Editor]
Bookmarks: 36892,48892
DistanceSpacing: 1.1
BeatDivisor: 4
GridSize: 4
TimelineZoom: 1

[Metadata]
Title:Yumeiro Parade
TitleUnicode:夢色パレード
Artist:Yunomi
ArtistUnicode:Yunomi
Creator:ItsKalesy
Version:
Source:
Tags:
BeatmapID:1575731
BeatmapSetID:747872

[Difficulty]
HPDrainRate:7
CircleSize:4
OverallDifficulty:8
ApproachRate:9.4
SliderMultiplier:1.6
SliderTickRate:1

[Events]
//Background and Video events
0,0,"download.png",0,0
//Break Periods
//Storyboard Layer 0 (Background)
//Storyboard Layer 1 (Fail)
//Storyboard Layer 2 (Pass)
//Storyboard Layer 3 (Foreground)
//Storyboard Sound Samples

[TimingPoints]
3893,374.998159509202,4,1,0,60,1,0
12892,-66.6666666666667,4,1,0,60,0,0
14955,-100,4,1,0,60,0,0
24330,-66.6666666666667,4,1,0,60,0,0

[Colours]
Combo1 : 0,0,160
Combo2 : 255,9,15
Combo3 : 84,203,78
Combo4 : 227,253,252
Combo5 : 0,128,255

[HitObjects]
100,148,893,6,0,B|172:112|172:112|256:148,1,160
252,248,1643,1,0,0:0:0:0:
392,84,3143,1,0,0:0:0:0:
104,312,4642,1,0,0:0:0:0:
380,312,6142,1,0,0:0:0:0:
252,140,7267,6,0,P|312:164|328:184,2,80
104,96,9142,1,0,0:0:0:0:
144,252,10267,2,0,P|196:284|216:288,2,80
164,96,11392,1,0,0:0:0:0:
167,63,11486,1,0,0:0:0:0:
189,40,11579,1,0,0:0:0:0:
221,38,11673,1,0,0:0:0:0:
248,56,11767,1,0,0:0:0:0:
268,92,11861,1,0,0:0:0:0:
304,112,11955,1,0,0:0:0:0:
344,116,12049,1,0,0:0:0:0:
372,136,12142,2,0,L|380:180,1,40
308,320,12892,6,0,B|196:284|260:200|132:140,1,240.000009155274
96,80,13455,2,0,P|176:64|224:100,1,120.000004577637
152,140,13830,1,0,0:0:0:0:
220,192,14017,1,0,0:0:0:0:
140,224,14205,1,0,0:0:0:0:
152,136,14392,2,0,B|232:112|232:112|312:144,1,120.000004577637
220,208,14767,1,0,0:0:0:0:
316,208,14955,2,0,P|296:160|252:120,1,80
332,80,15330,1,0,0:0:0:0:
424,84,15517,1,0,0:0:0:0:
356,160,15705,2,0,B|336:208|336:208|272:224,1,80
396,316,16267,5,0,0:0:0:0:
304,328,16454,1,0,0:0:0:0:
360,248,16642,2,0,P|320:204|268:192,2,80
280,272,17205,2,0,P|193:267|177:283,1,80
228,336,17580,1,0,0:0:0:0:
256,184,17767,1,0,0:0:0:0:
372,296,17955,1,0,0:0:0:0:
372,296,18330,1,0,0:0:0:0:
256,184,18518,1,0,0:0:0:0:
232,336,18705,1,0,0:0:0:0:
100,192,19267,5,0,0:0:0:0:
84,100,19642,2,0,B|188:108|188:108|228:140,1,120
240,152,20017,2,0,B|328:206|328:206|399:198,1,160
228,248,20767,1,0,0:0:0:0:
104,176,21142,1,0,0:0:0:0:
228,112,21517,1,0,0:0:0:0:
228,112,21892,1,0,0:0:0:0:
192,168,22267,2,0,B|268:192|268:192|312:264,1,160
208,272,22830,5,0,0:0:0:0:
80,228,23017,1,0,0:0:0:0:
200,132,23205,2,0,B|280:160|280:160|328:232,1,160
208,256,23955,1,0,0:0:0:0:
152,112,24330,2,0,L|160:180,1,60.0000022888184
228,152,24517,2,0,L|240:216,1,60.0000022888184
308,192,24705,2,0,L|328:256,1,60.0000022888184
320,256,24892,2,0,L|184:272,1,120.000004577637
144,232,25267,5,0,0:0:0:0:
84,76,25455,1,0,0:0:0:0:
220,224,25642,5,0,0:0:0:0:
219,56,25830,1,0,0:0:0:0:
272,224,26017,5,0,0:0:0:0:
326,65,26205,1,0,0:0:0:0:
335,266,26392,5,0,0:0:0:0:
442,137,26580,1,0,0:0:0:0:
440,272,26767,5,0,0:0:0:0:
256,168,26955,1,0,0:0:0:0:
452,200,27142,5,0,0:0:0:0:
246,249,27330,1,0,0:0:0:0:
420,96,27517,5,0,0:0:0:0:
302,272,27705,1,0,0:0:0:0:
240,68,27892,2,0,L|264:128,1,60.0000022888184
144,264,28080,2,0,L|224:244,1,60.0000022888184
136,80,28267,2,0,L|192:136,1,60.0000022888184
72,212,28455,2,0,L|156:180,1,60.0000022888184
224,180,28642,2,0,B|284:244|284:244|328:236,1,120.000004577637
384,72,29017,5,0,0:0:0:0:
348,268,29205,1,0,0:0:0:0:
216,76,29392,5,0,0:0:0:0:
235,274,29580,1,0,0:0:0:0:
72,92,29767,5,0,0:0:0:0:
135,280,29955,1,0,0:0:0:0:
160,152,30142,2,0,L|232:176,1,60.0000022888184
304,96,30517,2,0,B|364:172|364:172|336:216,1,120.000004577637
248,176,30892,2,0,B|208:220|208:220|252:276,1,120.000004577637
372,280,31267,5,0,0:0:0:0:
392,108,31455,1,0,0:0:0:0:
248,176,31642,2,0,B|208:220|208:220|252:276,1,120.000004577637
312,224,32017,2,0,B|356:280|356:280|284:360,1,120.000004577637
192,316,32392,5,0,0:0:0:0:
188,132,32580,1,0,0:0:0:0:
100,328,32767,5,0,0:0:0:0:
56,144,32955,1,0,0:0:0:0:
