osu file format v14

[General]
AudioFilename: audio.ogg
AudioLeadIn: 0
PreviewTime: 108051
Countdown: 0
SampleSet: Normal
StackLeniency: 0.7
Mode: 1
LetterboxInBreaks: 0
WidescreenStoryboard: 0

[Editor]
DistanceSpacing: 1
BeatDivisor: 4
GridSize: 8
TimelineZoom: 2.200001

[Metadata]
Title:Yume de Mata Aetaranaa (feat. nicamoq)
TitleUnicode:夢でまたあえたらなあ (feat. nicamoq)
Artist:Yunomi
ArtistUnicode:Yunomi
Creator:komasy
Version:Oni
Source:
Tags:Electronic Japanese electropop J-POP J POP JPOP Kawaii EDM 守崎風花 Morisaki Fuka Fuuka ゆのみっくにお茶して yunomic ni ocha shite EP ゆのもきゅ Yunomoq
BeatmapID:1434280
BeatmapSetID:678312

[Difficulty]
HPDrainRate:5.5
CircleSize:7
OverallDifficulty:5.4
ApproachRate:10
SliderMultiplier:1.4
SliderTickRate:1

[Events]
//Background and Video events
0,0,"bg.jpg",0,-90
//Break Periods
2,122505,125980
//Storyboard Layer 0 (Background)
//Storyboard Layer 1 (Fail)
//Storyboard Layer 2 (Pass)
//Storyboard Layer 3 (Foreground)
//Storyboard Layer 4 (Overlay)
//Storyboard Sound Samples

[TimingPoints]
430,375,4,1,0,60,1,0
430,-100,4,1,0,60,0,0
6406,-100,4,1,0,70,0,0
12430,-100,4,1,0,90,0,1
24336,-100,4,1,0,70,0,1
24430,-100,4,1,0,70,0,0
36383,-100,4,1,0,80,0,0
46906,-100,4,1,0,80,0,0
47281,-100,4,1,0,80,0,0
47656,-100,4,1,0,80,0,0
48031,-100,4,1,0,80,0,0
48406,-100,4,1,0,60,0,0
52930,-100,4,1,0,70,0,0
54336,-100,4,1,0,80,0,0
57406,-100,4,1,0,80,0,0
57594,-100,4,1,0,80,0,0
57781,-100,4,1,0,80,0,0
57969,-100,4,1,0,80,0,0
58062,-100,4,1,0,80,0,0
58156,-100,4,1,0,80,0,0
58344,-100,4,1,0,80,0,0
58531,-100,4,1,0,80,0,0
58719,-100,4,1,0,80,0,0
59094,-100,4,1,0,80,0,0
59469,-100,4,1,0,80,0,0
59656,-100,4,1,0,50,0,0
59750,-100,4,1,0,50,0,0
59844,-100,4,1,0,50,0,0
60031,-100,4,1,0,70,0,0
60406,-100,4,1,0,70,0,0
60430,-100,4,1,0,100,0,1
72055,-100,4,1,0,70,0,0
72406,-100,4,1,0,90,0,0
72430,-100,4,1,0,90,0,1
84406,-100,4,1,0,60,0,1
84430,-100,4,1,0,60,0,0
88719,-100,4,1,0,70,0,0
102406,-100,4,1,0,80,0,0
107094,-100,4,1,0,60,0,0
107656,-100,4,1,0,50,0,0
108031,-100,4,1,0,80,0,0
108406,-100,4,1,0,100,0,0
108430,-100,4,1,0,100,0,1
119648,-100,4,1,0,80,0,1
120398,-100,4,1,0,30,0,1
120430,-100,4,1,0,30,0,0
120805,-100,4,1,0,20,0,0
121180,-100,4,1,0,10,0,0
126336,-100,4,1,0,50,0,0
132406,-100,4,1,0,60,0,0
142906,-100,4,1,0,30,0,0
144406,-100,4,1,0,60,0,0
148930,-100,4,1,0,70,0,0
155586,-100,4,1,0,5,0,0
156406,-100,4,1,0,30,0,0
157531,-100,4,1,0,70,0,0
157906,-100,4,1,0,80,0,0
163836,-100,4,1,0,90,0,0
163930,-100,4,1,0,90,0,1
169648,-100,4,1,0,70,0,1
169930,-100,4,1,0,70,0,0
170656,-100,4,1,0,100,0,0
170680,-100,4,1,0,100,0,1
181836,-100,4,1,0,40,0,1
181930,-100,4,1,0,40,0,0
192219,-100,4,1,0,30,0,0

[HitObjects]
352,96,430,5,8,0:0:0:0:
352,96,805,5,8,0:0:0:0:
352,96,1180,5,8,0:0:0:0:
352,96,1555,5,8,0:0:0:0:
352,96,1742,5,8,0:0:0:0:
352,96,2117,5,8,0:0:0:0:
352,96,2492,5,8,0:0:0:0:
352,96,2867,5,8,0:0:0:0:
352,96,3055,5,8,0:0:0:0:
352,96,3430,5,8,0:0:0:0:
352,96,3805,5,8,0:0:0:0:
352,96,4180,5,8,0:0:0:0:
352,96,4555,5,8,0:0:0:0:
352,96,4742,5,8,0:0:0:0:
352,96,5117,5,8,0:0:0:0:
352,96,5492,5,8,0:0:0:0:
352,96,5680,5,8,0:0:0:0:
352,96,5867,5,8,0:0:0:0:
160,96,6055,5,0,0:0:0:0:
352,96,6430,5,8,0:0:0:0:
160,96,6711,5,0,0:0:0:0:
352,96,6805,5,8,0:0:0:0:
160,96,6992,5,0,0:0:0:0:
352,96,7180,5,8,0:0:0:0:
352,96,7555,5,8,0:0:0:0:
160,96,7742,5,0,0:0:0:0:
352,96,7930,5,8,0:0:0:0:
160,96,8211,5,0,0:0:0:0:
352,96,8305,5,8,0:0:0:0:
160,96,8492,5,0,0:0:0:0:
352,96,8680,5,8,0:0:0:0:
160,96,8773,5,0,0:0:0:0:
160,96,8961,5,0,0:0:0:0:
352,96,9055,5,8,0:0:0:0:
352,96,9430,5,8,0:0:0:0:
352,96,9523,5,8,0:0:0:0:
160,96,9617,5,0,0:0:0:0:
352,96,9805,5,8,0:0:0:0:
160,96,9992,5,0,0:0:0:0:
352,96,10086,5,8,0:0:0:0:
160,96,10180,5,0,0:0:0:0:
160,96,10273,5,0,0:0:0:0:
352,96,10367,5,8,0:0:0:0:
160,96,10555,5,0,0:0:0:0:
352,288,10742,5,12,0:0:0:0:
352,288,11117,5,12,0:0:0:0:
352,288,11492,5,12,0:0:0:0:
160,96,11680,5,0,0:0:0:0:
352,288,12055,5,12,0:0:0:0:
160,288,12430,5,4,0:0:0:0:
160,96,12805,5,0,0:0:0:0:
352,96,12992,5,8,0:0:0:0:
160,96,13180,5,0,0:0:0:0:
352,96,13367,5,8,0:0:0:0:
160,96,13461,5,0,0:0:0:0:
352,96,13555,5,8,0:0:0:0:
160,96,13742,5,0,0:0:0:0:
160,96,13930,5,0,0:0:0:0:
352,96,14117,5,8,0:0:0:0:
352,96,14492,5,8,0:0:0:0:
160,96,14680,5,0,0:0:0:0:
160,96,14961,5,0,0:0:0:0:
352,96,15055,5,8,0:0:0:0:
160,96,15242,5,0,0:0:0:0:
160,96,15430,5,0,0:0:0:0:
160,96,15805,5,0,0:0:0:0:
352,96,15992,5,8,0:0:0:0:
160,96,16180,5,0,0:0:0:0:
352,96,16367,5,8,0:0:0:0:
160,96,16461,5,0,0:0:0:0:
160,96,16555,5,0,0:0:0:0:
352,96,16742,5,8,0:0:0:0:
160,96,16930,5,0,0:0:0:0:
352,96,17117,5,8,0:0:0:0:
352,96,17492,5,8,0:0:0:0:
160,96,17680,5,0,0:0:0:0:
160,96,17961,5,0,0:0:0:0:
352,96,18055,5,8,0:0:0:0:
352,96,18242,5,8,0:0:0:0:
352,96,18336,5,8,0:0:0:0:
160,96,18430,5,0,0:0:0:0:
160,96,18805,5,0,0:0:0:0:
352,96,18992,5,8,0:0:0:0:
160,96,19180,5,0,0:0:0:0:
352,96,19367,5,8,0:0:0:0:
160,96,19461,5,0,0:0:0:0:
352,96,19555,5,8,0:0:0:0:
160,96,19742,5,0,0:0:0:0:
160,96,19930,5,0,0:0:0:0:
352,96,20117,5,8,0:0:0:0:
352,96,20492,5,8,0:0:0:0:
160,96,20680,5,0,0:0:0:0:
160,96,20961,5,0,0:0:0:0:
352,96,21055,5,8,0:0:0:0:
160,96,21242,5,0,0:0:0:0:
160,96,21430,5,0,0:0:0:0:
352,96,21805,5,8,0:0:0:0:
160,96,21992,5,0,0:0:0:0:
352,96,22180,5,8,0:0:0:0:
352,96,22367,5,8,0:0:0:0:
352,96,22461,5,8,0:0:0:0:
160,96,22555,5,0,0:0:0:0:
352,288,22742,5,12,0:0:0:0:
352,288,23117,5,12,0:0:0:0:
352,288,23492,5,12,0:0:0:0:
160,288,23680,5,4,0:0:0:0:
352,288,24055,5,12,0:0:0:0:
160,288,24430,5,4,0:0:0:0:
160,96,24992,5,0,0:0:0:0:
352,96,25180,5,8,0:0:0:0:
352,96,25555,5,8,0:0:0:0:
160,96,25742,5,0,0:0:0:0:
352,96,25930,5,8,0:0:0:0:
352,96,26117,5,8,0:0:0:0:
160,96,26305,5,0,0:0:0:0:
352,96,26492,5,8,0:0:0:0:
160,96,26680,5,0,0:0:0:0:
352,96,26961,5,8,0:0:0:0:
352,96,27242,5,8,0:0:0:0:
160,96,27430,5,0,0:0:0:0:
160,96,27805,5,0,0:0:0:0:
160,96,27992,5,0,0:0:0:0:
352,96,28180,5,8,0:0:0:0:
352,96,28555,5,8,0:0:0:0:
352,96,28742,5,8,0:0:0:0:
160,96,28930,5,0,0:0:0:0:
352,96,29117,5,8,0:0:0:0:
352,96,29305,5,8,0:0:0:0:
352,96,29492,5,8,0:0:0:0:
160,96,29680,5,0,0:0:0:0:
160,96,29961,5,0,0:0:0:0:
352,96,30055,5,8,0:0:0:0:
352,96,30242,5,8,0:0:0:0:
352,96,30336,5,8,0:0:0:0:
160,96,30430,5,0,0:0:0:0:
160,96,30992,5,0,0:0:0:0:
352,96,31180,5,8,0:0:0:0:
352,96,31555,5,8,0:0:0:0:
160,96,31742,5,0,0:0:0:0:
352,96,31930,5,8,0:0:0:0:
352,96,32117,5,8,0:0:0:0:
160,96,32305,5,0,0:0:0:0:
160,96,32680,5,0,0:0:0:0:
160,96,32961,5,0,0:0:0:0:
352,96,33055,5,8,0:0:0:0:
160,96,33242,5,0,0:0:0:0:
352,288,33430,5,12,0:0:0:0:
352,96,33805,5,8,0:0:0:0:
160,96,33992,5,0,0:0:0:0:
352,288,34180,5,12,0:0:0:0:
352,96,34555,5,8,0:0:0:0:
160,96,34742,5,0,0:0:0:0:
352,96,34930,5,8,0:0:0:0:
352,96,35211,5,8,0:0:0:0:
160,96,35305,5,0,0:0:0:0:
352,96,35492,5,8,0:0:0:0:
160,96,35680,5,0,0:0:0:0:
352,96,35867,5,8,0:0:0:0:
352,96,35961,5,8,0:0:0:0:
352,96,36055,5,8,0:0:0:0:
352,96,36242,5,8,0:0:0:0:
160,288,36430,5,4,0:0:0:0:
160,96,36805,5,0,0:0:0:0:
352,96,36992,5,8,0:0:0:0:
160,96,37180,5,0,0:0:0:0:
160,96,37555,5,0,0:0:0:0:
352,96,37742,5,8,0:0:0:0:
160,96,37930,5,0,0:0:0:0:
352,96,38023,5,8,0:0:0:0:
352,96,38211,5,8,0:0:0:0:
160,96,38305,5,0,0:0:0:0:
352,96,38492,5,8,0:0:0:0:
160,96,38680,5,0,0:0:0:0:
160,96,38961,5,0,0:0:0:0:
352,96,39055,5,8,0:0:0:0:
160,96,39242,5,0,0:0:0:0:
160,96,39430,5,0,0:0:0:0:
160,96,39805,5,0,0:0:0:0:
352,96,39992,5,8,0:0:0:0:
160,96,40180,5,0,0:0:0:0:
160,96,40555,5,0,0:0:0:0:
352,96,40742,5,8,0:0:0:0:
160,96,40930,5,0,0:0:0:0:
352,96,41117,5,8,0:0:0:0:
352,96,41211,5,8,0:0:0:0:
160,96,41305,5,0,0:0:0:0:
352,96,41492,5,8,0:0:0:0:
160,96,41680,5,0,0:0:0:0:
160,96,41961,5,0,0:0:0:0:
352,96,42055,5,8,0:0:0:0:
352,96,42242,5,8,0:0:0:0:
160,288,42430,5,4,0:0:0:0:
160,96,42805,5,0,0:0:0:0:
352,96,42992,5,8,0:0:0:0:
160,96,43180,5,0,0:0:0:0:
160,96,43555,5,0,0:0:0:0:
352,96,43742,5,8,0:0:0:0:
160,96,43930,5,0,0:0:0:0:
352,96,44023,5,8,0:0:0:0:
352,96,44211,5,8,0:0:0:0:
160,96,44305,5,0,0:0:0:0:
352,96,44492,5,8,0:0:0:0:
160,96,44680,5,0,0:0:0:0:
352,96,44867,5,8,0:0:0:0:
160,96,44961,5,0,0:0:0:0:
352,96,45055,5,8,0:0:0:0:
160,96,45242,5,0,0:0:0:0:
352,288,45430,5,12,0:0:0:0:
352,96,45805,5,8,0:0:0:0:
160,96,45992,5,0,0:0:0:0:
352,288,46180,5,12,0:0:0:0:
352,96,46555,5,8,0:0:0:0:
160,96,46742,5,0,0:0:0:0:
352,288,46930,5,12,0:0:0:0:
160,288,47305,5,4,0:0:0:0:
352,288,47680,5,12,0:0:0:0:
160,96,48055,5,0,0:0:0:0:
352,288,48430,5,12,0:0:0:0:
352,96,48805,5,8,0:0:0:0:
352,96,49180,5,8,0:0:0:0:
352,96,49555,5,8,0:0:0:0:
352,96,49742,5,8,0:0:0:0:
352,96,50117,5,8,0:0:0:0:
352,96,50492,5,8,0:0:0:0:
352,96,50867,5,8,0:0:0:0:
352,96,51055,5,8,0:0:0:0:
352,96,51430,5,8,0:0:0:0:
352,96,51805,5,8,0:0:0:0:
352,96,52180,5,8,0:0:0:0:
352,96,52555,5,8,0:0:0:0:
352,96,52742,5,8,0:0:0:0:
160,96,53117,5,0,0:0:0:0:
352,96,53492,5,8,0:0:0:0:
160,96,53586,5,0,0:0:0:0:
160,96,53680,5,0,0:0:0:0:
352,96,53867,5,8,0:0:0:0:
160,96,53961,5,0,0:0:0:0:
352,96,54055,5,8,0:0:0:0:
352,96,54430,5,8,0:0:0:0:
160,96,54711,5,0,0:0:0:0:
352,96,54805,5,8,0:0:0:0:
160,96,54992,5,0,0:0:0:0:
352,96,55180,5,8,0:0:0:0:
352,96,55555,5,8,0:0:0:0:
160,96,55742,5,0,0:0:0:0:
352,96,55930,5,8,0:0:0:0:
160,96,56211,5,0,0:0:0:0:
352,96,56305,5,8,0:0:0:0:
160,96,56492,5,0,0:0:0:0:
352,96,56680,5,8,0:0:0:0:
160,96,56773,5,0,0:0:0:0:
160,96,56961,5,0,0:0:0:0:
352,96,57055,5,8,0:0:0:0:
352,96,57242,5,8,0:0:0:0:
160,96,57430,5,0,0:0:0:0:
160,96,57617,5,0,0:0:0:0:
352,96,57805,5,8,0:0:0:0:
160,96,57992,5,0,0:0:0:0:
160,96,58086,5,0,0:0:0:0:
352,96,58180,5,8,0:0:0:0:
352,96,58367,5,8,0:0:0:0:
160,96,58555,5,0,0:0:0:0:
352,288,58742,5,12,0:0:0:0:
160,288,59117,5,4,0:0:0:0:
352,288,59492,5,12,0:0:0:0:
352,288,60055,5,12,0:0:0:0:
160,288,60430,5,4,0:0:0:0:
352,96,60805,5,8,0:0:0:0:
160,96,60992,5,0,0:0:0:0:
352,96,61180,5,8,0:0:0:0:
160,96,61461,5,0,0:0:0:0:
352,96,61555,5,8,0:0:0:0:
160,96,61742,5,0,0:0:0:0:
352,96,61930,5,8,0:0:0:0:
160,96,62117,5,0,0:0:0:0:
160,96,62211,5,0,0:0:0:0:
352,96,62305,5,8,0:0:0:0:
160,96,62492,5,0,0:0:0:0:
352,96,62680,5,8,0:0:0:0:
160,96,62867,5,0,0:0:0:0:
352,96,62961,5,8,0:0:0:0:
160,96,63055,5,0,0:0:0:0:
352,96,63242,5,8,0:0:0:0:
160,96,63430,5,0,0:0:0:0:
352,96,63805,5,8,0:0:0:0:
160,96,63992,5,0,0:0:0:0:
352,96,64180,5,8,0:0:0:0:
160,96,64461,5,0,0:0:0:0:
352,96,64555,5,8,0:0:0:0:
160,96,64742,5,0,0:0:0:0:
352,96,64930,5,8,0:0:0:0:
160,96,65117,5,0,0:0:0:0:
160,96,65211,5,0,0:0:0:0:
352,96,65305,5,8,0:0:0:0:
160,96,65492,5,0,0:0:0:0:
352,96,65680,5,8,0:0:0:0:
160,96,65867,5,0,0:0:0:0:
352,96,65961,5,8,0:0:0:0:
160,96,66055,5,0,0:0:0:0:
160,96,66148,5,0,0:0:0:0:
352,96,66242,5,8,0:0:0:0:
160,288,66430,5,4,0:0:0:0:
352,96,66805,5,8,0:0:0:0:
160,96,66992,5,0,0:0:0:0:
352,96,67180,5,8,0:0:0:0:
160,96,67461,5,0,0:0:0:0:
352,96,67555,5,8,0:0:0:0:
160,96,67742,5,0,0:0:0:0:
352,96,67930,5,8,0:0:0:0:
160,96,68117,5,0,0:0:0:0:
160,96,68211,5,0,0:0:0:0:
352,96,68305,5,8,0:0:0:0:
160,96,68492,5,0,0:0:0:0:
352,96,68680,5,8,0:0:0:0:
160,96,68867,5,0,0:0:0:0:
352,96,68961,5,8,0:0:0:0:
160,96,69055,5,0,0:0:0:0:
352,96,69242,5,8,0:0:0:0:
352,96,69336,5,8,0:0:0:0:
160,96,69430,5,0,0:0:0:0:
352,96,69805,5,8,0:0:0:0:
160,96,69992,5,0,0:0:0:0:
352,96,70180,5,8,0:0:0:0:
160,96,70555,5,0,0:0:0:0:
352,288,70742,5,12,0:0:0:0:
352,288,71117,5,12,0:0:0:0:
352,288,71492,5,12,0:0:0:0:
160,288,71680,5,4,0:0:0:0:
352,288,72055,5,12,0:0:0:0:
160,288,72430,5,4,0:0:0:0:
160,96,72992,5,0,0:0:0:0:
352,96,73180,5,8,0:0:0:0:
352,96,73367,5,8,0:0:0:0:
352,96,73461,5,8,0:0:0:0:
160,96,73555,5,0,0:0:0:0:
160,96,73742,5,0,0:0:0:0:
352,96,74117,5,8,0:0:0:0:
160,96,74492,5,0,0:0:0:0:
160,96,74586,5,0,0:0:0:0:
352,96,74680,5,8,0:0:0:0:
160,96,75055,5,0,0:0:0:0:
160,96,75430,5,0,0:0:0:0:
352,96,75805,5,8,0:0:0:0:
160,96,75992,5,0,0:0:0:0:
352,96,76180,5,8,0:0:0:0:
352,96,76367,5,8,0:0:0:0:
352,96,76461,5,8,0:0:0:0:
160,96,76555,5,0,0:0:0:0:
352,96,76742,5,8,0:0:0:0:
352,96,77117,5,8,0:0:0:0:
160,96,77492,5,0,0:0:0:0:
160,96,77586,5,0,0:0:0:0:
352,96,77680,5,8,0:0:0:0:
160,96,78055,5,0,0:0:0:0:
160,288,78430,5,4,0:0:0:0:
160,96,78992,5,0,0:0:0:0:
352,96,79180,5,8,0:0:0:0:
352,96,79367,5,8,0:0:0:0:
352,96,79461,5,8,0:0:0:0:
160,96,79555,5,0,0:0:0:0:
160,96,79742,5,0,0:0:0:0:
352,96,80117,5,8,0:0:0:0:
160,96,80492,5,0,0:0:0:0:
160,96,80586,5,0,0:0:0:0:
352,96,80680,5,8,0:0:0:0:
160,96,81055,5,0,0:0:0:0:
160,96,81430,5,0,0:0:0:0:
352,96,81805,5,8,0:0:0:0:
160,96,81992,5,0,0:0:0:0:
352,96,82180,5,8,0:0:0:0:
352,96,82367,5,8,0:0:0:0:
352,96,82461,5,8,0:0:0:0:
160,96,82555,5,0,0:0:0:0:
352,288,82742,5,12,0:0:0:0:
352,288,83117,5,12,0:0:0:0:
352,288,83492,5,12,0:0:0:0:
160,288,83680,5,4,0:0:0:0:
352,96,83961,5,8,0:0:0:0:
160,96,84055,5,0,0:0:0:0:
160,96,84242,5,0,0:0:0:0:
352,96,84430,5,8,0:0:0:0:
352,96,84711,5,8,0:0:0:0:
352,96,84805,5,8,0:0:0:0:
352,96,84992,5,8,0:0:0:0:
160,96,85180,5,0,0:0:0:0:
352,96,85367,5,8,0:0:0:0:
352,96,85555,5,8,0:0:0:0:
352,96,85930,5,8,0:0:0:0:
160,96,86211,5,0,0:0:0:0:
160,96,86305,5,0,0:0:0:0:
352,96,86492,5,8,0:0:0:0:
160,96,86680,5,0,0:0:0:0:
352,96,86867,5,8,0:0:0:0:
352,96,87055,5,8,0:0:0:0:
352,96,87430,5,8,0:0:0:0:
352,96,87711,5,8,0:0:0:0:
352,96,87805,5,8,0:0:0:0:
352,96,87992,5,8,0:0:0:0:
160,96,88180,5,0,0:0:0:0:
352,96,88367,5,8,0:0:0:0:
352,96,88555,5,8,0:0:0:0:
160,96,88742,5,0,0:0:0:0:
160,96,89117,5,0,0:0:0:0:
160,96,89492,5,0,0:0:0:0:
160,96,89680,5,0,0:0:0:0:
352,96,90055,5,8,0:0:0:0:
160,288,90430,5,4,0:0:0:0:
160,96,90805,5,0,0:0:0:0:
352,96,90992,5,8,0:0:0:0:
160,96,91180,5,0,0:0:0:0:
160,96,91555,5,0,0:0:0:0:
352,96,91742,5,8,0:0:0:0:
160,96,91930,5,0,0:0:0:0:
352,96,92023,5,8,0:0:0:0:
352,96,92211,5,8,0:0:0:0:
160,96,92305,5,0,0:0:0:0:
352,96,92492,5,8,0:0:0:0:
160,96,92680,5,0,0:0:0:0:
352,96,92867,5,8,0:0:0:0:
160,96,92961,5,0,0:0:0:0:
160,96,93055,5,0,0:0:0:0:
160,96,93242,5,0,0:0:0:0:
352,288,93430,5,12,0:0:0:0:
352,96,93805,5,8,0:0:0:0:
160,96,93992,5,0,0:0:0:0:
352,288,94180,5,12,0:0:0:0:
352,96,94555,5,8,0:0:0:0:
160,96,94742,5,0,0:0:0:0:
352,96,94930,5,12,0:0:0:0:
352,96,95211,5,8,0:0:0:0:
160,96,95305,5,0,0:0:0:0:
352,96,95492,5,8,0:0:0:0:
160,96,95680,5,0,0:0:0:0:
352,96,95805,5,8,0:0:0:0:
352,96,95930,5,8,0:0:0:0:
160,96,96055,5,0,0:0:0:0:
160,288,96430,5,4,0:0:0:0:
352,96,96805,5,8,0:0:0:0:
160,96,97180,5,0,0:0:0:0:
352,96,97555,5,8,0:0:0:0:
160,96,97742,5,0,0:0:0:0:
352,96,97930,5,8,0:0:0:0:
160,96,98117,5,0,0:0:0:0:
160,96,98492,5,0,0:0:0:0:
352,96,98680,5,8,0:0:0:0:
160,96,98961,5,8,0:0:0:0:
160,96,99055,5,0,0:0:0:0:
160,96,99242,5,8,0:0:0:0:
160,96,99430,5,0,0:0:0:0:
352,96,99805,5,8,0:0:0:0:
160,96,100180,5,0,0:0:0:0:
352,96,100367,5,8,0:0:0:0:
160,96,100555,5,0,0:0:0:0:
160,96,100930,5,0,0:0:0:0:
352,96,101117,5,8,0:0:0:0:
160,96,101305,5,0,0:0:0:0:
352,96,101492,5,8,0:0:0:0:
160,96,101586,5,0,0:0:0:0:
160,96,101680,5,0,0:0:0:0:
352,96,101867,5,8,0:0:0:0:
160,96,101961,5,0,0:0:0:0:
352,96,102055,5,8,0:0:0:0:
160,96,102430,5,0,0:0:0:0:
160,96,102617,5,0,0:0:0:0:
352,96,102805,5,8,0:0:0:0:
352,96,102992,5,8,0:0:0:0:
160,96,103180,5,0,0:0:0:0:
160,96,103367,5,0,0:0:0:0:
352,96,103555,5,8,0:0:0:0:
160,96,103742,5,0,0:0:0:0:
160,96,103836,5,0,0:0:0:0:
352,96,103930,5,8,0:0:0:0:
352,96,104117,5,8,0:0:0:0:
160,96,104305,5,0,0:0:0:0:
160,96,104492,5,0,0:0:0:0:
352,96,104680,5,8,0:0:0:0:
352,96,104867,5,8,0:0:0:0:
160,96,105055,5,0,0:0:0:0:
352,96,105242,5,8,0:0:0:0:
352,96,105336,5,8,0:0:0:0:
160,96,105430,5,0,0:0:0:0:
160,96,105523,5,0,0:0:0:0:
160,96,105617,5,0,0:0:0:0:
352,96,105805,5,8,0:0:0:0:
160,96,105992,5,0,0:0:0:0:
160,96,106086,5,0,0:0:0:0:
352,96,106180,5,8,0:0:0:0:
352,96,106367,5,8,0:0:0:0:
160,96,106555,5,0,0:0:0:0:
352,288,106742,5,12,0:0:0:0:
160,96,107117,5,0,0:0:0:0:
352,96,107211,5,8,0:0:0:0:
352,96,107305,5,8,0:0:0:0:
352,96,107492,5,8,0:0:0:0:
160,96,107680,5,0,0:0:0:0:
352,96,107867,5,8,0:0:0:0:
352,288,108055,5,12,0:0:0:0:
160,288,108430,5,4,0:0:0:0:
160,96,108805,5,0,0:0:0:0:
352,96,108992,5,8,0:0:0:0:
160,96,109180,5,0,0:0:0:0:
352,96,109367,5,8,0:0:0:0:
160,96,109461,5,0,0:0:0:0:
160,96,109742,5,0,0:0:0:0:
352,96,109930,5,8,0:0:0:0:
160,96,110117,5,0,0:0:0:0:
160,96,110211,5,0,0:0:0:0:
352,96,110305,5,8,0:0:0:0:
160,96,110492,5,0,0:0:0:0:
352,96,110680,5,8,0:0:0:0:
160,96,110867,5,0,0:0:0:0:
352,96,110961,5,8,0:0:0:0:
160,96,111055,5,0,0:0:0:0:
352,96,111242,5,8,0:0:0:0:
160,96,111430,5,0,0:0:0:0:
160,96,111617,5,0,0:0:0:0:
352,96,111805,5,8,0:0:0:0:
160,96,112180,5,0,0:0:0:0:
352,96,112367,5,8,0:0:0:0:
160,96,112461,5,0,0:0:0:0:
352,96,112742,5,8,0:0:0:0:
160,96,112930,5,0,0:0:0:0:
352,96,113117,5,8,0:0:0:0:
352,96,113211,5,8,0:0:0:0:
160,96,113305,5,0,0:0:0:0:
352,96,113492,5,8,0:0:0:0:
160,96,113680,5,0,0:0:0:0:
160,96,113961,5,0,0:0:0:0:
352,96,114055,5,8,0:0:0:0:
352,96,114242,5,8,0:0:0:0:
352,96,114336,5,8,0:0:0:0:
160,96,114430,5,0,0:0:0:0:
160,96,114805,5,0,0:0:0:0:
352,96,114992,5,8,0:0:0:0:
160,96,115180,5,0,0:0:0:0:
352,96,115367,5,8,0:0:0:0:
160,96,115461,5,0,0:0:0:0:
160,96,115742,5,0,0:0:0:0:
352,96,115930,5,8,0:0:0:0:
160,96,116117,5,0,0:0:0:0:
160,96,116211,5,0,0:0:0:0:
352,96,116305,5,8,0:0:0:0:
160,96,116492,5,0,0:0:0:0:
352,96,116680,5,8,0:0:0:0:
160,96,116867,5,0,0:0:0:0:
352,96,116961,5,8,0:0:0:0:
160,96,117055,5,0,0:0:0:0:
352,96,117242,5,8,0:0:0:0:
352,96,117336,5,8,0:0:0:0:
160,96,117430,5,0,0:0:0:0:
352,96,117805,5,8,0:0:0:0:
160,96,117992,5,0,0:0:0:0:
352,96,118180,5,8,0:0:0:0:
160,96,118555,5,0,0:0:0:0:
352,288,118742,5,12,0:0:0:0:
352,288,119117,5,12,0:0:0:0:
352,288,119492,5,12,0:0:0:0:
160,96,119680,5,0,0:0:0:0:
352,96,119805,5,8,0:0:0:0:
352,96,119930,5,8,0:0:0:0:
352,96,120055,5,8,0:0:0:0:
352,96,120180,5,8,0:0:0:0:
352,96,120305,5,8,0:0:0:0:
256,192,120430,12,0,122305,0:0:0:0:
352,96,126430,5,8,0:0:0:0:
352,96,126992,5,8,0:0:0:0:
352,96,127180,5,8,0:0:0:0:
352,96,127367,5,8,0:0:0:0:
352,96,127742,5,8,0:0:0:0:
352,96,128117,5,8,0:0:0:0:
352,96,128305,5,8,0:0:0:0:
352,96,128492,5,8,0:0:0:0:
352,96,128680,5,8,0:0:0:0:
352,96,129430,5,8,0:0:0:0:
352,96,129992,5,8,0:0:0:0:
352,96,130180,5,8,0:0:0:0:
352,96,130367,5,8,0:0:0:0:
352,96,130742,5,8,0:0:0:0:
352,96,131117,5,8,0:0:0:0:
352,96,131305,5,8,0:0:0:0:
352,96,131492,5,8,0:0:0:0:
352,96,131680,5,8,0:0:0:0:
352,96,131867,5,8,0:0:0:0:
352,96,132055,5,8,0:0:0:0:
160,96,132430,5,0,0:0:0:0:
160,96,132992,5,0,0:0:0:0:
352,96,133180,5,8,0:0:0:0:
160,96,133555,5,0,0:0:0:0:
160,96,133742,5,0,0:0:0:0:
352,96,133930,5,8,0:0:0:0:
352,96,134305,5,8,0:0:0:0:
160,96,134492,5,0,0:0:0:0:
160,96,134680,5,0,0:0:0:0:
352,96,135055,5,8,0:0:0:0:
352,96,135242,5,8,0:0:0:0:
160,96,135430,5,0,0:0:0:0:
160,96,135805,5,0,0:0:0:0:
160,96,135992,5,0,0:0:0:0:
352,96,136180,5,8,0:0:0:0:
160,96,136367,5,0,0:0:0:0:
352,96,136555,5,8,0:0:0:0:
352,96,136742,5,8,0:0:0:0:
160,96,136930,5,0,0:0:0:0:
352,96,137305,5,8,0:0:0:0:
352,96,137492,5,8,0:0:0:0:
160,96,137680,5,0,0:0:0:0:
352,96,137867,5,8,0:0:0:0:
352,96,138055,5,8,0:0:0:0:
352,96,138148,5,8,0:0:0:0:
352,96,138242,5,8,0:0:0:0:
160,96,138430,5,0,0:0:0:0:
160,96,138992,5,0,0:0:0:0:
352,96,139180,5,8,0:0:0:0:
352,96,139555,5,8,0:0:0:0:
160,96,139742,5,0,0:0:0:0:
352,96,139930,5,8,0:0:0:0:
352,96,140117,5,8,0:0:0:0:
160,96,140305,5,0,0:0:0:0:
160,96,140680,5,0,0:0:0:0:
352,96,141055,5,8,0:0:0:0:
160,96,141242,5,0,0:0:0:0:
352,96,141430,5,8,0:0:0:0:
352,96,141805,5,8,0:0:0:0:
160,96,141992,5,0,0:0:0:0:
352,96,142180,5,8,0:0:0:0:
352,96,142555,5,8,0:0:0:0:
160,96,142742,5,0,0:0:0:0:
352,96,142930,5,8,0:0:0:0:
352,96,143305,5,8,0:0:0:0:
352,96,143680,5,8,0:0:0:0:
352,288,144430,5,12,0:0:0:0:
352,96,144805,5,8,0:0:0:0:
352,96,145180,5,8,0:0:0:0:
352,96,145555,5,8,0:0:0:0:
352,96,145742,5,8,0:0:0:0:
352,96,146117,5,8,0:0:0:0:
352,96,146492,5,8,0:0:0:0:
352,96,146867,5,8,0:0:0:0:
352,96,147055,5,8,0:0:0:0:
352,96,147430,5,8,0:0:0:0:
352,96,147805,5,8,0:0:0:0:
352,96,148180,5,8,0:0:0:0:
352,96,148555,5,8,0:0:0:0:
352,96,148742,5,8,0:0:0:0:
160,96,149117,5,0,0:0:0:0:
352,96,149492,5,8,0:0:0:0:
160,96,149586,5,0,0:0:0:0:
160,96,149680,5,0,0:0:0:0:
352,96,149867,5,8,0:0:0:0:
160,96,149961,5,0,0:0:0:0:
352,96,150055,5,8,0:0:0:0:
352,96,150430,5,8,0:0:0:0:
160,96,150711,5,0,0:0:0:0:
352,96,150805,5,8,0:0:0:0:
160,96,150992,5,0,0:0:0:0:
352,96,151180,5,8,0:0:0:0:
352,96,151555,5,8,0:0:0:0:
160,96,151742,5,0,0:0:0:0:
352,96,151930,5,8,0:0:0:0:
160,96,152211,5,0,0:0:0:0:
352,96,152305,5,8,0:0:0:0:
160,96,152492,5,0,0:0:0:0:
352,96,152680,5,8,0:0:0:0:
160,96,152773,5,0,0:0:0:0:
160,96,152961,5,0,0:0:0:0:
352,96,153055,5,8,0:0:0:0:
352,96,153242,5,8,0:0:0:0:
160,96,153430,5,0,0:0:0:0:
160,96,153617,5,0,0:0:0:0:
352,96,153805,5,8,0:0:0:0:
160,96,153992,5,0,0:0:0:0:
160,96,154086,5,0,0:0:0:0:
352,96,154180,5,8,0:0:0:0:
352,96,154367,5,8,0:0:0:0:
160,96,154555,5,0,0:0:0:0:
352,288,154742,5,12,0:0:0:0:
160,288,155117,5,4,0:0:0:0:
352,288,155492,5,12,0:0:0:0:
352,96,156430,5,8,0:0:0:0:
352,96,156523,5,8,0:0:0:0:
160,96,156617,5,0,0:0:0:0:
352,96,156805,5,8,0:0:0:0:
160,96,157180,5,0,0:0:0:0:
160,96,157367,5,0,0:0:0:0:
352,288,157555,5,12,0:0:0:0:
160,288,157930,5,4,0:0:0:0:
352,96,158211,5,8,0:0:0:0:
160,96,158305,5,0,0:0:0:0:
160,96,158492,5,0,0:0:0:0:
352,288,158680,5,12,0:0:0:0:
352,96,158961,5,8,0:0:0:0:
352,96,159055,5,8,0:0:0:0:
160,288,159242,5,4,0:0:0:0:
160,288,159617,5,4,0:0:0:0:
160,288,159992,5,4,0:0:0:0:
352,96,160180,5,8,0:0:0:0:
160,96,160273,5,0,0:0:0:0:
160,96,160367,5,0,0:0:0:0:
352,288,160555,5,12,0:0:0:0:
160,288,160930,5,4,0:0:0:0:
352,96,161305,5,8,0:0:0:0:
160,96,161492,5,0,0:0:0:0:
352,96,161680,5,8,0:0:0:0:
352,96,161867,5,8,0:0:0:0:
160,96,161961,5,0,0:0:0:0:
352,96,162242,5,12,0:0:0:0:
352,96,162617,5,8,0:0:0:0:
352,96,162711,5,8,0:0:0:0:
352,96,162898,5,8,0:0:0:0:
352,96,162992,5,8,0:0:0:0:
352,96,163086,5,8,0:0:0:0:
160,96,163180,5,8,0:0:0:0:
352,288,163555,5,12,0:0:0:0:
160,288,163930,5,4,0:0:0:0:
352,96,164305,5,8,0:0:0:0:
160,96,164492,5,0,0:0:0:0:
352,96,164680,5,8,0:0:0:0:
160,96,164961,5,0,0:0:0:0:
352,96,165055,5,8,0:0:0:0:
160,96,165242,5,0,0:0:0:0:
352,96,165430,5,8,0:0:0:0:
160,96,165617,5,0,0:0:0:0:
160,96,165711,5,0,0:0:0:0:
352,96,165805,5,8,0:0:0:0:
160,96,165992,5,0,0:0:0:0:
352,96,166180,5,8,0:0:0:0:
160,96,166367,5,0,0:0:0:0:
352,96,166461,5,8,0:0:0:0:
160,96,166555,5,0,0:0:0:0:
352,96,166742,5,8,0:0:0:0:
352,96,166836,5,8,0:0:0:0:
160,96,166930,5,0,0:0:0:0:
352,96,167305,5,8,0:0:0:0:
160,96,167492,5,0,0:0:0:0:
352,96,167680,5,8,0:0:0:0:
352,96,168055,5,8,0:0:0:0:
160,288,168242,5,4,0:0:0:0:
160,96,168617,5,0,0:0:0:0:
160,96,168711,5,0,0:0:0:0:
160,96,168805,5,0,0:0:0:0:
160,96,168992,5,0,0:0:0:0:
160,96,169086,5,0,0:0:0:0:
352,96,169180,5,8,0:0:0:0:
160,96,169367,5,0,0:0:0:0:
352,288,169555,5,12,0:0:0:0:
160,96,170211,5,0,0:0:0:0:
352,96,170305,5,8,0:0:0:0:
352,96,170492,5,0,0:0:0:0:
160,288,170680,5,12,0:0:0:0:
352,96,170867,5,8,0:0:0:0:
160,96,170961,5,0,0:0:0:0:
160,96,171242,5,0,0:0:0:0:
352,96,171430,5,8,0:0:0:0:
160,96,171617,5,0,0:0:0:0:
160,96,171711,5,0,0:0:0:0:
352,96,171805,5,8,0:0:0:0:
160,96,171992,5,0,0:0:0:0:
352,96,172180,5,8,0:0:0:0:
160,96,172367,5,0,0:0:0:0:
352,96,172461,5,8,0:0:0:0:
160,96,172555,5,0,0:0:0:0:
352,96,172742,5,8,0:0:0:0:
160,96,172930,5,0,0:0:0:0:
160,96,173117,5,0,0:0:0:0:
352,96,173305,5,8,0:0:0:0:
160,96,173680,5,0,0:0:0:0:
352,96,173867,5,8,0:0:0:0:
160,96,173961,5,0,0:0:0:0:
352,96,174242,5,8,0:0:0:0:
160,96,174430,5,0,0:0:0:0:
352,96,174617,5,8,0:0:0:0:
352,96,174711,5,8,0:0:0:0:
160,96,174805,5,0,0:0:0:0:
352,96,174992,5,8,0:0:0:0:
160,96,175180,5,0,0:0:0:0:
160,96,175461,5,0,0:0:0:0:
352,96,175555,5,8,0:0:0:0:
352,96,175742,5,8,0:0:0:0:
352,96,175836,5,8,0:0:0:0:
160,96,175930,5,0,0:0:0:0:
352,96,176305,5,8,0:0:0:0:
160,96,176492,5,0,0:0:0:0:
352,96,176680,5,8,0:0:0:0:
352,96,176867,5,8,0:0:0:0:
160,96,176961,5,0,0:0:0:0:
160,96,177242,5,0,0:0:0:0:
352,96,177430,5,8,0:0:0:0:
160,96,177617,5,0,0:0:0:0:
160,96,177711,5,0,0:0:0:0:
352,96,177805,5,8,0:0:0:0:
160,96,177992,5,0,0:0:0:0:
352,96,178180,5,8,0:0:0:0:
160,96,178367,5,0,0:0:0:0:
352,96,178461,5,8,0:0:0:0:
160,96,178556,5,0,0:0:0:0:
160,96,178648,5,0,0:0:0:0:
352,96,178742,5,8,0:0:0:0:
160,288,178930,5,4,0:0:0:0:
160,288,179680,5,4,0:0:0:0:
352,288,180242,5,12,0:0:0:0:
352,288,180617,5,12,0:0:0:0:
352,288,180992,5,12,0:0:0:0:
352,96,181930,5,8,0:0:0:0:
352,96,182305,5,8,0:0:0:0:
352,96,182492,5,8,0:0:0:0:
352,96,182680,5,8,0:0:0:0:
352,96,182867,5,8,0:0:0:0:
352,96,182961,5,8,0:0:0:0:
352,96,183055,5,8,0:0:0:0:
352,96,183242,5,8,0:0:0:0:
352,96,183617,5,8,0:0:0:0:
352,96,183992,5,8,0:0:0:0:
352,96,184180,5,8,0:0:0:0:
352,96,184367,5,8,0:0:0:0:
352,96,184461,5,8,0:0:0:0:
352,96,184555,5,8,0:0:0:0:
352,96,184648,5,8,0:0:0:0:
352,96,184742,5,8,0:0:0:0:
352,96,184930,5,8,0:0:0:0:
352,96,185305,5,8,0:0:0:0:
352,96,185492,5,8,0:0:0:0:
352,96,185680,5,8,0:0:0:0:
352,96,185867,5,8,0:0:0:0:
352,96,185961,5,8,0:0:0:0:
352,96,186055,5,8,0:0:0:0:
352,96,186242,5,8,0:0:0:0:
352,96,186617,5,8,0:0:0:0:
352,96,186992,5,8,0:0:0:0:
352,96,187180,5,8,0:0:0:0:
352,96,187367,5,8,0:0:0:0:
352,96,187461,5,8,0:0:0:0:
352,96,187555,5,8,0:0:0:0:
352,96,187648,5,8,0:0:0:0:
352,96,187742,5,8,0:0:0:0:
352,96,187930,5,8,0:0:0:0:
352,96,188305,5,8,0:0:0:0:
352,96,188492,5,8,0:0:0:0:
352,96,188680,5,8,0:0:0:0:
352,96,188867,5,8,0:0:0:0:
352,96,188961,5,8,0:0:0:0:
352,96,189055,5,8,0:0:0:0:
352,96,189242,5,8,0:0:0:0:
352,96,189617,5,8,0:0:0:0:
352,96,189992,5,8,0:0:0:0:
352,96,190180,5,8,0:0:0:0:
352,96,190367,5,8,0:0:0:0:
352,96,190461,5,8,0:0:0:0:
352,96,190555,5,8,0:0:0:0:
352,96,190648,5,8,0:0:0:0:
352,96,190742,5,8,0:0:0:0:
352,96,190930,5,8,0:0:0:0:
352,96,191305,5,8,0:0:0:0:
352,96,191492,5,8,0:0:0:0:
352,96,191680,5,8,0:0:0:0:
352,96,191867,5,8,0:0:0:0:
352,96,191961,5,8,0:0:0:0:
352,96,192055,5,8,0:0:0:0:
352,96,192242,5,8,0:0:0:0:
352,96,192617,5,8,0:0:0:0:
352,96,192992,5,8,0:0:0:0:
352,96,193180,5,8,0:0:0:0:
