osu file format v14

[General]
AudioFilename: audio.ogg
AudioLeadIn: 0
PreviewTime: 108051
Countdown: 0
SampleSet: Normal
StackLeniency: 0.7
Mode: 1
LetterboxInBreaks: 0
WidescreenStoryboard: 0

[Editor]
DistanceSpacing: 1
BeatDivisor: 2
GridSize: 8
TimelineZoom: 0.6000009

[Metadata]
Title:Yume de Mata Aetaranaa (feat. nicamoq)
TitleUnicode:夢でまたあえたらなあ (feat. nicamoq)
Artist:Yunomi
ArtistUnicode:Yunomi
Creator:komasy
Version:Kantan
Source:
Tags:Electronic Japanese electropop J-POP J POP JPOP Kawaii EDM 守崎風花 Morisaki Fuka Fuuka ゆのみっくにお茶して yunomic ni ocha shite EP ゆのもきゅ Yunomoq
BeatmapID:3956815
BeatmapSetID:678312

[Difficulty]
HPDrainRate:8
CircleSize:7
OverallDifficulty:3
ApproachRate:10
SliderMultiplier:1.4
SliderTickRate:1

[Events]
//Background and Video events
0,0,"bg.jpg",0,-90
//Break Periods
2,122505,125980
//Storyboard Layer 0 (Background)
//Storyboard Layer 1 (Fail)
//Storyboard Layer 2 (Pass)
//Storyboard Layer 3 (Foreground)
//Storyboard Layer 4 (Overlay)
//Storyboard Sound Samples

[TimingPoints]
430,375,4,1,0,60,1,0
430,-100,4,1,0,60,0,0
6406,-100,4,1,0,70,0,0
12430,-100,4,1,0,90,0,1
24336,-100,4,1,0,70,0,1
24430,-100,4,1,0,70,0,0
36383,-100,4,1,0,80,0,0
48406,-100,4,1,0,60,0,0
52930,-100,4,1,0,70,0,0
54336,-100,4,1,0,80,0,0
59656,-100,4,1,0,50,0,0
60031,-100,4,1,0,70,0,0
60430,-100,4,1,0,100,0,1
72055,-100,4,1,0,70,0,0
72406,-100,4,1,0,90,0,0
72430,-100,4,1,0,90,0,1
84406,-100,4,1,0,60,0,1
84430,-100,4,1,0,60,0,0
88719,-100,4,1,0,70,0,0
102406,-100,4,1,0,80,0,0
107094,-100,4,1,0,60,0,0
107656,-100,4,1,0,50,0,0
108031,-100,4,1,0,80,0,0
108406,-100,4,1,0,100,0,0
108430,-100,4,1,0,100,0,1
119648,-100,4,1,0,80,0,1
120398,-100,4,1,0,30,0,1
120430,-100,4,1,0,30,0,0
120805,-100,4,1,0,20,0,0
121180,-100,4,1,0,10,0,0
126336,-100,4,1,0,50,0,0
132406,-100,4,1,0,60,0,0
142906,-100,4,1,0,30,0,0
144406,-100,4,1,0,60,0,0
148930,-100,4,1,0,70,0,0
155586,-100,4,1,0,5,0,0
156406,-100,4,1,0,30,0,0
157531,-100,4,1,0,70,0,0
157906,-100,4,1,0,80,0,0
163836,-100,4,1,0,90,0,0
163930,-100,4,1,0,90,0,1
169648,-100,4,1,0,70,0,1
169930,-100,4,1,0,70,0,0
170656,-100,4,1,0,100,0,0
170680,-100,4,1,0,100,0,1
181836,-100,4,1,0,40,0,1
181930,-100,4,1,0,40,0,0
192219,-100,4,1,0,30,0,0

[HitObjects]
352,96,430,5,8,0:0:0:0:
352,96,1742,5,8,0:0:0:0:
352,96,2117,5,8,0:0:0:0:
352,96,2680,5,8,0:0:0:0:
352,96,3430,5,8,0:0:0:0:
352,96,4742,5,8,0:0:0:0:
352,96,5117,5,8,0:0:0:0:
352,96,5680,5,8,0:0:0:0:
160,96,6430,5,0,0:0:0:0:
160,96,7180,5,0,0:0:0:0:
352,96,7930,5,8,0:0:0:0:
160,96,8305,5,0,0:0:0:0:
352,96,8680,5,8,0:0:0:0:
160,96,9430,5,0,0:0:0:0:
352,96,9805,5,8,0:0:0:0:
160,96,10180,5,0,0:0:0:0:
352,288,10742,5,12,0:0:0:0:
352,288,11117,5,12,0:0:0:0:
352,288,11492,5,12,0:0:0:0:
352,96,12055,5,8,0:0:0:0:
160,288,12430,5,4,0:0:0:0:
160,96,13742,5,0,0:0:0:0:
352,96,14117,5,8,0:0:0:0:
160,96,14680,5,0,0:0:0:0:
160,96,15430,5,0,0:0:0:0:
352,96,16180,5,8,0:0:0:0:
352,96,16742,5,8,0:0:0:0:
160,96,17117,5,0,0:0:0:0:
352,96,17680,5,8,0:0:0:0:
160,288,18430,5,4,0:0:0:0:
160,96,19742,5,0,0:0:0:0:
352,96,20117,5,8,0:0:0:0:
160,96,20680,5,0,0:0:0:0:
160,96,21430,5,0,0:0:0:0:
352,96,22180,5,8,0:0:0:0:
352,288,22742,5,12,0:0:0:0:
352,288,23117,5,12,0:0:0:0:
352,288,23492,5,12,0:0:0:0:
352,96,24055,5,8,0:0:0:0:
160,288,24430,5,4,0:0:0:0:
352,96,25930,5,8,0:0:0:0:
160,96,26305,5,0,0:0:0:0:
160,96,26680,5,0,0:0:0:0:
352,96,27430,5,8,0:0:0:0:
160,96,28180,5,0,0:0:0:0:
352,96,28930,5,8,0:0:0:0:
160,96,29305,5,0,0:0:0:0:
352,96,29680,5,8,0:0:0:0:
160,288,30430,5,4,0:0:0:0:
352,96,31930,5,8,0:0:0:0:
160,96,32305,5,0,0:0:0:0:
160,96,32680,5,0,0:0:0:0:
352,288,33430,5,12,0:0:0:0:
352,288,34180,5,12,0:0:0:0:
352,288,34930,5,12,0:0:0:0:
352,288,35305,5,12,0:0:0:0:
352,288,35680,5,12,0:0:0:0:
160,288,36430,5,4,0:0:0:0:
160,96,37555,5,0,0:0:0:0:
352,96,37930,5,8,0:0:0:0:
160,96,38305,5,0,0:0:0:0:
160,96,38680,5,0,0:0:0:0:
352,96,39430,5,8,0:0:0:0:
160,96,40180,5,0,0:0:0:0:
352,96,40930,5,8,0:0:0:0:
160,96,41305,5,0,0:0:0:0:
352,96,41680,5,8,0:0:0:0:
160,288,42430,5,4,0:0:0:0:
160,96,43555,5,0,0:0:0:0:
352,96,43930,5,8,0:0:0:0:
160,96,44305,5,0,0:0:0:0:
160,96,44680,5,0,0:0:0:0:
352,288,45430,5,12,0:0:0:0:
352,288,46180,5,12,0:0:0:0:
352,288,46930,5,12,0:0:0:0:
352,288,47305,5,12,0:0:0:0:
352,288,47680,5,12,0:0:0:0:
160,96,48430,5,0,0:0:0:0:
352,96,49930,5,8,0:0:0:0:
160,96,50305,5,0,0:0:0:0:
352,96,50680,5,8,0:0:0:0:
160,96,51430,5,0,0:0:0:0:
352,96,52930,5,8,0:0:0:0:
160,96,53305,5,0,0:0:0:0:
160,96,53680,5,0,0:0:0:0:
352,96,54430,5,8,0:0:0:0:
160,96,55180,5,0,0:0:0:0:
352,96,55930,5,8,0:0:0:0:
160,96,56305,5,0,0:0:0:0:
352,96,56680,5,8,0:0:0:0:
160,96,57430,5,0,0:0:0:0:
352,96,57805,5,8,0:0:0:0:
160,96,58180,5,0,0:0:0:0:
352,288,58742,5,12,0:0:0:0:
352,288,59117,5,12,0:0:0:0:
352,288,59492,5,12,0:0:0:0:
352,96,60055,5,8,0:0:0:0:
160,288,60430,5,4,0:0:0:0:
352,96,61180,5,8,0:0:0:0:
160,96,62305,5,0,0:0:0:0:
352,96,62680,5,8,0:0:0:0:
160,96,63430,5,0,0:0:0:0:
352,96,63805,5,8,0:0:0:0:
160,96,64180,5,0,0:0:0:0:
352,96,64742,5,8,0:0:0:0:
160,96,65305,5,0,0:0:0:0:
352,96,65680,5,8,0:0:0:0:
160,288,66430,5,4,0:0:0:0:
352,96,67180,5,8,0:0:0:0:
160,96,68305,5,0,0:0:0:0:
352,96,68680,5,8,0:0:0:0:
352,96,69055,5,8,0:0:0:0:
160,96,69430,5,0,0:0:0:0:
352,96,70180,5,8,0:0:0:0:
352,288,70742,5,12,0:0:0:0:
352,288,71117,5,12,0:0:0:0:
352,288,71492,5,12,0:0:0:0:
352,96,72055,5,8,0:0:0:0:
160,288,72430,5,4,0:0:0:0:
352,96,73180,5,8,0:0:0:0:
160,96,73742,5,0,0:0:0:0:
352,96,74680,5,8,0:0:0:0:
160,96,75430,5,0,0:0:0:0:
352,96,76180,5,8,0:0:0:0:
352,96,76742,5,8,0:0:0:0:
160,96,77117,5,0,0:0:0:0:
352,96,77680,5,8,0:0:0:0:
160,288,78430,5,4,0:0:0:0:
352,96,79180,5,8,0:0:0:0:
160,96,80117,5,0,0:0:0:0:
352,96,80680,5,8,0:0:0:0:
160,96,81430,5,0,0:0:0:0:
352,96,82180,5,8,0:0:0:0:
352,288,82742,5,12,0:0:0:0:
352,288,83117,5,12,0:0:0:0:
352,288,83492,5,12,0:0:0:0:
352,96,84055,5,8,0:0:0:0:
160,96,84430,5,0,0:0:0:0:
352,96,85930,5,8,0:0:0:0:
352,96,86680,5,8,0:0:0:0:
352,96,87430,5,8,0:0:0:0:
352,96,88742,5,8,0:0:0:0:
352,96,89117,5,8,0:0:0:0:
352,96,89492,5,8,0:0:0:0:
352,96,90055,5,8,0:0:0:0:
160,288,90430,5,4,0:0:0:0:
352,96,91930,5,8,0:0:0:0:
160,96,92305,5,0,0:0:0:0:
160,96,92680,5,0,0:0:0:0:
352,288,93430,5,12,0:0:0:0:
352,288,94180,5,12,0:0:0:0:
352,288,94930,5,12,0:0:0:0:
352,288,95305,5,12,0:0:0:0:
352,288,95680,5,12,0:0:0:0:
160,288,96430,5,4,0:0:0:0:
160,96,97930,5,0,0:0:0:0:
160,96,98305,5,0,0:0:0:0:
352,96,98680,5,8,0:0:0:0:
160,96,99430,5,0,0:0:0:0:
160,96,100180,5,0,0:0:0:0:
352,96,100930,5,8,0:0:0:0:
160,96,101305,5,0,0:0:0:0:
160,96,101680,5,0,0:0:0:0:
160,96,102430,5,0,0:0:0:0:
352,96,103555,5,8,0:0:0:0:
160,96,103930,5,0,0:0:0:0:
160,96,104305,5,0,0:0:0:0:
352,96,104680,5,8,0:0:0:0:
160,96,105430,5,0,0:0:0:0:
352,96,105805,5,8,0:0:0:0:
160,96,106180,5,0,0:0:0:0:
352,96,106742,5,8,0:0:0:0:
352,96,107117,5,8,0:0:0:0:
352,96,107492,5,8,0:0:0:0:
352,96,108055,5,8,0:0:0:0:
160,288,108430,5,4,0:0:0:0:
352,96,109180,5,8,0:0:0:0:
160,96,110305,5,0,0:0:0:0:
352,96,110680,5,8,0:0:0:0:
160,96,111430,5,0,0:0:0:0:
352,96,111805,5,8,0:0:0:0:
160,96,112180,5,0,0:0:0:0:
352,96,112742,5,8,0:0:0:0:
160,96,113305,5,0,0:0:0:0:
352,96,113680,5,8,0:0:0:0:
160,288,114430,5,4,0:0:0:0:
352,96,115180,5,8,0:0:0:0:
160,96,116305,5,0,0:0:0:0:
352,96,116680,5,8,0:0:0:0:
352,96,117055,5,8,0:0:0:0:
160,96,117430,5,0,0:0:0:0:
352,96,118180,5,8,0:0:0:0:
352,288,118742,5,12,0:0:0:0:
352,288,119117,5,12,0:0:0:0:
352,288,119492,5,12,0:0:0:0:
256,192,120430,12,0,122305,0:0:0:0:
352,96,126430,5,8,0:0:0:0:
352,96,127930,5,8,0:0:0:0:
352,96,128680,5,8,0:0:0:0:
352,96,129430,5,8,0:0:0:0:
352,96,130930,5,8,0:0:0:0:
352,96,131680,5,8,0:0:0:0:
160,96,132430,5,0,0:0:0:0:
352,96,133180,5,8,0:0:0:0:
352,96,134680,5,8,0:0:0:0:
352,96,135055,5,8,0:0:0:0:
160,96,135430,5,0,0:0:0:0:
352,96,136180,5,8,0:0:0:0:
352,96,137680,5,8,0:0:0:0:
352,96,138055,5,8,0:0:0:0:
160,96,138430,5,0,0:0:0:0:
352,96,139180,5,8,0:0:0:0:
352,96,140680,5,8,0:0:0:0:
352,96,141055,5,8,0:0:0:0:
160,96,141430,5,0,0:0:0:0:
352,96,142180,5,8,0:0:0:0:
160,288,144430,5,4,0:0:0:0:
352,96,145930,5,8,0:0:0:0:
160,96,146305,5,0,0:0:0:0:
352,96,146680,5,8,0:0:0:0:
160,96,147430,5,0,0:0:0:0:
352,96,148930,5,8,0:0:0:0:
160,96,149305,5,0,0:0:0:0:
160,96,149680,5,0,0:0:0:0:
352,96,150430,5,8,0:0:0:0:
160,96,151180,5,0,0:0:0:0:
352,96,151930,5,8,0:0:0:0:
160,96,152305,5,0,0:0:0:0:
352,96,152680,5,8,0:0:0:0:
160,96,153430,5,0,0:0:0:0:
352,96,153805,5,8,0:0:0:0:
160,96,154180,5,0,0:0:0:0:
352,288,154742,5,12,0:0:0:0:
352,288,155117,5,12,0:0:0:0:
352,288,155492,5,12,0:0:0:0:
352,96,157555,5,8,0:0:0:0:
160,288,157930,5,4,0:0:0:0:
352,288,158680,5,12,0:0:0:0:
160,288,159242,5,4,0:0:0:0:
160,288,159617,5,4,0:0:0:0:
160,288,159992,5,4,0:0:0:0:
352,96,160555,5,8,0:0:0:0:
160,288,160930,5,4,0:0:0:0:
352,96,161680,5,8,0:0:0:0:
160,288,162242,5,4,0:0:0:0:
352,96,163555,5,8,0:0:0:0:
160,288,163930,5,4,0:0:0:0:
352,96,164680,5,8,0:0:0:0:
160,96,165242,5,0,0:0:0:0:
160,96,165805,5,0,0:0:0:0:
352,96,166180,5,8,0:0:0:0:
352,96,166555,5,8,0:0:0:0:
160,96,166930,5,0,0:0:0:0:
352,96,167680,5,8,0:0:0:0:
160,288,168242,5,4,0:0:0:0:
160,288,168617,5,4,0:0:0:0:
160,288,168992,5,4,0:0:0:0:
352,288,169555,5,12,0:0:0:0:
352,288,170680,5,12,0:0:0:0:
160,96,171242,5,0,0:0:0:0:
160,96,171805,5,0,0:0:0:0:
352,96,172180,5,8,0:0:0:0:
160,96,172930,5,0,0:0:0:0:
352,96,173305,5,8,0:0:0:0:
160,96,173680,5,0,0:0:0:0:
352,96,174242,5,8,0:0:0:0:
160,96,174805,5,0,0:0:0:0:
352,96,175180,5,8,0:0:0:0:
160,288,175930,5,4,0:0:0:0:
352,96,176680,5,8,0:0:0:0:
160,96,177805,5,0,0:0:0:0:
352,96,178180,5,8,0:0:0:0:
352,96,178556,5,8,0:0:0:0:
160,288,178930,5,4,0:0:0:0:
160,288,179680,5,4,0:0:0:0:
352,288,180242,5,12,0:0:0:0:
352,288,180617,5,12,0:0:0:0:
352,288,180992,5,12,0:0:0:0:
352,96,181930,5,8,0:0:0:0:
352,96,183242,5,8,0:0:0:0:
352,96,183617,5,8,0:0:0:0:
352,96,184180,5,8,0:0:0:0:
352,96,184930,5,8,0:0:0:0:
352,96,185680,5,8,0:0:0:0:
352,96,186242,5,8,0:0:0:0:
352,96,186617,5,8,0:0:0:0:
352,96,187180,5,8,0:0:0:0:
352,96,187930,5,8,0:0:0:0:
352,96,189242,5,8,0:0:0:0:
352,96,189617,5,8,0:0:0:0:
352,96,190180,5,8,0:0:0:0:
352,96,190930,5,8,0:0:0:0:
352,96,191680,5,8,0:0:0:0:
352,96,192242,5,8,0:0:0:0:
352,96,192617,5,8,0:0:0:0:
352,96,193180,5,8,0:0:0:0:
