osu file format v14

[General]
AudioFilename: audio.mp3
AudioLeadIn: 0
PreviewTime: 67563
Countdown: 0
SampleSet: Soft
StackLeniency: 0.4
Mode: 0
LetterboxInBreaks: 0
WidescreenStoryboard: 1

[Editor]
Bookmarks: 69114,163942
DistanceSpacing: 1.5
BeatDivisor: 4
GridSize: 16
TimelineZoom: 2.8

[Metadata]
Title:Wakusei Rabbit (feat. TORIENA)
TitleUnicode:惑星ラビット (feat. TORIENA)
Artist:Yunomi
ArtistUnicode:Yunomi
Creator:Nathan
Version:Hard
Source:
Tags:trap snownino_ snownino sukinathan doormat
BeatmapID:1170747
BeatmapSetID:504171

[Difficulty]
HPDrainRate:5
CircleSize:4
OverallDifficulty:6.5
ApproachRate:8
SliderMultiplier:1.3
SliderTickRate:1

[Events]
//Background and Video events
0,0,"pyonnn.jpg",0,0
//Break Periods
2,146556,156640
//Storyboard Layer 0 (Background)
//Storyboard Layer 1 (Fail)
//Storyboard Layer 2 (Pass)
//Storyboard Layer 3 (Foreground)
//Storyboard Sound Samples

[TimingPoints]
2908,344.827586206897,4,2,1,80,1,0
2908,-133.333333333333,4,2,1,80,0,0
4459,-133.333333333333,4,2,1,80,0,0
4976,-133.333333333333,4,2,1,80,0,0
5321,-133.333333333333,4,2,1,80,0,0
5666,-133.333333333333,4,2,1,80,0,0
8425,-100,4,2,4,60,0,0
9804,-100,4,2,1,70,0,0
9976,-100,4,2,1,70,0,0
10494,-100,4,2,1,70,0,0
10839,-100,4,2,1,70,0,0
12563,-133.333333333333,4,2,1,20,0,0
12649,-100,4,2,1,5,0,0
12735,-100,4,2,1,30,0,0
12821,-100,4,2,1,5,0,0
12908,-100,4,2,1,40,0,0
12994,-100,4,2,1,5,0,0
13080,-100,4,2,1,50,0,0
13166,-100,4,2,1,5,0,0
13252,-100,4,2,1,60,0,0
13339,-100,4,2,1,5,0,0
13425,-100,4,2,1,70,0,0
13511,-100,4,2,1,5,0,0
13597,-100,4,2,3,80,0,0
13942,-100,4,2,3,80,0,0
19114,-100,4,2,1,80,0,0
19201,-100,4,2,3,80,0,0
24976,-100,4,2,2,80,0,0
30149,-100,4,2,1,80,0,0
30494,-100,4,2,2,80,0,0
35666,-100,4,2,1,80,0,0
37563,-100,4,2,1,80,0,0
38080,-100,4,2,1,80,0,0
38425,-100,4,2,1,80,0,0
38770,-100,4,2,1,80,0,0
43080,-100,4,2,1,80,0,0
43597,-100,4,2,1,80,0,0
43942,-100,4,2,1,80,0,0
44287,-100,4,2,1,80,0,0
47045,-133.333333333333,4,2,1,80,0,0
49804,-100,4,2,1,80,0,0
52563,-133.333333333333,4,2,1,80,0,0
55321,-100,4,2,1,80,0,0
58080,-100,4,2,4,70,0,0
63597,-100,4,2,4,80,0,0
69114,-100,4,2,3,80,0,1
78770,-100,4,2,3,80,0,0
80149,-100,4,2,1,80,0,1
81701,-100,4,2,1,80,0,1
82218,-100,4,2,1,80,0,1
82563,-100,4,2,1,80,0,1
82908,-100,4,2,1,80,0,1
87218,-100,4,2,1,80,0,1
87735,-100,4,2,1,80,0,1
88080,-100,4,2,1,80,0,1
88425,-100,4,2,1,80,0,1
91183,-133.333333333333,4,2,1,80,0,0
93770,-100,4,2,1,80,0,0
98252,-100,4,2,1,80,0,0
98770,-100,4,2,1,80,0,0
99114,-100,4,2,1,80,0,0
99459,-100,4,2,1,80,0,0
102218,-100,4,2,4,80,0,0
121528,-100,4,2,1,80,0,0
124287,-100,4,2,1,80,0,1
124976,-100,4,2,3,80,0,1
125666,-100,4,2,3,80,0,1
126701,-100,4,2,3,80,0,1
127045,-100,4,2,3,80,0,1
127735,-100,4,2,3,80,0,1
128425,-100,4,2,3,80,0,1
129114,-100,4,2,3,80,0,1
129804,-100,4,2,3,80,0,1
130494,-100,4,2,3,80,0,1
131183,-100,4,2,3,80,0,1
132218,-100,4,2,3,80,0,1
132563,-100,4,2,3,80,0,1
133252,-100,4,2,3,80,0,1
133942,-100,4,2,3,80,0,0
134632,-100,4,2,3,80,0,0
134976,-100,4,2,3,80,0,0
135321,-90.9090909090909,4,2,3,80,0,1
136701,-90.9090909090909,4,2,3,80,0,1
137735,-90.9090909090909,4,2,3,80,0,1
138080,-90.9090909090909,4,2,3,80,0,1
138770,-90.9090909090909,4,2,3,80,0,1
139459,-90.9090909090909,4,2,3,80,0,1
140149,-90.9090909090909,4,2,3,80,0,1
140839,-90.9090909090909,4,2,3,80,0,1
141528,-90.9090909090909,4,2,3,80,0,1
142218,-90.9090909090909,4,2,3,80,0,1
143252,-90.9090909090909,4,2,3,80,0,1
143597,-90.9090909090909,4,2,3,80,0,1
144287,-90.9090909090909,4,2,3,80,0,1
144976,-100,4,2,1,80,0,0
164287,-100,4,2,2,80,0,0
167045,-100,4,2,1,80,0,0
168166,-100,4,2,1,5,0,0
168425,-100,4,2,3,80,0,1
173597,-100,4,2,1,80,0,1
173683,-100,4,2,3,80,0,1
178080,-100,4,2,3,80,0,0
179459,-100,4,2,1,80,0,1
181011,-100,4,2,1,80,0,1
181528,-100,4,2,1,80,0,1
181873,-100,4,2,1,80,0,1
182218,-100,4,2,1,80,0,1
186528,-100,4,2,1,80,0,1
187045,-100,4,2,1,80,0,1
187390,-100,4,2,1,80,0,1
187735,-100,4,2,1,80,0,1
190494,-133.333333333333,4,2,1,80,0,0
192045,-133.333333333333,4,2,1,80,0,0
192563,-133.333333333333,4,2,1,80,0,0
192908,-133.333333333333,4,2,1,80,0,0
193252,-133.333333333333,4,2,1,80,0,0
197563,-133.333333333333,4,2,1,80,0,0
198080,-133.333333333333,4,2,1,80,0,0
198425,-133.333333333333,4,2,1,80,0,0
198770,-133.333333333333,4,2,1,80,0,0

[Colours]
Combo1 : 255,94,55
Combo2 : 173,255,95
Combo3 : 17,254,176
Combo4 : 255,88,100

[HitObjects]
169,106,2908,6,0,L|183:1,2,97.50000371933,2|2|2,0:0|0:0|0:0,0:0:0:0:
42,119,3942,2,0,L|-5:126,2,24.3750009298325,2|0|2,0:0|0:0|0:0,0:0:0:0:
146,191,4459,2,0,L|193:198,2,24.3750009298325,2|0|2,0:0|0:0|0:0,0:0:0:0:
51,275,4976,2,0,L|4:282,2,24.3750009298325,2|0|2,0:0|0:0|0:0,0:0:0:0:
139,279,5321,1,2,0:0:0:0:
139,279,5408,1,0,0:0:0:0:
139,279,5494,1,2,0:0:0:0:
204,310,5666,6,0,P|241:297|321:301,1,97.50000371933,2|2,0:0|0:0,0:0:0:0:
409,358,6356,1,2,0:0:0:0:
417,231,6701,2,0,P|420:202|423:186,2,24.3750009298325,2|0|2,0:0|0:0|0:0,0:0:0:0:
344,232,7045,2,0,P|321:180|319:134,1,97.50000371933,0|0,0:0|0:0,0:0:0:0:
369,86,7563,2,0,P|406:83|432:76,2,48.750001859665,0|0|2,0:0|0:0|0:0,0:0:0:0:
309,42,8080,2,0,P|293:44|274:48,3,24.3750009298325,2|0|2|0,0:0|0:0|0:0|0:0,0:0:0:0:
242,51,8425,6,0,L|162:60,1,65,8|8,1:0|0:1,0:0:0:0:
150,138,8770,2,0,L|85:145,1,65,8|8,1:0|1:0,0:0:0:0:
217,186,9114,2,0,L|273:194,2,32.5,8|0|8,0:1|1:0|0:1,0:0:0:0:
201,272,9459,2,0,L|266:281,2,65,8|8|0,1:0|1:0|0:0,0:0:0:0:
137,333,9976,2,0,L|81:341,2,32.5,2|0|2,1:2|1:2|1:2,0:0:0:0:
116,258,10321,1,0,1:2:0:0:
38,278,10494,2,0,L|-18:286,2,32.5,2|0|2,1:2|1:2|1:2,0:0:0:0:
60,197,10839,1,2,1:2:0:0:
60,197,10925,1,0,1:2:0:0:
60,197,11011,1,2,1:2:0:0:
140,179,11183,5,4,3:2:0:0:
34,49,11528,1,4,3:2:0:0:
202,27,11873,1,4,3:2:0:0:
144,183,12218,1,4,3:2:0:0:
144,183,12390,1,4,3:2:0:0:
188,110,12563,6,0,P|251:109|283:131,2,97.50000371933,0|0|0,0:0|0:0|0:0,0:0:0:0:
103,112,13425,1,0,0:0:0:0:
144,183,13597,1,2,0:0:0:0:
144,183,13942,6,0,L|134:278,1,65,6|0,3:1|0:0,0:0:0:0:
155,330,14287,2,0,P|208:292|294:291,1,130,10|2,0:1|0:1,0:0:0:0:
351,311,14804,1,0,3:0:0:0:
334,228,14976,2,0,L|329:176,2,32.5,10|0|2,0:1|0:0|0:1,0:0:0:0:
351,311,15321,1,2,3:1:0:0:
420,262,15494,1,2,0:1:0:0:
420,262,15580,1,0,0:0:0:0:
420,262,15666,2,0,L|473:188,1,65,10|2,0:1|0:1,0:0:0:0:
433,344,16011,2,0,L|483:330,2,32.5,2|0|2,0:1|0:0|3:1,0:0:0:0:
359,318,16356,1,10,0:1:0:0:
359,318,16442,1,0,0:0:0:0:
359,318,16528,1,2,0:1:0:0:
282,354,16701,6,0,P|268:297|271:262,1,65,2|0,3:1|0:0,0:0:0:0:
318,166,17045,2,0,P|332:223|329:258,1,65,10|0,0:1|0:0,0:0:0:0:
247,207,17390,2,0,P|214:210|184:221,1,65,2|0,0:1|3:0,0:0:0:0:
122,279,17735,2,0,P|105:277|90:273,2,32.5,10|0|0,0:1|0:0|0:0,0:0:0:0:
109,195,18080,5,0,3:0:0:0:
210,330,18425,1,8,0:0:0:0:
210,330,18597,1,0,3:0:0:0:
41,345,18942,1,0,3:0:0:0:
123,333,19114,2,0,L|120:285,3,32.5,10|0|2|0,0:1|0:0|0:1|0:0,0:0:0:0:
117,258,19459,6,0,L|27:267,1,65,2|0,3:1|0:0,0:0:0:0:
201,220,19804,2,0,P|203:156|166:104,1,130,10|2,0:1|0:1,0:0:0:0:
113,171,20321,1,0,3:0:0:0:
82,91,20494,2,0,P|75:65|77:36,2,32.5,10|0|2,0:1|0:0|0:1,0:0:0:0:
113,171,20839,1,2,3:1:0:0:
30,153,21011,1,2,0:1:0:0:
30,153,21097,1,0,0:0:0:0:
30,153,21183,2,0,P|7:137|-10:79,1,65,10|2,0:1|0:1,0:0:0:0:
47,232,21528,2,0,P|20:234|-8:227,2,32.5,2|0|2,0:1|0:0|3:1,0:0:0:0:
121,178,21873,1,10,0:1:0:0:
121,178,21959,1,0,0:0:0:0:
121,178,22045,1,0,0:0:0:0:
126,262,22218,6,0,L|134:355,1,65,2|0,3:1|0:0,0:0:0:0:
203,218,22563,2,0,L|195:125,1,65,10|0,0:1|3:0,0:0:0:0:
280,251,22908,2,0,L|288:344,1,65,2|0,0:1|3:0,0:0:0:0:
350,201,23252,2,0,L|346:144,2,32.5,10|0|2,0:1|0:0|0:1,0:0:0:0:
428,245,23597,6,0,P|471:238|501:216,1,65,0|0,3:0|0:0,0:0:0:0:
488,227,23856,1,0,1:0:0:0:
488,227,23942,1,8,1:0:0:0:
507,142,24114,2,0,P|508:113|506:93,2,32.5,0|0|0,1:0|1:0|1:0,0:0:0:0:
427,163,24459,1,0,3:0:0:0:
438,78,24632,2,0,L|315:70,1,97.5,0|0,1:0|1:0,0:0:0:0:
298,73,24976,6,0,L|301:137,1,65,4|0,3:2|0:0,0:0:0:0:
258,210,25321,2,0,P|239:195|134:192,1,130,0|0,1:0|0:0,0:0:0:0:
57,218,25839,1,0,3:0:0:0:
117,277,26011,2,0,P|148:283|181:283,1,65,0|0,1:0|0:0,0:0:0:0:
219,358,26356,6,0,P|186:357|154:364,1,65,0|0,3:0|0:0,0:0:0:0:
276,285,26701,2,0,L|422:295,1,130,0|0,1:0|0:0,0:0:0:0:
466,235,27218,1,0,3:0:0:0:
383,217,27390,2,0,P|376:163|380:136,1,65,0|0,1:0|0:0,0:0:0:0:
464,48,27735,6,0,P|464:80|457:112,1,65,2|0,3:2|0:0,0:0:0:0:
379,71,28080,1,0,1:0:0:0:
306,115,28252,2,0,P|263:104|177:135,1,130,2|0,0:0|3:0,0:0:0:0:
149,207,28770,2,0,L|232:200,1,65,2|0,1:2|0:0,0:0:0:0:
332,267,29114,6,0,L|249:260,1,65,2|0,3:2|0:0,0:0:0:0:
209,323,29459,1,0,3:0:0:0:
145,264,29632,2,0,L|134:128,1,130,2|0,1:2|0:0,0:0:0:0:
230,94,30149,2,0,B|239:126|239:126|234:165,1,65,8|0,0:0|0:0,0:0:0:0:
229,243,30494,5,0,3:0:0:0:
229,243,30839,2,0,P|285:230|360:278,1,130,0|0,1:0|0:0,0:0:0:0:
406,322,31356,1,0,3:0:0:0:
473,271,31528,2,0,P|486:238|485:193,1,65,0|0,1:0|0:0,0:0:0:0:
400,135,31873,6,0,L|410:218,1,65,0|0,3:0|0:0,0:0:0:0:
348,259,32218,2,0,L|203:239,1,130,0|0,1:0|0:0,0:0:0:0:
134,235,32735,1,0,3:0:0:0:
161,154,32908,2,0,L|86:164,1,65,0|0,1:0|0:0,0:0:0:0:
0,91,33252,6,0,P|-3:136|2:159,1,65,2|0,3:2|0:0,0:0:0:0:
40,230,33597,1,0,0:0:0:0:
0,326,33770,2,0,P|43:311|108:316,1,97.5,2|0,3:2|0:0,0:0:0:0:
136,316,34114,2,0,L|211:326,1,65,0|0,3:0|1:0,0:0:0:0:
284,331,34459,1,0,0:0:0:0:
259,249,34632,6,0,P|296:249|330:243,2,65,2|0|2,3:2|0:0|1:2,0:0:0:0:
227,170,35149,2,0,P|194:165|162:165,1,65,0|0,0:0|1:0,0:0:0:0:
98,220,35494,1,0,0:0:0:0:
84,118,35666,6,0,B|64:68|64:68|76:26,1,97.5,12|0,0:0|0:0,0:0:0:0:
119,28,36011,6,0,L|196:39,1,65,6|0,3:2|0:0,0:0:0:0:
273,110,36356,2,0,P|236:113|158:170,1,130,10|2,0:0|0:0,0:0:0:0:
90,210,36873,1,0,3:0:0:0:
6,199,37045,2,0,L|12:253,2,32.5,10|0|2,1:2|0:0|0:0,0:0:0:0:
90,210,37390,5,0,3:0:0:0:
161,164,37563,2,0,L|167:218,2,32.5,2|0|10,0:0|0:0|0:0,0:0:0:0:
244,184,37908,1,0,0:0:0:0:
315,138,38081,2,0,L|321:192,2,32.5,2|0|2,0:0|0:0|3:2,0:0:0:0:
404,163,38425,1,10,0:0:0:0:
404,163,38511,1,0,0:0:0:0:
404,163,38597,1,2,0:0:0:0:
441,238,38770,6,0,P|395:248|350:240,1,65,2|0,3:2|0:0,0:0:0:0:
299,255,39114,1,8,0:0:0:0:
346,325,39287,2,0,P|309:306|210:315,1,130,2|0,3:2|3:0,0:0:0:0:
141,338,39804,2,0,L|138:370,2,32.5,10|0|0,1:2|0:0|0:0,0:0:0:0:
110,241,40149,6,0,L|193:249,1,65,0|0,3:0|0:0,0:0:0:0:
262,241,40494,1,8,0:0:0:0:
222,309,40666,2,0,L|212:157,1,130,0|0,3:0|3:0,0:0:0:0:
206,94,41183,2,0,B|200:78|200:78|203:62,3,32.5,10|0|2|0,0:0|0:0|0:0|0:0,0:0:0:0:
198,20,41528,6,0,P|235:20|278:29,1,65,2|0,3:2|0:0,0:0:0:0:
344,3,41873,2,0,P|338:67|356:129,1,130,10|2,0:0|0:0,0:0:0:0:
376,211,42390,1,0,3:0:0:0:
294,189,42563,2,0,P|250:182|237:179,2,32.5,10|0|2,0:0|0:0|0:0,0:0:0:0:
376,211,42908,5,0,3:0:0:0:
455,238,43080,2,0,P|499:231|512:228,2,32.5,2|0|10,0:0|0:0|0:0,0:0:0:0:
380,296,43425,1,0,0:0:0:0:
302,329,43597,2,0,P|258:322|245:319,2,32.5,2|0|2,0:0|0:0|3:2,0:0:0:0:
388,384,43942,1,10,0:0:0:0:
388,384,44028,1,0,0:0:0:0:
388,384,44114,1,2,0:0:0:0:
455,332,44287,6,0,P|465:289|457:246,1,65,2|0,3:2|0:0,0:0:0:0:
441,168,44632,1,8,0:0:0:0:
392,233,44804,2,0,L|320:237,1,65,2|0,3:2|0:0,0:0:0:0:
239,148,45149,2,0,L|311:152,2,65,2|10|2,3:2|0:0|0:0,0:0:0:0:
156,127,45666,6,0,P|155:159|164:190,1,65,0|0,3:0|0:0,0:0:0:0:
225,249,46011,1,8,0:0:0:0:
143,268,46183,2,0,P|95:253|12:257,1,130,2|0,3:2|3:0,0:0:0:0:
45,348,46701,2,0,B|75:362|75:362|105:353,1,65,10|2,0:0|0:0,0:0:0:0:
190,349,47045,5,2,0:0:0:0:
190,349,47563,2,0,P|195:317|203:288,1,48.750001859665,2|0,0:0|0:0,0:0:0:0:
232,235,47908,2,0,P|227:203|219:174,1,48.750001859665,2|0,0:0|0:0,0:0:0:0:
190,122,48252,1,2,0:0:0:0:
263,126,48425,5,2,0:0:0:0:
263,126,48942,2,0,P|295:131|324:139,1,48.750001859665,2|0,0:0|0:0,0:0:0:0:
377,168,49287,2,0,P|409:163|438:155,1,48.750001859665,0|0,0:0|0:0,0:0:0:0:
477,108,49632,1,0,0:0:0:0:
497,189,49804,6,0,L|505:273,1,65,2|2,0:0|0:0,0:0:0:0:
432,300,50149,2,0,L|424:216,1,65,2|2,0:0|0:0,0:0:0:0:
377,168,50494,1,2,0:0:0:0:
130,111,51011,6,0,P|38:106|-27:94,1,130,2|2,0:0|0:0,0:0:0:0:
15,189,51528,2,0,L|7:273,1,65,2|2,0:0|0:0,0:0:0:0:
80,300,51873,2,0,L|88:216,1,65,2|0,0:0|0:0,0:0:0:0:
135,168,52218,1,0,0:0:0:0:
201,323,52563,5,2,0:0:0:0:
201,323,53080,2,0,P|235:322|270:315,1,48.750001859665,2|0,0:0|0:0,0:0:0:0:
320,300,53425,2,0,P|302:271|278:244,1,48.750001859665,2|0,0:0|0:0,0:0:0:0:
220,247,53770,1,0,0:0:0:0:
265,190,53942,5,2,0:0:0:0:
265,190,54459,2,0,P|282:161|306:134,1,48.750001859665,2|0,0:0|0:0,0:0:0:0:
345,98,54804,2,0,P|361:127|372:161,1,48.750001859665,0|0,0:0|0:0,0:0:0:0:
337,209,55149,1,0,0:0:0:0:
420,197,55321,6,0,L|413:261,1,65,2|0,0:0|0:0,0:0:0:0:
336,297,55666,2,0,L|271:303,1,65,2|2,0:0|0:0,0:0:0:0:
213,241,56011,1,2,0:0:0:0:
43,136,56528,6,0,P|94:154|184:140,1,130,2|0,0:0|0:0,0:0:0:0:
239,99,57045,2,0,L|245:163,1,65,2|2,0:0|0:0,0:0:0:0:
296,231,57390,2,0,L|360:237,1,65,2|0,0:0|0:0,0:0:0:0:
340,154,57735,1,0,0:0:0:0:
218,271,58080,6,0,P|173:269|90:315,1,130,8|8,1:0|1:0,0:0:0:0:
33,360,58597,1,0,1:0:0:0:
24,275,58770,2,0,L|28:130,1,130,8|8,1:0|1:0,0:0:0:0:
37,60,59287,1,0,0:0:0:0:
103,112,59459,6,0,P|135:110|167:104,1,65,8|0,1:0|1:0,0:0:0:0:
244,37,59804,2,0,P|212:29|179:28,1,65,8|0,1:0|1:0,0:0:0:0:
236,129,60149,2,0,P|250:189|236:273,1,130,8|8,0:0|1:0,0:0:0:0:
218,337,60666,1,0,0:0:0:0:
300,318,60839,6,0,L|453:307,1,130,8|8,1:0|1:0,0:0:0:0:
507,274,61356,1,0,1:0:0:0:
432,233,61528,2,0,P|418:173|432:89,1,130,8|8,1:0|1:0,0:0:0:0:
496,59,62045,1,0,1:0:0:0:
428,8,62218,6,0,L|354:14,1,65,8|0,1:0|1:0,0:0:0:0:
356,86,62563,2,0,L|282:92,1,65,8|0,1:0|1:0,0:0:0:0:
346,164,62908,2,0,L|191:175,1,130,8|8,1:0|1:0,0:0:0:0:
204,257,63425,1,0,0:0:0:0:
137,205,63597,6,0,P|132:147|138:119,1,65,8|8,0:0|0:0,0:0:0:0:
133,44,63942,2,0,P|85:76|58:85,1,65,8|8,0:0|0:0,0:0:0:0:
0,127,64287,2,0,P|52:151|73:170,1,65,8|8,0:0|0:0,0:0:0:0:
137,205,64632,2,0,P|189:180|210:161,1,65,8|8,0:0|0:0,0:0:0:0:
293,121,64976,6,0,L|374:115,2,65,8|8|8,0:0|0:0|0:0,0:0:0:0:
354,215,65494,2,0,L|273:209,2,65,8|8|8,0:0|0:0|0:0,0:0:0:0:
446,197,66011,2,0,P|454:156|442:111,1,65,8|8,0:0|0:0,0:0:0:0:
414,51,66356,6,0,L|409:2,3,32.5,8|8|8|8,0:0|0:0|0:0|0:0,0:0:0:0:
368,19,66701,2,0,L|335:22,3,32.5,8|8|8|8,0:0|0:0|0:0|0:0,0:0:0:0:
294,31,67045,2,0,L|297:63,3,32.5,8|8|8|8,0:0|0:0|0:0|0:0,0:0:0:0:
300,105,67390,1,8,0:0:0:0:
256,175,67563,5,8,0:0:0:0:
256,175,68770,1,2,0:0:0:0:
256,175,69114,6,0,B|221:184|221:184|192:178,1,65,6|0,3:2|0:0,0:0:0:0:
126,88,69459,2,0,B|174:74|174:74|279:92,1,130,10|2,0:0|0:0,0:0:0:0:
320,35,69976,1,0,3:0:0:0:
334,118,70149,2,0,L|342:168,2,32.5,10|0|2,0:0|0:0|0:0,0:0:0:0:
398,63,70494,1,0,3:0:0:0:
433,147,70666,1,2,0:0:0:0:
433,147,70752,1,0,0:0:0:0:
433,147,70839,2,0,L|395:209,1,65,10|0,0:0|0:0,0:0:0:0:
486,247,71183,2,0,L|438:263,2,32.5,2|0|2,0:0|0:0|3:2,0:0:0:0:
426,331,71528,1,10,0:0:0:0:
426,331,71614,1,0,0:0:0:0:
426,331,71701,1,2,0:0:0:0:
348,298,71873,6,0,B|322:288|322:288|269:291,1,65,2|0,3:2|0:0,0:0:0:0:
224,360,72218,2,0,B|176:361|176:361|141:346|141:346|97:349,1,130,10|2,0:0|0:0,0:0:0:0:
12,351,72735,1,0,3:0:0:0:
50,275,72908,2,0,L|47:235,2,32.5,10|0|2,0:0|0:0|0:0,0:0:0:0:
134,275,73252,5,0,3:0:0:0:
5,165,73597,1,8,0:0:0:0:
5,165,73770,1,0,3:0:0:0:
161,101,74114,1,0,3:0:0:0:
146,184,74287,2,0,L|178:186,2,32.5,10|0|2,0:0|0:0|0:0,0:0:0:0:
230,193,74632,6,0,L|299:200,1,65,6|0,3:2|2:0,0:0:0:0:
403,264,74976,2,0,B|381:195|381:195|406:143,1,130,10|2,2:0|2:0,0:0:0:0:
475,92,75494,1,0,3:0:0:0:
428,21,75666,2,0,L|484:16,2,32.5,10|0|2,0:0|0:0|0:0,0:0:0:0:
475,92,76011,5,0,3:0:0:0:
414,150,76183,1,2,0:0:0:0:
414,150,76270,1,0,0:0:0:0:
414,150,76356,2,0,L|349:144,1,65,10|0,0:0|0:0,0:0:0:0:
276,99,76701,2,0,L|220:104,2,32.5,2|0|2,0:0|0:0|3:2,0:0:0:0:
351,57,77045,1,10,0:0:0:0:
351,57,77132,1,0,0:0:0:0:
351,57,77218,1,2,0:0:0:0:
349,144,77390,6,0,B|336:171|336:171|338:206,1,65,2|0,3:2|0:0,0:0:0:0:
419,289,77735,2,0,B|431:261|431:261|429:226,1,65,10|0,0:0|3:0,0:0:0:0:
333,289,78080,2,0,B|298:291|298:291|257:273,1,65,2|0,0:0|3:0,0:0:0:0:
379,365,78425,2,0,L|411:369,2,32.5,10|0|2,0:0|0:0|0:0,0:0:0:0:
488,341,78770,6,0,P|504:305|502:257,1,65,0|0,3:0|0:0,0:0:0:0:
505,279,79028,1,0,1:0:0:0:
505,279,79114,1,8,1:0:0:0:
491,206,79287,2,0,P|486:182|486:167,2,32.5,0|0|0,1:0|1:0|1:0,0:0:0:0:
427,265,79632,1,0,1:0:0:0:
363,211,79804,2,0,P|315:203|251:225,1,97.5,0|0,1:0|1:0,0:0:0:0:
230,234,80149,6,0,L|152:229,1,65,6|0,3:2|0:0,0:0:0:0:
91,144,80494,2,0,L|220:135,1,130,8|0,0:0|0:0,0:0:0:0:
299,104,81011,2,0,P|299:45|296:31,2,65,0|10|0,3:0|0:0|0:0,0:0:0:0:
293,188,81528,5,0,3:0:0:0:
370,153,81701,2,0,P|388:128|402:105,2,32.5,2|0|8,0:0|0:0|0:0,0:0:0:0:
364,237,82045,1,0,0:0:0:0:
437,195,82218,2,0,P|464:187|486:177,2,32.5,2|0|0,0:0|0:0|3:0,0:0:0:0:
438,278,82563,2,0,P|463:289|487:295,2,32.5,10|0|2,0:0|0:0|0:0,0:0:0:0:
368,324,82908,6,0,P|307:315|226:332,1,130,0|8,3:0|0:0,0:0:0:0:
156,341,83425,2,0,P|165:300|165:267,1,65,0|0,0:0|0:0,0:0:0:0:
127,201,83770,1,0,3:0:0:0:
231,211,83942,2,0,P|222:170|222:137,1,65,10|0,0:0|0:0,0:0:0:0:
143,72,84287,6,0,L|124:220,1,130,0|8,3:0|0:0,0:0:0:0:
51,283,84804,2,0,L|34:154,1,130,0|0,3:0|3:0,0:0:0:0:
79,69,85321,2,0,B|112:64|112:64|142:71,1,65,8|0,0:0|0:0,0:0:0:0:
244,59,85666,6,0,P|243:91|234:123,1,65,4|0,3:2|0:0,0:0:0:0:
213,205,86011,2,0,P|277:201|338:223,1,130,8|0,0:0|0:0,0:0:0:0:
422,231,86528,2,0,P|412:199|411:167,2,65,0|10|0,3:0|0:0|0:0,0:0:0:0:
372,299,87045,5,0,3:0:0:0:
455,313,87218,2,0,L|501:317,2,32.5,2|0|8,0:0|0:0|0:0,0:0:0:0:
372,299,87563,1,0,0:0:0:0:
307,353,87735,2,0,L|261:357,2,32.5,2|0|0,0:0|0:0|3:0,0:0:0:0:
295,269,88080,2,0,L|249:273,2,32.5,10|0|2,0:0|0:0|0:0,0:0:0:0:
357,211,88425,6,0,L|367:116,2,65,2|0|8,3:2|0:0|0:0,0:0:0:0:
257,168,88942,2,0,P|219:154|100:156,1,130,2|0,3:2|3:0,0:0:0:0:
103,247,89459,2,0,P|160:237|189:228,1,65,10|0,0:0|0:0,0:0:0:0:
275,266,89804,5,0,3:0:0:0:
203,315,89976,1,0,1:0:0:0:
203,315,90063,1,0,1:0:0:0:
203,315,90149,1,0,1:0:0:0:
279,350,90321,1,0,1:0:0:0:
352,307,90494,2,0,L|407:305,3,32.5,0|0|0|0,1:0|1:0|1:0|1:0,0:0:0:0:
427,305,90839,2,0,P|436:260|435:227,1,65,0|0,1:0|1:0,0:0:0:0:
360,166,91183,5,4,0:0:0:0:
360,166,91528,2,0,L|368:102,2,48.750001859665,2|0|2,0:0|0:0|0:0,0:0:0:0:
335,41,92218,1,2,0:0:0:0:
240,126,92563,2,0,L|126:139,1,97.50000371933,2|0,0:0|0:0,0:0:0:0:
165,261,93252,2,0,L|279:248,1,97.50000371933,2|2,0:0|0:0,0:0:0:0:
310,179,93770,1,0,0:0:0:0:
343,256,93942,6,0,P|338:294|340:342,2,65,2|2|2,0:0|0:0|0:0,0:0:0:0:
391,186,94459,2,0,P|408:126|392:48,1,130,2|2,0:0|0:0,0:0:0:0:
334,3,94976,1,2,0:0:0:0:
232,138,95321,6,0,P|175:128|143:120,1,65,2|2,0:0|0:0,0:0:0:0:
97,80,95666,1,2,1:2:0:0:
94,164,95839,2,0,P|62:170|30:175,2,65,2|0|2,0:0|1:0|0:0,0:0:0:0:
163,211,96356,2,0,B|155:225|155:225|155:242,3,32.5,10|0|2|0,1:2|0:0|0:0|0:0,0:0:0:0:
147,284,96701,6,0,L|138:362,1,65,6|0,3:2|0:0,0:0:0:0:
223,340,97045,2,0,L|358:352,1,130,10|2,0:0|0:0,0:0:0:0:
425,308,97563,1,0,3:0:0:0:
347,275,97735,2,0,L|307:272,2,32.5,10|0|2,0:0|0:0|0:0,0:0:0:0:
413,221,98080,5,0,3:0:0:0:
467,157,98252,2,0,L|507:154,2,32.5,2|0|10,0:0|0:0|0:0,0:0:0:0:
402,102,98597,1,0,0:0:0:0:
334,50,98770,2,0,L|294:47,2,32.5,2|0|2,0:0|0:0|3:2,0:0:0:0:
414,23,99114,1,10,0:0:0:0:
414,23,99201,1,0,0:0:0:0:
414,23,99287,1,2,0:0:0:0:
402,102,99459,6,0,L|394:184,1,65,2|0,3:2|0:0,0:0:0:0:
327,217,99804,1,8,0:0:0:0:
381,280,99976,2,0,P|305:271|254:292,1,130,2|0,3:2|3:0,0:0:0:0:
190,344,100494,2,0,P|163:342|120:332,1,65,8|0,0:0|0:0,0:0:0:0:
22,262,100839,6,0,L|104:249,1,65,2|0,3:2|0:0,0:0:0:0:
141,187,101183,1,8,0:0:0:0:
197,253,101356,2,0,P|223:209|203:126,1,130,2|0,3:2|3:0,0:0:0:0:
142,42,101873,2,0,B|127:71|127:71|133:102,1,65,8|0,0:0|0:0,0:0:0:0:
225,47,102218,6,0,L|344:59,1,97.5,12|0,3:2|1:0,0:0:0:0:
364,62,102563,2,0,P|375:100|373:140,1,65,8|0,1:0|3:0,0:0:0:0:
320,189,102908,1,8,1:0:0:0:
402,208,103080,2,0,P|434:209|465:219,2,65,0|8|0,0:0|3:2|0:0,0:0:0:0:
351,276,103597,6,0,P|303:281|245:249,1,97.5,8|0,3:2|1:0,0:0:0:0:
220,243,103942,2,0,L|154:251,1,65,8|0,1:0|3:0,0:0:0:0:
71,242,104287,2,0,L|63:306,2,65,8|0|8,1:0|0:0|3:2,0:0:0:0:
122,175,104804,1,0,0:0:0:0:
38,165,104976,6,0,L|30:100,1,65,8|0,3:2|1:0,0:0:0:0:
26,58,105235,1,0,1:0:0:0:
26,58,105321,1,8,1:0:0:0:
107,82,105494,1,0,3:0:0:0:
176,34,105666,1,8,1:0:0:0:
198,195,106011,1,8,3:2:0:0:
336,64,106356,6,0,L|343:128,1,65,8|0,3:2|1:0,0:0:0:0:
348,171,106615,1,0,1:0:0:0:
348,171,106701,1,8,1:2:0:0:
267,147,106874,1,0,3:0:0:0:
198,195,107046,1,8,0:0:0:0:
176,34,107390,1,8,3:2:0:0:
176,34,107735,6,0,P|131:70|108:129,1,97.5,8|0,3:2|1:0,0:0:0:0:
105,146,108080,2,0,P|59:137|23:137,1,65,8|0,1:2|3:0,0:0:0:0:
79,234,108425,1,8,1:0:0:0:
165,214,108597,2,0,P|197:211|229:204,2,65,0|8|0,0:0|3:0|1:0,0:0:0:0:
141,322,109114,6,0,L|250:306,1,97.5,8|0,3:2|1:0,0:0:0:0:
279,300,109459,2,0,L|267:376,1,65,8|0,1:0|3:0,0:0:0:0:
354,258,109804,2,0,L|366:182,2,65,8|0|8,1:0|0:0|3:2,0:0:0:0:
411,320,110321,1,0,1:0:0:0:
487,283,110494,6,0,L|499:207,1,65,8|0,3:2|1:0,0:0:0:0:
508,178,110752,1,0,1:0:0:0:
508,178,110839,1,8,1:0:0:0:
435,135,111011,1,0,3:0:0:0:
493,74,111183,1,8,1:0:0:0:
324,187,111528,1,8,3:2:0:0:
161,311,111873,6,0,L|149:235,1,65,8|0,3:1|1:0,0:0:0:0:
140,206,112131,1,0,1:0:0:0:
140,206,112218,1,8,1:0:0:0:
213,163,112390,1,0,3:0:0:0:
155,102,112562,1,8,0:0:0:0:
155,102,112908,2,0,P|232:84|265:98,1,97.5,8|0,0:0|0:0,0:0:0:0:
287,102,113252,6,0,P|311:102|336:98,2,32.5,14|0|0,3:2|0:0|0:0,0:0:0:0:
213,163,113597,2,0,P|222:215|229:233,1,65,8|8,0:0|0:0,0:0:0:0:
287,285,113942,2,0,L|433:278,1,130,8|8,0:0|1:0,0:0:0:0:
467,210,114459,1,0,0:0:0:0:
384,190,114632,6,0,L|303:194,1,65,8|0,0:0|0:0,0:0:0:0:
434,122,114976,2,0,L|515:118,1,65,8|0,1:0|1:0,0:0:0:0:
407,28,115321,2,0,P|369:32|299:120,1,130,8|8,1:0|0:0,0:0:0:0:
239,157,115839,1,0,1:0:0:0:
239,157,115925,1,0,1:0:0:0:
239,157,116011,6,0,P|222:115|219:82,1,65,8|0,0:0|0:0,0:0:0:0:
319,183,116356,2,0,P|291:218|264:237,1,65,8|0,1:0|1:0,0:0:0:0:
304,92,116701,2,0,P|348:98|414:171,1,130,0|8,0:0|1:0,0:0:0:0:
448,229,117218,1,0,0:0:0:0:
366,246,117390,6,0,L|216:233,1,130,8|8,0:0|1:0,0:0:0:0:
151,228,117908,1,0,1:0:0:0:
198,158,118080,1,8,1:0:0:0:
32,122,118425,1,8,1:0:0:0:
80,53,118597,1,0,0:0:0:0:
80,53,118683,1,0,1:0:0:0:
80,53,118770,6,0,L|157:60,1,65,8|8,1:0|1:0,0:0:0:0:
198,158,119114,2,0,L|275:165,1,65,8|8,0:0|0:0,0:0:0:0:
321,76,119459,2,0,L|398:83,1,65,8|8,0:0|0:0,0:0:0:0:
433,170,119804,2,0,L|510:177,1,65,8|8,1:0|1:0,0:0:0:0:
381,247,120149,1,8,1:0:0:0:
256,192,120235,12,2,121528,0:0:0:0:
386,251,122735,5,2,0:0:0:0:
386,251,123597,6,0,L|392:200,3,32.5,0|0|0|0,1:0|1:0|1:0|1:0,0:0:0:0:
394,176,123942,1,2,0:0:0:0:
465,22,124287,6,0,P|410:4|376:12,1,65,6|0,3:1|0:0,0:0:0:0:
378,5,124545,1,0,0:0:0:0:
352,12,124632,2,0,P|308:50|298:84,1,65,2|2,0:1|0:1,0:0:0:0:
318,158,124976,6,0,P|373:176|407:168,1,65,10|0,0:1|0:0,0:0:0:0:
405,175,125234,1,0,0:0:0:0:
431,168,125321,2,0,P|474:129|484:95,1,65,2|2,3:1|0:1,0:0:0:0:
512,245,125666,6,0,P|434:260|399:286,1,97.5,2|0,0:1|0:0,0:0:0:0:
396,282,126011,2,0,B|312:271,1,65,2|2,3:1|0:1,0:0:0:0:
247,261,126356,1,10,0:1:0:0:
340,119,126701,2,0,B|305:98|305:98|245:117,1,97.5,2|0,3:1|0:0,0:0:0:0:
210,125,127045,6,0,L|128:119,1,65,2|0,3:1|0:0,0:0:0:0:
119,120,127304,1,0,0:0:0:0:
93,119,127390,2,0,L|11:113,1,65,2|2,0:1|0:1,0:0:0:0:
20,233,127735,6,0,L|102:239,1,65,10|0,0:1|0:0,0:0:0:0:
111,238,127994,1,0,0:0:0:0:
137,239,128080,2,0,L|219:245,1,65,2|2,3:1|0:1,0:0:0:0:
311,256,128425,6,0,B|315:233|315:233|297:194,2,43.3333333333333,2|2|2,0:1|0:1|0:1,0:0:0:0:
307,295,128770,1,2,3:1:0:0:
227,322,128942,1,2,0:1:0:0:
291,376,129114,1,10,0:1:0:0:
162,265,129459,2,0,B|168:238|168:238|162:217|162:217|175:202|175:202|180:152,1,97.5,10|0,0:1|0:0,0:0:0:0:
185,131,129804,6,0,P|240:120|266:126,1,65,2|0,3:1|0:0,0:0:0:0:
271,132,130063,1,0,0:0:0:0:
294,143,130149,2,0,P|324:153|357:152,1,65,2|2,0:1|0:1,0:0:0:0:
466,241,130494,6,0,P|411:230|385:236,1,65,10|0,0:1|0:0,0:0:0:0:
380,242,130753,1,0,0:0:0:0:
357,253,130839,2,0,P|326:263|293:262,1,65,2|2,3:1|0:1,0:0:0:0:
122,258,131356,5,2,3:1:0:0:
200,226,131528,2,0,B|209:247|209:247|203:299,2,43.3333333333333,2|2|2,3:1|0:1|0:1,0:0:0:0:
190,192,131873,2,0,L|195:115,1,65,10|0,0:1|0:0,0:0:0:0:
233,41,132218,2,0,B|268:24|268:24|320:50,1,97.5,2|0,3:1|0:0,0:0:0:0:
341,66,132563,6,0,L|345:130,1,65,2|0,3:1|0:0,0:0:0:0:
347,156,132821,1,0,0:0:0:0:
350,182,132908,2,0,L|354:246,1,65,2|2,0:1|0:1,0:0:0:0:
255,191,133252,6,0,L|259:255,1,65,10|0,0:1|0:0,0:0:0:0:
261,281,133510,1,0,0:0:0:0:
264,307,133597,2,0,L|268:371,2,65,2|2|0,3:1|0:1|0:0,0:0:0:0:
179,296,134114,6,0,L|137:298,2,32.5,2|0|2,0:0|0:0|0:0,0:0:0:0:
171,211,134459,1,0,0:0:0:0:
170,126,134632,2,0,L|109:127,2,43.3333333333333,0|0|0,1:0|1:0|1:0,0:0:0:0:
205,126,134976,2,0,L|266:125,2,43.3333333333333,0|0|0,1:0|1:0|1:0,0:0:0:0:
185,91,135321,6,0,B|177:55|177:55|200:0,1,71.5000021820069,6|0,3:1|0:0,0:0:0:0:
222,19,135580,1,0,0:0:0:0:
254,29,135666,2,0,L|335:35,1,71.5000021820069,2|2,3:1|0:1,0:0:0:0:
438,62,136011,6,0,B|446:98|446:98|423:153,1,71.5000021820069,6|0,3:1|0:0,0:0:0:0:
401,134,136270,1,0,0:0:0:0:
369,124,136356,2,0,L|288:118,1,71.5000021820069,2|2,3:1|0:1,0:0:0:0:
238,196,136701,6,0,L|230:316,1,95.3333362426759,4|2,3:1|0:1,0:0:0:0:
228,319,137045,2,0,L|314:326,1,71.5000021820069,2|2,3:1|0:1,0:0:0:0:
393,333,137390,1,4,3:1:0:0:
237,197,137735,2,0,B|198:193|198:193|179:203|179:203|128:199,1,107.25000327301,2|0,3:1|0:0,0:0:0:0:
85,199,138080,6,0,B|74:164|74:164|99:117,1,71.5000021820069,6|0,3:1|0:0,0:0:0:0:
117,113,138339,1,0,0:0:0:0:
145,96,138425,2,0,B|156:61|156:61|131:14,1,71.5000021820069,2|2,3:1|0:1,0:0:0:0:
253,114,138770,6,0,B|288:125|288:125|335:100,1,71.5000021820069,6|0,3:1|0:0,0:0:0:0:
339,82,139029,1,0,0:0:0:0:
356,54,139115,2,0,B|391:43|391:43|438:68,1,71.5000021820069,2|2,3:1|0:1,0:0:0:0:
474,162,139459,6,0,L|478:114,2,47.6666681213379,4|2|2,3:1|0:1|0:1,0:0:0:0:
472,193,139804,1,2,3:1:0:0:
390,239,139976,1,0,0:0:0:0:
458,311,140149,2,0,B|395:332|395:332|349:318,1,107.25000327301,2|0,0:1|0:0,0:0:0:0:
311,304,140494,2,0,B|291:305|271:292|271:292|253:308|253:308|208:313,1,107.25000327301,2|0,0:1|0:0,0:0:0:0:
165,318,140839,6,0,B|121:306|121:306|81:321,1,71.5000021820069,6|0,3:1|0:0,0:0:0:0:
69,331,141097,1,0,0:0:0:0:
37,325,141183,2,0,L|28:221,1,71.5000021820069,2|2,3:1|0:1,0:0:0:0:
22,162,141528,6,0,B|66:150|66:150|105:165,1,71.5000021820069,6|0,3:1|0:0,0:0:0:0:
118,175,141786,1,0,0:0:0:0:
150,169,141873,2,0,L|159:65,2,71.5000021820069,2|2|6,3:1|0:1|3:1,0:0:0:0:
185,255,142390,1,2,0:1:0:0:
248,187,142563,2,0,L|311:182,2,47.6666681213379,2|2|2,3:1|0:1|0:1,0:0:0:0:
249,150,142908,2,0,L|256:55,1,71.5000021820069,6|0,3:1|0:0,0:0:0:0:
362,25,143252,6,0,B|380:75|380:75|359:125,1,107.25000327301,2|0,0:1|0:0,0:0:0:0:
354,171,143597,6,0,B|389:161|389:161|430:181,1,71.5000021820069,6|0,3:1|0:0,0:0:0:0:
448,193,143856,1,0,0:0:0:0:
474,212,143942,2,0,B|484:247|484:247|464:288,1,71.5000021820069,2|2,3:1|0:1,0:0:0:0:
397,356,144287,6,0,B|362:366|362:366|321:346,1,71.5000021820069,6|0,3:1|0:0,0:0:0:0:
303,334,144546,1,0,0:0:0:0:
277,315,144632,2,0,B|267:280|267:280|287:239,1,71.5000021820069,2|0,3:1|0:3,0:0:0:0:
377,261,144976,6,0,L|385:201,4,32.5,6|0|0|0|0,3:2|1:0|1:0|1:0|1:0,0:0:0:0:
476,282,145494,1,0,1:0:0:0:
476,282,145580,1,0,1:0:0:0:
476,282,145666,1,0,1:0:0:0:
487,182,145839,2,0,L|497:94,2,65,0|0|0,0:0|1:0|0:0,0:0:0:0:
398,146,146356,5,6,3:2:0:0:
269,198,157390,6,0,L|169:211,1,97.5,8|0,0:0|1:0,0:0:0:0:
172,210,157735,2,0,L|161:290,1,65,8|0,1:0|1:0,0:0:0:0:
149,363,158080,1,8,1:0:0:0:
80,307,158252,2,0,L|0:317,2,65,0|8|0,0:0|1:0|0:0,0:0:0:0:
89,222,158770,5,8,1:0:0:0:
18,175,158942,2,0,L|16:139,2,32.5,0|0|8,1:0|1:0|1:0,0:0:0:0:
89,222,159287,1,0,1:0:0:0:
148,161,159459,2,0,L|146:125,2,32.5,8|0|0,1:0|1:0|0:0,0:0:0:0:
217,209,159804,1,8,1:0:0:0:
158,50,160149,6,0,P|211:59|282:59,1,97.5,8|0,1:0|1:0,0:0:0:0:
297,57,160494,2,0,P|325:50|383:46,1,65,8|0,1:0|1:0,0:0:0:0:
439,77,160839,2,0,P|463:82|486:83,2,32.5,8|0|0,1:0|1:0|0:0,0:0:0:0:
372,128,161183,2,0,P|355:129|340:133,2,32.5,8|0|0,1:0|0:0|1:0,0:0:0:0:
447,166,161528,5,8,1:0:0:0:
383,222,161701,1,0,1:0:0:0:
383,222,161787,1,0,1:0:0:0:
383,222,161873,2,0,L|375:308,1,65,8|0,1:0|1:0,0:0:0:0:
402,367,162218,1,8,1:0:0:0:
288,241,162563,2,0,L|250:246,5,21.6666666666667,0|0|0|0|0|0,1:0|1:0|1:0|1:0|1:0|1:0,0:0:0:0:
238,250,162908,6,0,P|219:249|154:233,1,65,8|0,0:0|0:0,0:0:0:0:
140,214,163166,1,8,0:0:0:0:
140,214,163252,2,0,L|137:289,1,65,8|8,0:0|0:0,0:0:0:0:
44,151,163597,2,0,L|46:215,2,65,8|8|8,0:0|0:0|0:0,0:0:0:0:
133,71,164114,1,8,0:0:0:0:
133,71,164201,1,0,0:0:0:0:
133,71,164287,6,0,P|166:40|181:34,2,43.3333333333333,8|8|8,0:0|0:0|0:0,0:0:0:0:
154,98,164632,2,0,P|199:95|214:100,2,43.3333333333333,8|8|8,0:0|0:0|0:0,0:0:0:0:
160,132,164976,2,0,P|196:159|204:172,2,43.3333333333333,8|8|8,0:0|0:0|0:0,0:0:0:0:
148,165,165321,2,0,P|158:209|156:225,2,43.3333333333333,8|8|8,0:0|0:0|0:0,0:0:0:0:
120,186,165666,5,0,0:0:0:0:
120,186,167045,5,0,0:0:0:0:
120,186,167218,2,0,L|113:229,2,32.5,0|0|0,0:0|0:0|0:0,0:0:0:0:
190,139,167563,2,0,L|184:106,5,32.5,0|0|0|0|0|0,0:0|0:0|0:0|0:0|0:0|0:0,0:0:0:0:
176,65,168080,1,2,0:0:0:0:
344,56,168425,6,0,P|328:102|334:147,1,65,2|0,3:1|0:0,0:0:0:0:
384,189,168770,2,0,P|325:163|258:176,1,130,10|2,0:1|0:1,0:0:0:0:
203,234,169287,1,0,3:0:0:0:
125,200,169459,2,0,L|81:205,2,32.5,10|0|2,0:1|0:0|0:1,0:0:0:0:
203,234,169804,5,2,3:1:0:0:
189,150,169976,1,2,0:1:0:0:
189,150,170063,1,0,0:0:0:0:
189,150,170149,2,0,L|178:77,1,65,10|0,0:1|0:0,0:0:0:0:
262,173,170494,2,0,L|306:168,2,32.5,2|0|2,0:1|0:0|3:1,0:0:0:0:
288,260,170839,1,10,0:1:0:0:
288,260,170925,1,0,0:0:0:0:
288,260,171011,1,2,0:1:0:0:
225,316,171183,6,0,P|194:321|151:323,1,65,2|0,3:1|0:0,0:0:0:0:
286,368,171528,2,0,L|415:376,1,130,10|2,0:1|0:1,0:0:0:0:
487,331,172045,1,0,3:0:0:0:
410,295,172218,2,0,L|407:255,2,32.5,10|0|2,0:1|0:0|0:1,0:0:0:0:
487,253,172563,5,2,3:1:0:0:
487,253,172649,1,0,0:0:0:0:
487,253,172735,1,2,0:1:0:0:
432,188,172908,2,0,L|392:185,3,32.5,10|0|2|0,0:1|0:0|3:1|0:0,0:0:0:0:
379,141,173252,2,0,L|401:107,3,32.5,2|0|2|0,0:1|0:0|3:1|0:0,0:0:0:0:
439,115,173597,2,0,L|456:151,3,32.5,10|0|2|0,0:1|0:0|0:1|0:0,0:0:0:0:
466,184,173942,6,0,L|462:255,1,65,6|0,3:1|0:0,0:0:0:0:
381,297,174287,2,0,P|324:279|242:281,1,130,10|2,0:1|0:1,0:0:0:0:
182,323,174804,1,0,3:0:0:0:
187,238,174976,2,0,P|183:206|181:195,2,32.5,10|0|0,0:1|0:0|0:0,0:0:0:0:
182,323,175321,5,0,3:0:0:0:
115,283,175494,1,2,0:1:0:0:
115,283,175580,1,0,0:0:0:0:
115,283,175666,2,0,P|91:261|61:239,1,65,10|0,0:1|0:0,0:0:0:0:
114,360,176011,2,0,P|81:358|70:358,2,32.5,2|0|2,0:1|0:0|3:1,0:0:0:0:
190,330,176356,1,10,0:1:0:0:
190,330,176442,1,0,0:0:0:0:
190,330,176528,1,2,0:1:0:0:
270,365,176701,6,0,L|274:280,1,65,2|0,3:1|0:0,0:0:0:0:
196,234,177045,2,0,L|192:149,1,65,10|0,0:1|3:0,0:0:0:0:
291,211,177390,2,0,L|376:215,1,65,2|0,0:1|3:0,0:0:0:0:
428,282,177735,2,0,L|460:280,2,32.5,10|0|2,0:1|0:0|0:1,0:0:0:0:
445,191,178080,6,0,P|436:153|439:113,1,65,0|0,3:0|0:0,0:0:0:0:
436,127,178339,1,0,1:0:0:0:
436,127,178425,1,8,1:0:0:0:
485,59,178597,2,0,L|486:26,2,32.5,0|0|0,1:0|1:0|1:0,0:0:0:0:
400,55,178942,1,0,1:0:0:0:
359,128,179114,2,0,P|303:130|251:103,1,97.5,0|0,1:0|1:0,0:0:0:0:
226,96,179459,6,0,P|193:95|162:103,1,65,4|0,3:2|0:0,0:0:0:0:
83,214,179804,2,0,L|232:205,1,130,8|0,0:0|0:0,0:0:0:0:
280,257,180321,2,0,L|277:337,2,65,0|10|0,3:0|0:0|0:0,0:0:0:0:
294,172,180839,5,0,3:0:0:0:
357,227,181011,2,0,P|377:224|403:218,2,32.5,2|0|8,0:0|0:0|0:0,0:0:0:0:
294,172,181356,1,0,0:0:0:0:
224,124,181528,2,0,P|204:121|178:115,2,32.5,2|0|0,0:0|0:0|3:0,0:0:0:0:
300,88,181873,2,0,P|320:85|346:79,2,32.5,10|0|2,0:0|0:0|0:0,0:0:0:0:
331,9,182218,6,0,P|388:32|402:110,1,130,0|8,3:0|0:0,0:0:0:0:
355,160,182735,2,0,L|363:239,1,65,0|0,0:0|0:0,0:0:0:0:
434,268,183080,1,0,3:0:0:0:
362,312,183252,2,0,L|283:304,1,65,10|0,0:0|0:0,0:0:0:0:
212,304,183597,6,0,L|217:344,3,32.5,2|0|2|0,3:2|0:0|0:0|0:0,0:0:0:0:
176,352,183942,2,0,L|143:347,3,32.5,10|0|2|0,0:0|0:0|3:2|0:0,0:0:0:0:
103,333,184287,2,0,L|98:300,3,32.5,2|0|2|0,0:0|0:0|3:2|0:0,0:0:0:0:
76,264,184632,2,0,L|160:273,1,65,10|0,0:0|0:0,0:0:0:0:
249,194,184976,6,0,P|188:186|167:191,1,65,4|0,3:2|0:0,0:0:0:0:
100,177,185321,2,0,P|86:142|118:39,1,130,8|0,0:0|0:0,0:0:0:0:
172,3,185839,1,0,3:0:0:0:
232,61,186011,2,0,L|227:117,2,32.5,10|0|0,0:0|0:0|0:0,0:0:0:0:
303,15,186356,5,0,3:0:0:0:
363,73,186528,2,0,L|358:129,2,32.5,2|0|8,0:0|0:0|0:0,0:0:0:0:
431,23,186873,1,0,0:0:0:0:
491,81,187045,2,0,L|486:137,2,32.5,2|0|0,0:0|0:0|3:0,0:0:0:0:
425,160,187390,2,0,L|422:192,2,32.5,10|0|2,0:0|0:0|0:0,0:0:0:0:
360,105,187735,6,0,P|304:108|273:121,1,65,2|0,3:2|0:0,0:0:0:0:
211,117,188080,1,8,0:0:0:0:
249,53,188252,2,0,L|261:188,1,130,2|0,3:2|3:0,0:0:0:0:
256,270,188770,2,0,L|172:261,1,65,10|0,0:0|0:0,0:0:0:0:
121,216,189114,6,0,P|89:259|96:355,2,130,0|0|0,3:0|0:0|0:0,0:0:0:0:
197,179,189976,1,0,0:0:0:0:
125,133,190149,1,14,0:0:0:0:
125,133,190494,6,0,L|16:144,2,97.50000371933,6|10|2,3:2|0:0|0:0,0:0:0:0:
191,102,191356,1,0,3:0:0:0:
131,60,191528,2,0,P|129:39|131:25,2,24.3750009298325,10|0|2,0:0|0:0|0:0,0:0:0:0:
191,102,191873,5,0,3:0:0:0:
263,90,192045,2,0,P|282:98|293:107,2,24.3750009298325,2|0|10,0:0|0:0|0:0,0:0:0:0:
169,203,192563,2,0,P|151:215|138:220,2,24.3750009298325,2|0|2,0:2|0:0|3:2,0:0:0:0:
241,194,192908,2,0,P|239:173|241:159,2,24.3750009298325,10|0|2,0:0|0:0|0:0,0:0:0:0:
212,261,193252,6,0,P|210:307|227:374,2,97.50000371933,2|10|2,3:2|0:0|0:0,0:0:0:0:
241,194,194114,1,0,3:0:0:0:
282,254,194287,2,0,L|321:251,2,24.3750009298325,10|0|2,0:0|0:0|0:0,0:0:0:0:
270,326,194632,6,0,L|387:315,1,97.50000371933,0|8,3:0|0:0,0:0:0:0:
378,244,195149,2,0,L|387:146,1,97.50000371933,0|0,3:0|3:0,0:0:0:0:
382,73,195666,2,0,L|357:75,3,24.3750009298325,10|0|2|0,0:0|0:0|0:0|0:0,0:0:0:0:
321,71,196011,6,0,P|288:65|209:85,2,97.50000371933,4|10|2,3:2|0:0|0:0,0:0:0:0:
318,144,196873,1,0,3:0:0:0:
384,173,197045,2,0,P|393:187|407:213,2,24.3750009298325,10|0|2,0:0|0:0|0:0,0:0:0:0:
429,115,197390,5,0,3:0:0:0:
394,50,197563,2,0,P|401:34|417:9,2,24.3750009298325,2|0|10,0:0|0:0|0:0,0:0:0:0:
323,71,197908,1,0,0:0:0:0:
320,143,198080,2,0,P|308:155|286:176,2,24.3750009298325,2|0|2,0:0|0:0|3:2,0:0:0:0:
256,106,198425,2,0,P|239:108|209:110,2,24.3750009298325,10|0|2,0:0|0:0|0:0,0:0:0:0:
217,186,198770,6,0,L|152:181,1,48.750001859665,4|0,3:2|0:0,0:0:0:0:
94,173,199114,1,8,0:0:0:0:
89,256,199287,2,0,L|154:261,1,48.750001859665,4|0,3:2|0:0,0:0:0:0:
212,269,199631,1,8,0:0:0:0:
173,340,199804,1,10,0:0:0:0:
173,340,199890,1,0,0:0:0:0:
173,340,199976,1,6,3:2:0:0:
