osu file format v14

[General]
AudioFilename: audio.mp3
AudioLeadIn: 0
PreviewTime: 67563
Countdown: 0
SampleSet: Soft
StackLeniency: 0.2
Mode: 0
LetterboxInBreaks: 0
WidescreenStoryboard: 1

[Editor]
Bookmarks: 69114
DistanceSpacing: 1
BeatDivisor: 2
GridSize: 16
TimelineZoom: 2.9

[Metadata]
Title:Wakusei Rabbit (feat. TORIENA)
TitleUnicode:惑星ラビット (feat. TORIENA)
Artist:Yunomi
ArtistUnicode:Yunomi
Creator:Nathan
Version:Easy
Source:
Tags:trap snownino_ snownino sukinathan doormat
BeatmapID:1134565
BeatmapSetID:504171

[Difficulty]
HPDrainRate:2
CircleSize:3
OverallDifficulty:2
ApproachRate:3
SliderMultiplier:0.899999999999999
SliderTickRate:1

[Events]
//Background and Video events
0,0,"pyonnn.jpg",0,0
//Break Periods
2,146556,155950
//Storyboard Layer 0 (Background)
//Storyboard Layer 1 (Fail)
//Storyboard Layer 2 (Pass)
//Storyboard Layer 3 (Foreground)
//Storyboard Sound Samples

[TimingPoints]
2908,344.827586206897,4,2,1,80,1,0
2908,-100,4,2,1,80,0,0
4459,-100,4,2,1,80,0,0
4976,-100,4,2,1,80,0,0
5321,-100,4,2,1,80,0,0
5666,-100,4,2,1,80,0,0
8425,-100,4,2,4,60,0,0
9804,-100,4,2,1,70,0,0
9976,-100,4,2,1,70,0,0
10494,-100,4,2,1,70,0,0
10839,-100,4,2,1,70,0,0
12563,-100,4,2,1,20,0,0
12649,-100,4,2,1,5,0,0
12735,-100,4,2,1,30,0,0
12821,-100,4,2,1,5,0,0
12908,-100,4,2,1,40,0,0
12994,-100,4,2,1,5,0,0
13080,-100,4,2,1,50,0,0
13166,-100,4,2,1,5,0,0
13252,-100,4,2,1,60,0,0
13339,-100,4,2,1,5,0,0
13425,-100,4,2,1,70,0,0
13511,-100,4,2,1,5,0,0
13597,-100,4,2,3,80,0,0
13942,-100,4,2,3,80,0,0
19114,-100,4,2,1,80,0,0
19201,-100,4,2,3,80,0,0
24976,-100,4,2,2,80,0,0
30149,-100,4,2,1,80,0,0
30494,-100,4,2,2,80,0,0
35666,-100,4,2,1,80,0,0
37563,-100,4,2,1,80,0,0
38080,-100,4,2,1,80,0,0
38425,-100,4,2,1,80,0,0
38770,-100,4,2,1,80,0,0
43080,-100,4,2,1,80,0,0
43597,-100,4,2,1,80,0,0
43942,-100,4,2,1,80,0,0
44287,-100,4,2,1,80,0,0
47045,-100,4,2,1,80,0,0
58080,-100,4,2,4,70,0,0
63597,-100,4,2,4,80,0,0
69114,-100,4,2,3,80,0,1
78770,-100,4,2,3,80,0,0
80149,-100,4,2,1,80,0,1
81701,-100,4,2,1,80,0,1
82218,-100,4,2,1,80,0,1
82563,-100,4,2,1,80,0,1
82908,-100,4,2,1,80,0,1
87218,-100,4,2,1,80,0,1
87735,-100,4,2,1,80,0,1
88080,-100,4,2,1,80,0,1
88425,-100,4,2,1,80,0,1
91183,-100,4,2,1,80,0,0
98252,-100,4,2,1,80,0,0
98770,-100,4,2,1,80,0,0
99114,-100,4,2,1,80,0,0
99459,-100,4,2,1,80,0,0
102218,-100,4,2,4,80,0,0
121528,-100,4,2,1,80,0,0
124287,-100,4,2,1,80,0,1
124976,-100,4,2,3,80,0,1
125666,-100,4,2,3,80,0,1
126701,-100,4,2,3,80,0,1
127045,-100,4,2,3,80,0,1
127735,-100,4,2,3,80,0,1
128425,-100,4,2,3,80,0,1
129114,-100,4,2,3,80,0,1
129804,-100,4,2,3,80,0,1
130494,-100,4,2,3,80,0,1
131183,-100,4,2,3,80,0,1
132218,-100,4,2,3,80,0,1
132563,-100,4,2,3,80,0,1
133252,-100,4,2,3,80,0,1
133942,-100,4,2,3,80,0,0
134632,-100,4,2,3,80,0,0
134976,-100,4,2,3,80,0,0
135321,-100,4,2,3,80,0,1
136701,-100,4,2,3,80,0,1
137735,-100,4,2,3,80,0,1
138080,-100,4,2,3,80,0,1
138770,-100,4,2,3,80,0,1
139459,-100,4,2,3,80,0,1
140149,-100,4,2,3,80,0,1
140839,-100,4,2,3,80,0,1
141528,-100,4,2,3,80,0,1
142218,-100,4,2,3,80,0,1
143252,-100,4,2,3,80,0,1
143597,-100,4,2,3,80,0,1
144287,-100,4,2,3,80,0,1
144976,-100,4,2,1,80,0,0
164287,-100,4,2,2,80,0,0
167045,-100,4,2,1,80,0,0
168166,-100,4,2,1,5,0,0
168425,-100,4,2,3,80,0,1
173597,-100,4,2,1,80,0,1
173683,-100,4,2,3,80,0,1
178080,-100,4,2,3,80,0,0
179459,-100,4,2,1,80,0,1
181011,-100,4,2,1,80,0,1
181528,-100,4,2,1,80,0,1
181873,-100,4,2,1,80,0,1
182218,-100,4,2,1,80,0,1
186528,-100,4,2,1,80,0,1
187045,-100,4,2,1,80,0,1
187390,-100,4,2,1,80,0,1
187735,-100,4,2,1,80,0,1
190494,-100,4,2,1,80,0,0
192045,-100,4,2,1,80,0,0
192563,-100,4,2,1,80,0,0
192908,-100,4,2,1,80,0,0
193252,-100,4,2,1,80,0,0
197563,-100,4,2,1,80,0,0
198080,-100,4,2,1,80,0,0
198425,-100,4,2,1,80,0,0
198770,-100,4,2,1,80,0,0

[Colours]
Combo1 : 255,94,55
Combo2 : 173,255,95
Combo3 : 17,254,176
Combo4 : 255,88,100

[HitObjects]
94,102,2908,6,0,P|50:102|1:94,2,89.9999999999999,2|2|2,0:0|0:0|0:0,0:0:0:0:
166,48,3942,2,0,B|234:31|228:79|304:61,2,135,2|2|2,0:0|0:0|0:0,0:0:0:0:
189,134,5321,1,2,0:0:0:0:
245,204,5666,6,0,L|253:310,2,89.9999999999999,2|2|2,0:0|0:0|0:0,0:0:0:0:
274,118,6701,1,2,0:0:0:0:
332,186,7045,2,0,L|466:199,2,135,0|0|2,0:0|0:0|0:0,0:0:0:0:
274,118,8425,6,0,P|229:116|186:130,1,89.9999999999999,8|8,1:0|1:0,0:0:0:0:
169,219,9114,1,8,0:1:0:0:
88,258,9459,2,0,P|43:259|0:245,2,89.9999999999999,8|0|2,1:0|0:0|1:2,0:0:0:0:
161,310,10494,1,2,1:2:0:0:
243,274,10839,1,2,1:2:0:0:
173,216,11183,6,0,L|184:94,2,89.9999999999999,4|4|4,3:2|3:2|3:2,0:0:0:0:
259,190,12218,1,4,3:2:0:0:
243,274,12563,2,0,B|291:282|323:245|323:245|364:277|407:265|407:265|427:308|427:308|397:362,1,270,0|2,0:0|0:0,0:0:0:0:
318,363,13942,5,6,3:1:0:0:
228,368,14287,2,0,P|183:367|139:358,1,89.9999999999999,10|2,0:1|0:1,0:0:0:0:
55,323,14976,2,0,P|45:279|45:234,2,89.9999999999999,10|2|10,0:1|3:1|0:1,0:0:0:0:
128,271,16011,1,2,0:1:0:0:
212,301,16356,1,10,0:1:0:0:
287,251,16701,6,0,P|340:235|414:245,2,89.9999999999999,2|10|2,3:1|0:1|0:1,0:0:0:0:
212,301,17735,1,10,0:1:0:0:
206,211,18080,2,0,L|219:50,2,135,0|0|10,3:0|3:0|0:1,0:0:0:0:
130,259,19459,6,0,L|16:267,1,89.9999999999999,2|10,3:1|0:1,0:0:0:0:
29,175,20149,1,2,0:1:0:0:
94,113,20494,2,0,L|87:23,2,89.9999999999999,10|2|10,0:1|3:1|0:1,0:0:0:0:
167,165,21528,1,2,0:1:0:0:
186,76,21873,1,10,0:1:0:0:
250,138,22218,6,0,P|308:134|363:119,1,89.9999999999999,2|10,3:1|0:1,0:0:0:0:
404,65,22908,2,0,P|448:67|492:76,1,89.9999999999999,2|10,0:1|0:1,0:0:0:0:
489,165,23597,2,0,L|512:336,2,135,0|0|0,3:0|1:0|1:0,0:0:0:0:
398,159,24976,5,4,3:2:0:0:
337,225,25321,2,0,P|292:226|249:212,2,89.9999999999999,0|0|0,1:0|0:0|1:0,0:0:0:0:
307,139,26356,1,0,3:0:0:0:
218,123,26701,2,0,P|173:121|130:135,2,89.9999999999999,0|0|0,1:0|0:0|1:0,0:0:0:0:
189,208,27735,6,0,B|160:280|211:280|183:370,2,135,2|2|2,3:2|0:0|1:2,0:0:0:0:
270,246,29114,2,0,B|299:174|248:174|276:84,2,135,2|2|8,3:2|1:2|0:0,0:0:0:0:
339,303,30494,5,0,3:0:0:0:
411,250,30839,2,0,L|506:262,2,89.9999999999999,0|0|0,1:0|0:0|1:0,0:0:0:0:
380,165,31873,1,0,3:0:0:0:
320,97,32218,2,0,L|225:109,2,89.9999999999999,0|0|0,1:0|0:0|1:0,0:0:0:0:
294,183,33252,6,0,P|271:246|273:313,1,135,2|2,3:2|3:2,0:0:0:0:
331,381,34114,1,0,3:0:0:0:
382,255,34632,2,0,P|445:232|512:234,2,135,2|0|12,3:2|0:0|0:0,0:0:0:0:
302,297,36011,5,6,3:2:0:0:
249,223,36356,2,0,L|145:230,1,89.9999999999999,10|2,0:0|0:0,0:0:0:0:
69,225,37045,2,0,P|53:289|75:352,2,135,10|2|2,1:2|0:0|0:0,0:0:0:0:
40,139,38425,1,10,0:0:0:0:
95,68,38770,6,0,L|248:77,1,135,2|2,3:2|3:2,0:0:0:0:
361,104,39804,1,10,1:2:0:0:
326,187,40149,2,0,L|173:196,1,135,0|0,3:0|3:0,0:0:0:0:
61,158,41183,1,10,0:0:0:0:
78,246,41528,6,0,L|73:336,1,89.9999999999999,2|10,3:2|0:0,0:0:0:0:
160,359,42218,1,2,0:0:0:0:
248,340,42563,2,0,P|331:306|384:313,2,135,10|2|2,0:0|0:0|0:0,0:0:0:0:
187,273,43942,1,10,0:0:0:0:
269,236,44287,6,0,L|260:88,1,135,2|2,3:2|3:2,0:0:0:0:
188,47,45149,1,2,3:2:0:0:
132,170,45666,2,0,P|65:160|5:130,2,135,0|2|10,3:0|3:2|0:0,0:0:0:0:
214,133,47045,6,0,L|230:293,2,135,2|2|0,0:0|0:0|0:0,0:0:0:0:
303,145,48425,2,0,L|316:10,2,135,2|2|0,0:0|0:0|0:0,0:0:0:0:
345,224,49804,6,0,P|407:206|450:209,2,89.9999999999999,2|2|2,0:0|0:0|0:0,0:0:0:0:
211,344,51183,2,0,P|166:341|124:326,2,89.9999999999999,0|2|2,0:0|0:0|0:0,0:0:0:0:
263,270,52218,1,0,0:0:0:0:
178,239,52563,6,0,P|112:224|32:277,2,135,2|2|0,0:0|0:0|0:0,0:0:0:0:
241,175,53942,2,0,P|301:201|366:186,2,135,2|2|0,0:0|0:0|0:0,0:0:0:0:
157,140,55321,6,0,L|142:26,2,89.9999999999999,2|2|2,0:0|0:0|0:0,0:0:0:0:
97,310,56701,2,0,L|-17:295,2,89.9999999999999,0|2|2,0:0|0:0|0:0,0:0:0:0:
269,360,58080,6,0,P|320:337|390:340,1,89.9999999999999,8|8,1:0|1:0,0:0:0:0:
413,266,58770,2,0,P|367:233|335:171,1,89.9999999999999,8|8,1:0|1:0,0:0:0:0:
269,162,59459,2,0,P|263:217|198:304,2,135,8|0|8,1:0|1:0|1:0,0:0:0:0:
179,152,60839,6,0,L|64:145,1,89.9999999999999,8|8,1:0|1:0,0:0:0:0:
96,57,61528,2,0,L|211:64,1,89.9999999999999,8|8,1:0|1:0,0:0:0:0:
275,73,62218,2,0,L|390:80,2,89.9999999999999,8|8|8,1:0|1:0|1:0,0:0:0:0:
269,162,63252,1,8,1:0:0:0:
346,207,63597,6,0,P|359:247|358:295,1,89.9999999999999,8|8,0:0|0:0,0:0:0:0:
296,360,64287,2,0,P|256:373|207:372,1,89.9999999999999,8|8,0:0|0:0,0:0:0:0:
132,324,64976,2,0,P|119:284|119:235,1,89.9999999999999,8|8,0:0|0:0,0:0:0:0:
196,188,65666,1,8,0:0:0:0:
116,145,66011,1,8,0:0:0:0:
195,103,66356,6,0,B|272:108|284:189|284:189|354:169|354:169|398:189|456:195,1,315,8|8,0:0|0:0,0:0:0:0:
175,339,68770,1,2,0:0:0:0:
206,255,69114,5,6,3:2:0:0:
117,271,69459,2,0,B|70:277|70:277|28:261,1,89.9999999999999,10|2,0:0|0:0,0:0:0:0:
11,173,70149,2,0,B|5:126|5:126|21:84,2,89.9999999999999,10|0|10,0:0|3:0|0:0,0:0:0:0:
98,153,71183,1,2,0:0:0:0:
169,207,71528,1,10,0:0:0:0:
250,169,71873,6,0,L|360:185,2,89.9999999999999,2|10|2,3:2|0:0|0:0,0:0:0:0:
262,258,72907,1,10,0:0:0:0:
235,344,73252,2,0,L|74:357,2,135,0|0|10,3:0|3:0|0:0,0:0:0:0:
328,328,74632,6,0,B|372:323|372:323|420:349,1,89.9999999999999,6|10,3:2|2:0,0:0:0:0:
497,374,75321,1,2,2:0:0:0:
481,285,75666,2,0,L|474:195,2,89.9999999999999,10|0|10,0:0|3:0|0:0,0:0:0:0:
396,253,76700,1,2,0:0:0:0:
319,299,77045,1,10,0:0:0:0:
237,260,77390,6,0,B|192:264|192:264|145:239,1,89.9999999999999,2|10,3:2|0:0,0:0:0:0:
173,155,78080,2,0,B|217:150|217:150|265:176,1,89.9999999999999,2|10,0:0|0:0,0:0:0:0:
341,138,78769,2,0,B|348:189|348:189|332:224|332:224|341:285,2,135,0|0|0,3:0|1:0|1:0,0:0:0:0:
274,76,80149,6,0,P|229:76|184:68,1,89.9999999999999,6|8,3:2|0:0,0:0:0:0:
127,138,80839,1,0,0:0:0:0:
40,115,81183,2,0,P|39:159|47:204,1,89.9999999999999,10|0,0:0|3:0,0:0:0:0:
68,292,81873,1,8,0:0:0:0:
134,228,82218,1,2,0:0:0:0:
151,316,82563,1,10,0:0:0:0:
218,256,82908,6,0,L|317:246,1,89.9999999999999,0|8,3:0|0:0,0:0:0:0:
397,238,83597,1,0,0:0:0:0:
345,164,83942,1,10,0:0:0:0:
434,151,84287,2,0,P|479:199|471:298,2,135,0|0|8,3:0|3:0|0:0,0:0:0:0:
384,75,85666,6,0,P|326:73|273:62,1,89.9999999999999,4|8,3:2|0:0,0:0:0:0:
206,46,86356,1,0,0:0:0:0:
235,131,86701,2,0,P|177:133|124:144,1,89.9999999999999,10|0,0:0|3:0,0:0:0:0:
89,68,87390,1,8,0:0:0:0:
58,152,87735,1,2,0:0:0:0:
113,223,88080,1,10,0:0:0:0:
202,231,88425,6,0,P|237:273|175:333,2,135,2|2|10,3:2|3:2|0:0,0:0:0:0:
184,142,89804,2,0,B|246:127|294:182|294:182|356:174|389:128|389:128|358:64|301:44,1,360,0|4,3:0|0:0,0:0:0:0:
214,39,91528,6,0,P|165:43|120:56,1,89.9999999999999,2|2,0:0|0:0,0:0:0:0:
93,138,92218,1,2,0:0:0:0:
95,227,92563,2,0,L|-9:221,2,89.9999999999999,2|0|2,0:0|0:0|0:0,0:0:0:0:
169,176,93597,1,2,0:0:0:0:
177,265,93942,2,0,P|242:244|345:253,2,135,2|2|2,0:0|0:0|0:0,0:0:0:0:
169,176,95321,2,0,P|169:108|190:44,2,135,2|2|10,0:0|0:0|1:2,0:0:0:0:
252,141,96701,6,0,P|311:148|359:150,1,89.9999999999999,6|10,3:2|0:0,0:0:0:0:
422,110,97390,1,2,0:0:0:0:
466,188,97735,2,0,L|445:348,2,135,10|2|2,0:0|0:0|0:0,0:0:0:0:
509,109,99114,1,10,0:0:0:0:
448,42,99459,6,0,L|296:60,1,135,2|2,3:2|3:2,0:0:0:0:
264,132,100321,1,0,3:0:0:0:
135,173,100839,2,0,P|72:148|5:139,2,135,2|2|8,3:2|3:2|0:0,0:0:0:0:
205,229,102218,6,0,L|197:363,2,135,12|0|8,3:2|3:0|3:2,0:0:0:0:
277,175,103597,2,0,L|284:40,2,135,8|0|8,3:2|3:0|3:2,0:0:0:0:
330,247,104976,6,0,P|399:243|483:268,1,135,8|0,3:2|3:0,0:0:0:0:
376,363,106011,1,8,3:2:0:0:
291,332,106356,2,0,P|222:336|138:311,1,135,8|0,3:2|3:0,0:0:0:0:
245,216,107391,1,8,3:2:0:0:
156,202,107735,6,0,L|11:214,2,135,8|0|8,3:2|3:0|3:0,0:0:0:0:
214,133,109114,2,0,L|225:-1,2,135,8|0|8,3:2|3:0|3:2,0:0:0:0:
285,187,110494,6,0,P|305:251|304:318,1,135,8|0,3:2|3:0,0:0:0:0:
176,275,111528,1,8,3:2:0:0:
137,356,111873,2,0,P|69:357|5:336,1,135,8|0,3:1|3:0,0:0:0:0:
17,202,112907,1,8,0:0:0:0:
96,160,113252,6,0,L|106:39,1,89.9999999999999,14|8,3:2|0:0,0:0:0:0:
188,40,113942,2,0,L|309:30,1,89.9999999999999,8|8,0:0|1:0,0:0:0:0:
346,90,114632,2,0,P|409:70|448:35,2,89.9999999999999,8|8|8,0:0|1:0|1:0,0:0:0:0:
352,179,115666,1,8,0:0:0:0:
270,139,116011,6,0,P|258:189|264:251,1,89.9999999999999,8|8,0:0|1:0,0:0:0:0:
232,313,116701,2,0,P|276:313|320:301,1,89.9999999999999,8|8,1:0|1:0,0:0:0:0:
409,290,117390,2,0,L|417:182,2,89.9999999999999,8|8|8,1:0|1:0|1:0,0:0:0:0:
458,365,118425,1,8,1:0:0:0:
368,368,118770,6,0,L|267:358,1,89.9999999999999,8|8,1:0|0:0,0:0:0:0:
189,370,119459,1,8,0:0:0:0:
228,288,119804,1,8,1:0:0:0:
138,292,120149,2,0,P|130:232|134:201,1,89.9999999999999,8|8,1:0|1:0,0:0:0:0:
163,117,120839,1,8,0:0:0:0:
228,178,121183,1,8,1:0:0:0:
251,91,121528,6,0,L|359:105,2,89.9999999999999,2|2|2,0:0|0:0|0:0,0:0:0:0:
128,34,122735,1,2,0:0:0:0:
47,244,123597,2,0,P|108:266|157:262,1,89.9999999999999,0|2,1:0|0:0,0:0:0:0:
222,268,124287,6,0,B|255:266|255:266|279:275|279:275|317:273,1,89.9999999999999,6|2,3:1|0:1,0:0:0:0:
391,301,124976,1,10,0:1:0:0:
374,212,125321,2,0,L|385:99,1,89.9999999999999,2|2,3:1|0:1,0:0:0:0:
362,34,126011,1,2,3:1:0:0:
294,93,126356,2,0,B|243:112|243:112|187:101,1,89.9999999999999,10|2,0:1|3:1,0:0:0:0:
118,110,127045,6,0,B|119:144|119:144|131:165|131:165|136:233,1,89.9999999999999,2|2,3:1|0:1,0:0:0:0:
99,280,127735,1,10,0:1:0:0:
187,264,128080,2,0,L|291:275,1,89.9999999999999,2|2,3:1|0:1,0:0:0:0:
324,350,128770,1,2,3:1:0:0:
372,274,129114,1,10,0:1:0:0:
320,200,129459,1,10,0:1:0:0:
409,188,129804,6,0,B|422:148|422:148|402:85,1,89.9999999999999,2|2,3:1|0:1,0:0:0:0:
337,45,130494,1,10,0:1:0:0:
254,80,130839,2,0,L|164:89,1,89.9999999999999,2|0,3:1|0:0,0:0:0:0:
90,141,131528,1,2,3:1:0:0:
172,177,131873,2,0,B|183:219|183:219|168:289,1,89.9999999999999,10|2,0:1|3:1,0:0:0:0:
115,334,132563,5,2,3:1:0:0:
202,353,132908,1,2,0:1:0:0:
260,285,133252,2,0,B|297:287|297:287|320:299|320:299|368:302,2,89.9999999999999,10|2|0,0:1|3:1|0:0,0:0:0:0:
82,253,134632,1,0,1:0:0:0:
144,188,134976,1,0,1:0:0:0:
55,172,135321,6,0,B|50:141|50:141|45:126|45:126|47:108|47:108|45:83,1,89.9999999999999,6|2,3:1|3:1,0:0:0:0:
121,35,136011,2,0,B|181:32|181:32|214:53,1,89.9999999999999,6|2,3:1|3:1,0:0:0:0:
247,128,136701,1,4,3:1:0:0:
294,51,137045,1,2,3:1:0:0:
337,129,137390,2,0,B|362:145|362:145|422:142,1,89.9999999999999,4|2,3:1|3:1,0:0:0:0:
494,88,138080,6,0,B|511:126|511:126|500:192,1,89.9999999999999,6|2,3:1|3:1,0:0:0:0:
434,232,138770,2,0,B|398:235|398:235|378:248|378:248|328:253,1,89.9999999999999,6|2,3:1|3:1,0:0:0:0:
258,249,139459,2,0,B|222:246|222:246|202:233|202:233|152:228,1,89.9999999999999,4|2,3:1|3:1,0:0:0:0:
163,319,140149,1,2,0:1:0:0:
86,271,140494,1,2,0:1:0:0:
98,181,140839,6,0,B|78:142|78:142|106:60,1,89.9999999999999,6|2,3:1|3:1,0:0:0:0:
166,46,141528,2,0,B|189:41|189:41|208:43|208:43|224:37|224:37|253:39,2,89.9999999999999,6|2|6,3:1|3:1|3:1,0:0:0:0:
173,136,142563,1,2,3:1:0:0:
230,204,142908,2,0,B|240:246|240:246|222:325,1,89.9999999999999,6|2,3:1|0:1,0:0:0:0:
153,324,143597,6,0,B|147:295|147:295|149:270|149:270|141:230,1,89.9999999999999,6|2,3:1|3:1,0:0:0:0:
63,191,144287,2,0,B|69:162|69:162|67:137|67:137|75:97,1,89.9999999999999,6|2,3:1|3:1,0:0:0:0:
163,105,144976,2,0,B|197:101|225:114|225:114|255:100|255:100|301:142|301:142|335:127|335:127|374:140|434:141,1,270,6|0,3:2|1:0,0:0:0:0:
481,87,146356,5,6,3:2:0:0:
143,155,157390,6,0,P|94:142|31:140,2,89.9999999999999,8|8|8,0:0|1:0|1:0,0:0:0:0:
210,95,158425,1,8,1:0:0:0:
220,184,158770,2,0,L|205:272,1,89.9999999999999,8|8,1:0|1:0,0:0:0:0:
146,340,159459,1,8,1:0:0:0:
233,360,159804,1,8,1:0:0:0:
296,296,160149,6,0,P|345:283|408:281,2,89.9999999999999,8|8|8,1:0|1:0|1:0,0:0:0:0:
204,272,161183,1,8,1:0:0:0:
269,210,161528,2,0,P|281:166|285:121,1,89.9999999999999,8|8,1:0|1:0,0:0:0:0:
206,78,162218,1,8,1:0:0:0:
283,31,162563,1,0,1:0:0:0:
357,82,162908,6,0,L|465:86,1,89.9999999999999,8|8,0:0|0:0,0:0:0:0:
494,162,163597,1,8,0:0:0:0:
423,218,163942,1,8,0:0:0:0:
497,267,164287,1,8,0:0:0:0:
256,192,164459,12,0,165666,0:0:0:0:
256,192,167045,6,0,P|168:120|150:253,1,270,0|2,0:0|0:0,0:0:0:0:
207,265,168425,5,2,3:1:0:0:
135,320,168770,2,0,B|88:326|46:310,1,89.9999999999999,10|2,0:1|0:1,0:0:0:0:
6,229,169459,2,0,B|0:182|16:140,2,89.9999999999999,10|2|10,0:1|3:1|0:1,0:0:0:0:
96,235,170494,1,2,0:1:0:0:
46,310,170839,1,10,0:1:0:0:
135,318,171184,6,0,L|245:334,2,89.9999999999999,2|10|2,3:1|0:1|0:1,0:0:0:0:
96,235,172218,1,10,0:1:0:0:
156,168,172563,2,0,L|143:7,2,135,2|2|10,3:1|3:1|0:1,0:0:0:0:
234,213,173943,6,0,P|281:215|326:234,1,89.9999999999999,6|10,3:1|0:1,0:0:0:0:
365,308,174632,1,2,0:1:0:0:
412,231,174977,2,0,L|405:141,2,89.9999999999999,10|0|10,0:1|3:0|0:1,0:0:0:0:
457,308,176011,1,2,0:1:0:0:
365,308,176356,1,10,0:1:0:0:
276,323,176701,6,0,P|243:308|184:302,1,89.9999999999999,2|10,3:1|0:1,0:0:0:0:
185,211,177390,2,0,P|229:206|270:189,1,89.9999999999999,2|10,0:1|0:1,0:0:0:0:
249,101,178080,2,0,B|317:84|314:130|380:120,2,135,0|0|0,3:0|1:0|1:0,0:0:0:0:
161,123,179460,6,0,L|71:115,1,89.9999999999999,4|8,3:2|0:0,0:0:0:0:
80,204,180150,1,0,0:0:0:0:
18,269,180494,2,0,P|17:313|25:358,1,89.9999999999999,10|0,0:0|3:0,0:0:0:0:
104,315,181184,1,8,0:0:0:0:
186,350,181529,1,2,0:0:0:0:
254,291,181874,1,10,0:0:0:0:
330,338,182219,6,0,L|429:328,1,89.9999999999999,0|8,3:0|0:0,0:0:0:0:
445,242,182908,1,0,0:0:0:0:
363,203,183253,1,10,0:0:0:0:
440,157,183597,2,0,P|451:73|440:18,2,135,2|2|10,3:2|3:2|0:0,0:0:0:0:
358,118,184977,6,0,P|300:116|247:105,1,89.9999999999999,4|8,3:2|0:0,0:0:0:0:
207,56,185667,1,0,0:0:0:0:
180,142,186012,2,0,P|180:186|187:231,1,89.9999999999999,10|0,0:0|3:0,0:0:0:0:
274,210,186701,1,8,0:0:0:0:
247,296,187046,1,2,0:0:0:0:
334,273,187391,1,10,0:0:0:0:
366,189,187736,6,0,P|412:231|413:309,2,135,2|0|10,3:2|0:0|0:0,0:0:0:0:
411,111,189114,2,0,B|368:90|320:110|320:110|268:50|268:50|223:67|208:121,1,270,0|14,3:0|0:0,0:0:0:0:
268,188,190494,5,6,3:2:0:0:
182,214,190839,2,0,L|77:203,1,89.9999999999999,10|2,0:0|0:0,0:0:0:0:
22,147,191528,2,0,L|5:-15,2,135,10|2|2,0:0|0:0|0:2,0:0:0:0:
108,119,192908,1,10,0:0:0:0:
196,101,193252,6,0,P|263:117|300:135,1,89.9999999999999,2|10,3:2|0:0,0:0:0:0:
263,213,193942,2,0,P|330:197|367:179,1,89.9999999999999,2|10,0:0|0:0,0:0:0:0:
396,111,194632,2,0,P|431:159|420:244,2,135,0|0|10,3:0|3:0|0:0,0:0:0:0:
331,48,196011,5,4,3:2:0:0:
250,89,196356,2,0,L|241:-9,1,89.9999999999999,10|2,0:0|0:0,0:0:0:0:
161,39,197045,2,0,L|14:28,2,135,10|2|2,0:0|0:0|0:0,0:0:0:0:
169,128,198425,1,10,0:0:0:0:
89,169,198770,6,0,P|81:235|110:323,1,135,4|4,3:2|3:2,0:0:0:0:
180,335,199632,1,8,0:0:0:0:
259,293,199976,1,6,3:2:0:0:
