osu file format v14

[General]
AudioFilename: audio.mp3
AudioLeadIn: 0
PreviewTime: 67563
Countdown: 0
SampleSet: Soft
StackLeniency: 0.2
Mode: 0
LetterboxInBreaks: 0
WidescreenStoryboard: 1

[Editor]
Bookmarks: 69114
DistanceSpacing: 1
BeatDivisor: 4
GridSize: 4
TimelineZoom: 1.500001

[Metadata]
Title:Wakusei Rabbit (feat. TORIENA)
TitleUnicode:惑星ラビット (feat. TORIENA)
Artist:Yunomi
ArtistUnicode:Yunomi
Creator:Nathan
Version:Doormat's Normal
Source:
Tags:trap snownino_ snownino sukinathan doormat
BeatmapID:1173883
BeatmapSetID:504171

[Difficulty]
HPDrainRate:4
CircleSize:3.3
OverallDifficulty:4
ApproachRate:4
SliderMultiplier:1.1
SliderTickRate:1

[Events]
//Background and Video events
0,0,"pyonnn.jpg",0,0
//Break Periods
2,146556,156070
//Storyboard Layer 0 (Background)
//Storyboard Layer 1 (Fail)
//Storyboard Layer 2 (Pass)
//Storyboard Layer 3 (Foreground)
//Storyboard Sound Samples

[TimingPoints]
2908,344.827586206897,4,2,1,80,1,0
2908,-100,4,2,1,80,0,0
4459,-100,4,2,1,80,0,0
4976,-100,4,2,1,80,0,0
5321,-100,4,2,1,80,0,0
5666,-100,4,2,1,80,0,0
8425,-100,4,2,4,60,0,0
9804,-100,4,2,1,70,0,0
9976,-100,4,2,1,70,0,0
10494,-100,4,2,1,70,0,0
10839,-100,4,2,1,70,0,0
12563,-100,4,2,1,80,0,0
12649,-100,4,2,1,80,0,0
12735,-100,4,2,1,80,0,0
12821,-100,4,2,1,80,0,0
12908,-100,4,2,1,80,0,0
12994,-100,4,2,1,80,0,0
13080,-100,4,2,1,80,0,0
13166,-100,4,2,1,80,0,0
13252,-100,4,2,1,80,0,0
13339,-100,4,2,1,80,0,0
13425,-100,4,2,1,80,0,0
13511,-100,4,2,1,80,0,0
13597,-100,4,2,1,80,0,0
13942,-100,4,2,3,80,0,0
19114,-100,4,2,1,80,0,0
19201,-100,4,2,3,80,0,0
24976,-100,4,2,2,80,0,0
30149,-100,4,2,1,80,0,0
30494,-100,4,2,2,80,0,0
35666,-100,4,2,1,80,0,0
37563,-100,4,2,1,80,0,0
38080,-100,4,2,1,80,0,0
38425,-100,4,2,1,80,0,0
38770,-100,4,2,1,80,0,0
43080,-100,4,2,1,80,0,0
43597,-100,4,2,1,80,0,0
43942,-100,4,2,1,80,0,0
44287,-100,4,2,1,80,0,0
47045,-100,4,2,1,80,0,0
58080,-100,4,2,4,70,0,0
63597,-100,4,2,4,80,0,0
69114,-100,4,2,3,80,0,1
78770,-100,4,2,3,80,0,0
80149,-100,4,2,1,80,0,1
81701,-100,4,2,1,80,0,1
82218,-100,4,2,1,80,0,1
82563,-100,4,2,1,80,0,1
82908,-100,4,2,1,80,0,1
87218,-100,4,2,1,80,0,1
87735,-100,4,2,1,80,0,1
88080,-100,4,2,1,80,0,1
88425,-100,4,2,1,80,0,1
91183,-100,4,2,1,80,0,0
98252,-100,4,2,1,80,0,0
98770,-100,4,2,1,80,0,0
99114,-100,4,2,1,80,0,0
99459,-100,4,2,1,80,0,0
102218,-100,4,2,4,80,0,0
121528,-100,4,2,1,80,0,0
124287,-100,4,2,1,80,0,1
124976,-100,4,2,3,80,0,1
125666,-100,4,2,3,80,0,1
126701,-100,4,2,3,80,0,1
127045,-100,4,2,3,80,0,1
127735,-100,4,2,3,80,0,1
128425,-100,4,2,3,80,0,1
129114,-100,4,2,3,80,0,1
129804,-100,4,2,3,80,0,1
130494,-100,4,2,3,80,0,1
131183,-100,4,2,3,80,0,1
132218,-100,4,2,3,80,0,1
132563,-100,4,2,3,80,0,1
133252,-100,4,2,3,80,0,1
133942,-100,4,2,3,80,0,0
134632,-100,4,2,3,80,0,0
134976,-100,4,2,3,80,0,0
135321,-100,4,2,3,80,0,1
136701,-100,4,2,3,80,0,1
137735,-100,4,2,3,80,0,1
138080,-100,4,2,3,80,0,1
138770,-100,4,2,3,80,0,1
139459,-100,4,2,3,80,0,1
140149,-100,4,2,3,80,0,1
140839,-100,4,2,3,80,0,1
141528,-100,4,2,3,80,0,1
142218,-100,4,2,3,80,0,1
143252,-100,4,2,3,80,0,1
143597,-100,4,2,3,80,0,1
144287,-100,4,2,3,80,0,1
144976,-100,4,2,1,80,0,0
164287,-100,4,2,2,80,0,0
167045,-100,4,2,1,80,0,0
168166,-100,4,2,1,80,0,0
168425,-100,4,2,3,80,0,1
173597,-100,4,2,1,80,0,1
173683,-100,4,2,3,80,0,1
178080,-100,4,2,3,80,0,0
179459,-100,4,2,1,80,0,1
181011,-100,4,2,1,80,0,1
181528,-100,4,2,1,80,0,1
181873,-100,4,2,1,80,0,1
182218,-100,4,2,1,80,0,1
186528,-100,4,2,1,80,0,1
187045,-100,4,2,1,80,0,1
187390,-100,4,2,1,80,0,1
187735,-100,4,2,1,80,0,1
190494,-100,4,2,1,80,0,0
192045,-100,4,2,1,80,0,0
192563,-100,4,2,1,80,0,0
192908,-100,4,2,1,80,0,0
193252,-100,4,2,1,80,0,0
197563,-100,4,2,1,80,0,0
198080,-100,4,2,1,80,0,0
198425,-100,4,2,1,80,0,0
198770,-100,4,2,1,80,0,0

[Colours]
Combo1 : 255,94,55
Combo2 : 173,255,95
Combo3 : 17,254,176
Combo4 : 255,88,100

[HitObjects]
400,252,2908,5,2,0:0:0:0:
325,333,3252,1,2,0:0:0:0:
224,286,3597,1,2,0:0:0:0:
236,175,3942,1,2,0:0:0:0:
344,152,4287,2,0,P|398:143|452:147,1,110,0|2,0:0|0:0,0:0:0:0:
453,37,4976,2,0,P|398:45|344:41,1,110,2|2,0:0|0:0,0:0:0:0:
240,4,5666,5,2,0:0:0:0:
172,91,6011,1,2,0:0:0:0:
233,182,6356,1,2,0:0:0:0:
339,151,6701,1,2,0:0:0:0:
400,242,7045,2,0,L|384:360,2,110,0|0|0,0:0|0:0|0:0,0:0:0:0:
506,211,8080,1,2,0:0:0:0:
440,120,8425,6,0,L|385:123,1,55,8|8,1:0|0:1,0:0:0:0:
339,151,8770,2,0,L|284:154,1,55,8|8,1:0|1:0,0:0:0:0:
238,182,9114,2,0,L|183:178,1,55,8|8,0:1|0:1,0:0:0:0:
137,151,9459,2,0,L|82:148,1,55,8|8,1:0|1:0,0:0:0:0:
32,171,9804,2,0,P|39:226|36:281,1,110,0|2,0:0|1:2,0:0:0:0:
132,336,10494,2,0,P|175:302|224:277,1,110,2|2,1:2|1:2,0:0:0:0:
332,268,11183,5,4,3:2:0:0:
355,162,11528,1,4,3:2:0:0:
248,172,11872,1,4,3:2:0:0:
224,277,12218,2,0,L|232:344,1,55,4|4,3:2|3:2,0:0:0:0:
488,88,13942,6,0,L|378:99,1,110,6|10,3:1|0:1,0:0:0:0:
276,139,14632,2,0,L|207:131,1,55,2|0,0:1|3:0,0:0:0:0:
168,128,14976,1,10,0:1:0:0:
76,188,15321,2,0,P|64:252|80:308,1,110,2|10,3:1|0:1,0:0:0:0:
172,344,16011,2,0,L|225:332,1,55,2|2,0:1|3:1,0:0:0:0:
276,356,16356,2,0,L|329:344,1,55,10|2,0:1|0:1,0:0:0:0:
380,368,16701,6,0,P|376:328|388:256,1,110,2|10,3:1|0:1,0:0:0:0:
452,172,17390,2,0,P|456:128|452:108,1,55,2|0,0:1|3:0,0:0:0:0:
440,64,17735,1,10,0:1:0:0:
335,104,18080,2,0,P|283:117|229:108,1,110,0|8,3:0|0:0,0:0:0:0:
184,76,18597,2,0,P|130:66|77:80,1,110,0|0,3:0|3:0,0:0:0:0:
40,120,19114,1,10,0:1:0:0:
104,208,19459,6,0,L|92:324,1,110,2|10,3:1|0:1,0:0:0:0:
184,380,20149,2,0,P|200:343|202:314,1,55,2|0,0:1|3:0,0:0:0:0:
208,276,20494,1,10,0:1:0:0:
308,320,20839,2,0,P|364:324|424:304,1,110,2|10,3:1|0:1,0:0:0:0:
468,212,21528,2,0,L|460:157,1,55,2|2,0:1|3:1,0:0:0:0:
424,116,21873,2,0,L|431:61,1,55,10|0,0:1|0:0,0:0:0:0:
464,15,22218,6,0,P|409:24|355:15,1,110,2|10,3:1|0:1,0:0:0:0:
300,4,22735,1,0,3:0:0:0:
300,4,22908,2,0,L|304:72,1,55,2|0,0:1|3:0,0:0:0:0:
308,112,23252,1,10,0:1:0:0:
200,84,23597,2,0,P|154:72|106:92,2,82.5,0|0|0,3:0|1:0|1:0,0:0:0:0:
216,136,24287,2,0,L|212:204,1,55,0|0,1:0|3:0,0:0:0:0:
208,244,24632,1,0,0:0:0:0:
136,328,24976,6,0,P|188:351|243:349,1,110,4|0,3:2|1:0,0:0:0:0:
344,312,25666,2,0,P|397:302|449:317,1,110,0|0,0:0|1:0,0:0:0:0:
496,348,26183,1,0,0:0:0:0:
496,348,26356,2,0,L|488:228,1,110,0|0,3:0|1:0,0:0:0:0:
508,132,27045,2,0,P|463:130|440:139,1,55,0|0,0:0|3:0,0:0:0:0:
400,132,27390,2,0,P|373:126|345:130,1,55,0|0,1:0|0:0,0:0:0:0:
304,168,27735,6,0,P|248:176|192:152,1,110,2|0,3:2|1:0,0:0:0:0:
156,124,28252,2,0,P|104:142|51:134,1,110,2|0,0:0|3:0,0:0:0:0:
0,108,28770,1,2,1:2:0:0:
4,216,29114,2,0,L|20:332,1,110,2|0,3:2|3:0,0:0:0:0:
32,380,29632,2,0,L|124:308,1,110,2|0,1:2|0:0,0:0:0:0:
168,288,30149,2,0,P|168:320|176:356,1,55,8|0,0:0|0:0,0:0:0:0:
212,380,30494,5,0,3:0:0:0:
292,304,30839,2,0,L|284:236,1,55,0|0,1:0|0:0,0:0:0:0:
255,203,31183,2,0,P|310:207|364:196,1,110,0|0,0:0|1:0,0:0:0:0:
356,88,31873,2,0,P|301:84|247:95,1,110,0|0,3:0|1:0,0:0:0:0:
200,120,32390,1,0,0:0:0:0:
200,120,32563,2,0,P|146:108|92:112,1,110,0|0,0:0|1:0,0:0:0:0:
20,196,33252,6,0,P|36:248|67:294,1,110,2|0,3:2|0:0,0:0:0:0:
112,324,33770,1,2,3:2:0:0:
196,252,34114,2,0,P|248:236|320:256,1,110,0|0,3:0|0:0,0:0:0:0:
344,284,34632,2,0,L|332:172,1,110,2|2,3:2|1:2,0:0:0:0:
324,120,35149,2,0,L|426:165,1,110,0|0,0:0|0:0,0:0:0:0:
472,188,35666,1,12,0:0:0:0:
504,84,36011,5,6,3:2:0:0:
424,8,36356,2,0,L|368:20,1,55,10|0,0:0|0:0,0:0:0:0:
316,36,36701,2,0,L|207:20,1,110,2|10,0:0|1:2,0:0:0:0:
102,10,37390,2,0,P|109:65|145:108,1,110,0|10,3:0|0:0,0:0:0:0:
188,140,37908,1,0,0:0:0:0:
188,140,38080,2,0,L|181:194,1,55,2|2,0:0|3:2,0:0:0:0:
212,240,38425,2,0,L|205:294,1,55,10|2,0:0|0:0,0:0:0:0:
163,328,38770,6,0,P|217:319|271:330,1,110,2|8,3:2|0:0,0:0:0:0:
320,356,39287,2,0,P|373:347|427:358,1,110,2|0,3:2|3:0,0:0:0:0:
480,376,39804,1,10,1:2:0:0:
504,268,40149,2,0,L|492:152,1,110,0|8,3:0|0:0,0:0:0:0:
504,104,40666,2,0,P|452:120|388:104,1,110,0|0,3:0|3:0,0:0:0:0:
360,72,41183,2,0,L|300:88,1,55,10|2,0:0|0:0,0:0:0:0:
256,104,41528,5,2,3:2:0:0:
288,208,41873,1,10,0:0:0:0:
198,270,42218,2,0,P|144:260|90:276,1,110,2|10,0:0|0:0,0:0:0:0:
44,304,42735,1,2,0:0:0:0:
44,304,42907,2,0,P|54:249|37:196,1,110,0|10,3:0|0:0,0:0:0:0:
4,92,43597,2,0,L|64:80,1,55,2|2,0:0|3:2,0:0:0:0:
108,60,43942,2,0,L|161:70,1,55,10|2,0:0|0:0,0:0:0:0:
216,72,44287,6,0,L|216:0,2,55,2|0|8,3:2|0:0|0:0,0:0:0:0:
216,128,44804,1,2,3:2:0:0:
319,92,45149,2,0,P|360:84|432:96,1,110,2|2,3:2|0:0,0:0:0:0:
476,116,45666,2,0,L|460:224,1,110,0|8,3:0|0:0,0:0:0:0:
444,276,46183,2,0,L|342:232,1,110,2|0,3:2|3:0,0:0:0:0:
292,208,46701,1,10,0:0:0:0:
200,266,47045,6,0,P|184:184|230:117,2,165,2|2|0,0:0|0:0|0:0,0:0:0:0:
232,312,48252,1,2,0:0:0:0:
232,312,48425,2,0,L|100:304,1,110,2|0,0:0|0:0,0:0:0:0:
72,324,48942,2,0,L|78:269,1,55,2|0,0:0|0:0,0:0:0:0:
96,216,49287,2,0,L|89:161,1,55,0|0,0:0|0:0,0:0:0:0:
84,52,49804,6,0,P|111:54|138:62,1,55,2|2,0:0|0:0,0:0:0:0:
184,92,50149,2,0,P|207:77|233:68,1,55,2|2,0:0|0:0,0:0:0:0:
288,68,50494,2,0,P|332:84|404:72,1,110,2|0,0:0|0:0,0:0:0:0:
440,48,51011,2,0,L|456:164,1,110,2|2,0:0|0:0,0:0:0:0:
468,212,51528,1,2,0:0:0:0:
360,192,51873,2,0,P|306:180|253:193,1,110,2|0,0:0|0:0,0:0:0:0:
228,300,52563,6,0,P|307:318|386:297,2,165,2|2|0,0:0|0:0|0:0,0:0:0:0:
120,328,53942,2,0,L|112:382,2,55,2|0|0,0:0|0:0|0:0,0:0:0:0:
80,292,54459,2,0,L|72:237,1,55,2|0,0:0|0:0,0:0:0:0:
28,208,54804,2,0,L|20:153,1,55,0|0,0:0|0:0,0:0:0:0:
0,44,55321,6,0,P|27:43|54:49,1,55,2|0,0:0|0:0,0:0:0:0:
100,80,55666,2,0,P|127:82|154:77,1,55,2|2,0:0|0:0,0:0:0:0:
188,32,56011,2,0,L|296:47,1,110,2|0,0:0|0:0,0:0:0:0:
348,64,56528,2,0,L|456:48,1,110,2|0,0:0|0:0,0:0:0:0:
512,40,57045,1,2,0:0:0:0:
512,152,57390,2,0,L|403:167,1,110,2|0,0:0|0:0,0:0:0:0:
296,143,58080,6,0,P|293:171|297:198,1,55,8|0,1:0|0:0,0:0:0:0:
344,228,58425,2,0,P|347:255|345:282,1,55,8|0,1:0|1:0,0:0:0:0:
364,336,58770,2,0,P|309:344|256:356,1,110,8|8,1:0|1:0,0:0:0:0:
148,357,59459,2,0,P|94:345|40:336,1,110,8|8,1:0|1:0,0:0:0:0:
8,380,59976,1,0,1:0:0:0:
8,379,60149,2,0,P|21:326|17:272,1,110,8|8,0:0|1:0,0:0:0:0:
4,160,60839,5,8,1:0:0:0:
88,92,61183,2,0,L|152:104,1,55,8|0,1:0|1:0,0:0:0:0:
192,128,61528,2,0,L|304:104,1,110,8|8,1:0|1:0,0:0:0:0:
408,80,62218,1,8,1:0:0:0:
488,156,62563,2,0,P|492:192|484:236,1,55,8|0,1:0|1:0,0:0:0:0:
468,260,62908,1,8,1:0:0:0:
360,232,63252,1,8,1:0:0:0:
268,292,63597,6,0,L|152:280,1,110,8|8,0:0|0:0,0:0:0:0:
100,188,64287,2,0,L|216:176,1,110,8|8,0:0|0:0,0:0:0:0:
292,104,64976,1,8,0:0:0:0:
219,21,65321,1,8,0:0:0:0:
136,93,65666,1,8,0:0:0:0:
209,176,66010,1,8,0:0:0:0:
282,259,66356,6,0,L|360:248,1,55,8|8,0:0|0:0,0:0:0:0:
384,280,66701,2,0,L|462:269,1,55,8|8,0:0|0:0,0:0:0:0:
486,301,67045,2,0,P|488:336|484:376,2,55,8|8|8,0:0|0:0|0:0,0:0:0:0:
512,252,67563,1,8,0:0:0:0:
144,112,68770,1,2,0:0:0:0:
85,204,69114,6,0,P|138:220|191:209,1,110,6|10,3:2|0:0,0:0:0:0:
276,136,69804,2,0,L|336:148,1,55,2|0,0:0|3:0,0:0:0:0:
376,176,70149,2,0,L|429:165,1,55,10|2,0:0|0:0,0:0:0:0:
476,136,70494,2,0,P|468:200|480:260,1,110,0|10,3:0|0:0,0:0:0:0:
508,348,71183,2,0,P|472:352|448:348,1,55,2|2,0:0|3:2,0:0:0:0:
398,348,71528,2,0,P|370:350|343:346,1,55,10|2,0:0|0:0,0:0:0:0:
292,324,71873,5,2,3:2:0:0:
192,372,72218,1,10,0:0:0:0:
88,332,72563,2,0,L|92:268,1,55,2|0,0:0|3:0,0:0:0:0:
132,240,72908,2,0,L|128:176,1,55,10|2,0:0|0:0,0:0:0:0:
87,147,73252,2,0,P|141:156|193:139,1,110,0|8,3:0|0:0,0:0:0:0:
220,92,73770,2,0,P|273:83|325:100,1,110,0|0,3:0|3:0,0:0:0:0:
372,132,74287,1,10,0:0:0:0:
332,236,74632,5,6,3:2:0:0:
418,306,74976,1,10,2:0:0:0:
510,245,75321,2,0,P|517:218|513:191,1,55,2|0,2:0|3:0,0:0:0:0:
480,148,75666,2,0,P|473:121|477:94,1,55,10|2,0:0|0:0,0:0:0:0:
508,48,76011,2,0,L|372:40,1,110,0|10,3:0|0:0,0:0:0:0:
292,16,76701,2,0,L|237:12,1,55,2|2,0:0|3:2,0:0:0:0:
196,48,77045,2,0,L|141:44,1,55,10|2,0:0|0:0,0:0:0:0:
92,20,77390,6,0,P|100:80|88:136,1,110,2|10,3:2|0:0,0:0:0:0:
48,164,77908,1,0,3:0:0:0:
48,164,78080,2,0,P|40:224|52:280,1,110,2|10,0:0|0:0,0:0:0:0:
104,364,78770,2,0,L|16:372,2,82.5,0|0|0,3:0|1:0|1:0,0:0:0:0:
152,336,79459,2,0,L|206:341,1,55,0|0,1:0|1:0,0:0:0:0:
262,346,79804,1,0,1:0:0:0:
248,236,80149,6,0,P|240:176|252:104,1,110,6|8,3:2|0:0,0:0:0:0:
295,27,80839,2,0,P|318:43|337:67,1,55,0|0,0:0|3:0,0:0:0:0:
368,108,81183,1,10,0:0:0:0:
472,72,81528,2,0,L|480:8,2,55,0|2|8,3:0|0:0|0:0,0:0:0:0:
432,176,82218,2,0,L|438:230,1,55,2|0,0:0|3:0,0:0:0:0:
408,276,82563,2,0,L|414:330,1,55,10|2,0:0|0:0,0:0:0:0:
456,368,82908,6,0,P|402:358|348:369,1,110,0|8,3:0|0:0,0:0:0:0:
296,384,83425,1,0,0:0:0:0:
200,328,83770,1,0,3:0:0:0:
200,328,83943,2,0,L|204:260,1,55,10|0,0:0|0:0,0:0:0:0:
232,224,84287,2,0,P|178:235|124:225,1,110,0|8,3:0|0:0,0:0:0:0:
76,200,84804,1,0,3:0:0:0:
108,96,85149,1,0,3:0:0:0:
108,96,85321,2,0,L|184:88,1,55,8|0,0:0|0:0,0:0:0:0:
208,60,85666,6,0,L|317:69,1,110,4|8,3:2|0:0,0:0:0:0:
423,39,86356,2,0,P|429:66|426:93,1,55,0|0,0:0|3:0,0:0:0:0:
412,148,86701,1,10,0:0:0:0:
336,228,87045,2,0,P|332:255|338:281,2,55,0|2|8,3:0|0:0|0:0,0:0:0:0:
252,156,87735,2,0,L|197:165,1,55,2|0,0:0|3:0,0:0:0:0:
160,204,88080,2,0,L|105:194,1,55,10|2,0:0|0:0,0:0:0:0:
59,163,88425,6,0,P|63:218|57:273,1,110,2|8,3:2|0:0,0:0:0:0:
36,324,88942,1,2,3:2:0:0:
136,368,89287,1,0,3:0:0:0:
136,368,89459,2,0,L|216:356,1,55,10|0,0:0|0:0,0:0:0:0:
232,320,89804,2,0,P|268:352|340:360,1,110,0|0,3:0|1:0,0:0:0:0:
384,360,90321,2,0,P|437:352|479:317,1,110,0|0,1:0|1:0,0:0:0:0:
504,268,90839,1,0,1:0:0:0:
436,184,91183,6,0,P|427:127|436:74,1,110,4|2,0:0|0:0,0:0:0:0:
464,28,91701,1,0,0:0:0:0:
464,28,91873,2,0,P|407:36|354:27,1,110,2|2,0:0|0:0,0:0:0:0:
244,28,92563,2,0,P|189:35|135:27,1,110,2|0,0:0|0:0,0:0:0:0:
32,68,93253,2,0,L|40:132,1,55,2|0,0:0|0:0,0:0:0:0:
84,156,93597,2,0,L|92:220,1,55,2|0,0:0|0:0,0:0:0:0:
128,252,93942,6,0,L|120:316,2,55,2|2|2,0:0|0:0|0:0,0:0:0:0:
172,220,94459,2,0,P|216:212|288:224,1,110,2|2,0:0|0:0,0:0:0:0:
328,248,94976,1,2,0:0:0:0:
423,192,95321,2,0,P|437:138|433:84,1,110,2|2,0:0|1:2,0:0:0:0:
420,32,95839,2,0,P|366:45|312:41,1,110,2|2,0:0|0:0,0:0:0:0:
260,20,96356,2,0,L|248:100,1,55,10|2,1:2|0:0,0:0:0:0:
244,128,96701,5,6,3:2:0:0:
136,100,97045,2,0,L|76:112,1,55,10|0,0:0|0:0,0:0:0:0:
27,99,97390,2,0,P|35:154|29:208,1,110,2|10,0:0|0:0,0:0:0:0:
88,304,98080,2,0,P|143:296|197:302,1,110,0|10,3:0|0:0,0:0:0:0:
244,332,98597,1,0,0:0:0:0:
244,332,98770,2,0,L|256:252,1,55,2|2,0:0|3:2,0:0:0:0:
260,224,99114,1,10,0:0:0:0:
223,120,99459,6,0,P|250:112|277:112,1,55,2|0,3:2|0:0,0:0:0:0:
328,136,99804,2,0,P|355:128|382:128,1,55,8|2,0:0|3:2,0:0:0:0:
428,156,100149,2,0,P|455:155|481:147,2,55,0|0|8,0:0|3:0|0:0,0:0:0:0:
372,251,100839,2,0,P|367:306|373:361,1,110,2|8,3:2|0:0,0:0:0:0:
320,380,101356,2,0,P|284:338|241:303,1,110,2|0,3:2|3:0,0:0:0:0:
188,288,101873,1,8,0:0:0:0:
106,217,102218,6,0,P|78:292|113:365,2,165,12|0|8,3:2|3:0|3:2,0:0:0:0:
140,176,103425,1,0,0:0:0:0:
140,176,103597,2,0,L|16:164,1,110,8|8,3:2|1:0,0:0:0:0:
84,68,104287,2,0,L|193:57,1,110,8|8,1:0|3:2,0:0:0:0:
296,15,104976,6,0,P|303:42|303:69,1,55,8|0,3:2|1:0,0:0:0:0:
316,124,105321,2,0,P|339:110|366:102,1,55,8|0,1:0|3:0,0:0:0:0:
420,99,105666,2,0,P|407:153|417:207,1,110,8|8,1:0|3:2,0:0:0:0:
452,252,106183,1,0,1:0:0:0:
452,252,106356,2,0,L|384:268,1,55,8|0,3:2|1:0,0:0:0:0:
356,300,106701,2,0,L|302:287,1,55,8|0,1:2|3:0,0:0:0:0:
256,256,107045,2,0,L|148:280,1,110,8|8,0:0|3:2,0:0:0:0:
52,227,107735,6,0,P|44:309|92:375,2,165,8|0|8,3:2|3:0|3:0,0:0:0:0:
80,180,108942,1,0,1:0:0:0:
79,180,109114,2,0,P|88:125|80:71,1,110,8|8,3:2|1:0,0:0:0:0:
192,72,109804,2,0,P|183:126|191:180,1,110,8|8,1:0|3:2,0:0:0:0:
268,260,110494,6,0,L|328:248,1,55,8|0,3:2|1:0,0:0:0:0:
368,280,110839,2,0,L|428:268,1,55,8|0,1:0|3:0,0:0:0:0:
468,299,111183,2,0,P|459:245|469:191,1,110,8|8,1:0|3:2,0:0:0:0:
508,152,111701,2,0,P|517:98|509:43,1,110,0|0,1:0|1:0,0:0:0:0:
473,1,112218,2,0,L|412:16,1,55,8|0,1:0|3:0,0:0:0:0:
368,36,112563,2,0,L|261:10,1,110,8|8,0:0|0:0,0:0:0:0:
152,4,113252,5,14,3:2:0:0:
203,103,113597,1,8,0:0:0:0:
124,182,113942,2,0,P|70:175|19:192,1,110,8|8,0:0|1:0,0:0:0:0:
32,304,114632,2,0,P|86:311|137:294,1,110,8|8,0:0|1:0,0:0:0:0:
188,272,115149,1,0,1:0:0:0:
188,272,115321,2,0,P|239:289|293:281,1,110,8|8,1:0|0:0,0:0:0:0:
396,240,116011,5,8,0:0:0:0:
411,130,116355,1,8,1:0:0:0:
324,61,116701,2,0,L|200:76,1,110,0|8,0:0|1:0,0:0:0:0:
104,92,117390,1,8,0:0:0:0:
180,172,117735,2,0,P|187:198|187:225,1,55,8|0,1:0|1:0,0:0:0:0:
160,276,118080,2,0,L|269:289,1,110,8|8,1:0|1:0,0:0:0:0:
380,300,118770,5,8,1:0:0:0:
424,197,119115,1,8,0:0:0:0:
340,123,119460,1,8,0:0:0:0:
384,20,119804,1,8,1:0:0:0:
494,30,120149,2,0,L|488:100,1,55,8|8,1:0|0:0,0:0:0:0:
456,128,120494,2,0,L|462:198,1,55,8|8,1:0|1:0,0:0:0:0:
496,224,120839,2,0,P|432:216|376:240,1,110,8|8,0:0|1:0,0:0:0:0:
300,296,121528,5,2,0:0:0:0:
198,250,121873,1,2,0:0:0:0:
288,184,122217,1,2,0:0:0:0:
390,230,122563,2,0,L|384:304,1,55,2|2,0:0|0:0,0:0:0:0:
136,172,123597,2,0,L|145:57,1,110,0|2,1:0|0:0,0:0:0:0:
248,20,124287,6,0,B|284:16|284:16|304:28|304:28|360:20,1,110,6|2,3:1|0:1,0:0:0:0:
464,12,124976,1,10,0:1:0:0:
420,112,125321,2,0,P|411:166|421:220,1,110,2|2,3:1|0:1,0:0:0:0:
452,268,125839,1,0,3:0:0:0:
452,268,126011,2,0,L|372:260,1,55,2|2,3:1|0:1,0:0:0:0:
344,244,126356,2,0,B|304:248|304:248|272:236|272:236|240:252,1,110,10|2,0:1|3:1,0:0:0:0:
136,280,127045,6,0,B|120:224|152:224|136:170,1,110,2|2,3:1|0:1,0:0:0:0:
80,80,127735,1,10,0:1:0:0:
172,20,128080,2,0,L|296:36,1,110,2|2,3:1|0:1,0:0:0:0:
324,68,128597,1,0,0:0:0:0:
324,68,128769,2,0,L|378:60,1,55,2|2,3:1|0:1,0:0:0:0:
432,44,129114,2,0,B|424:79|424:79|444:106|444:106|451:146,1,110,10|10,0:1|0:1,0:0:0:0:
500,248,129804,6,0,P|456:256|384:232,1,110,2|2,3:1|0:1,0:0:0:0:
292,196,130494,1,10,0:1:0:0:
196,252,130839,2,0,L|200:320,1,55,2|2,3:1|0:1,0:0:0:0:
92,284,131356,1,2,3:1:0:0:
92,284,131528,2,0,L|88:216,1,55,2|0,3:1|0:0,0:0:0:0:
64,180,131873,2,0,B|96:164|96:164|128:175|128:175|168:172,1,110,10|2,0:1|3:1,0:0:0:0:
268,216,132563,6,0,P|278:162|256:104,1,110,2|2,3:1|0:1,0:0:0:0:
224,72,133080,1,2,0:1:0:0:
224,72,133252,2,0,P|277:82|335:60,1,110,10|2,0:1|3:1,0:0:0:0:
432,20,133942,2,0,P|472:16|504:24,2,55,0|2|2,0:0|0:0|0:0,0:0:0:0:
460,128,134632,1,0,1:0:0:0:
400,220,134976,1,0,1:0:0:0:
296,188,135321,6,0,B|240:172|240:204|186:188,1,110,6|2,3:1|3:1,0:0:0:0:
88,144,136011,1,6,3:1:0:0:
0,204,136356,2,0,L|8:268,1,55,2|2,3:1|0:1,0:0:0:0:
0,312,136701,2,0,P|52:296|105:308,1,110,4|2,3:1|3:1,0:0:0:0:
144,348,137218,1,2,0:1:0:0:
144,348,137390,2,0,B|178:358|178:358|207:342|207:342|247:339,1,110,4|2,3:1|3:1,0:0:0:0:
348,296,138080,6,0,B|344:260|344:260|356:240|356:240|348:184,1,110,6|2,3:1|3:1,0:0:0:0:
328,80,138770,1,6,3:1:0:0:
228,124,139114,2,0,P|200:128|173:125,1,55,2|2,3:1|0:1,0:0:0:0:
120,112,139459,1,4,3:1:0:0:
44,192,139804,1,2,3:1:0:0:
124,268,140149,2,0,B|155:252|155:252|187:262|187:262|226:258,1,110,2|2,0:1|0:1,0:0:0:0:
328,304,140839,6,0,P|336:247|319:197,1,110,6|2,3:1|3:1,0:0:0:0:
252,112,141528,1,6,3:1:0:0:
292,10,141873,2,0,L|352:20,1,55,2|2,3:1|0:1,0:0:0:0:
388,56,142218,2,0,L|496:37,1,110,6|2,3:1|3:1,0:0:0:0:
504,148,142908,2,0,B|473:165|473:165|441:156|441:156|400:162,1,110,6|2,3:1|0:1,0:0:0:0:
328,244,143597,5,6,3:1:0:0:
221,222,143942,1,2,3:1:0:0:
186,118,144286,1,6,3:1:0:0:
258,36,144631,1,2,3:1:0:0:
364,57,144976,2,0,B|416:76|472:44|472:44|464:112|496:148|496:148|460:196|475:252,1,330,6|0,3:2|1:0,0:0:0:0:
496,360,146356,5,6,3:2:0:0:
32,180,157390,5,8,0:0:0:0:
94,271,157735,1,8,1:0:0:0:
200,239,158080,1,8,1:0:0:0:
203,129,158425,1,8,1:0:0:0:
309,98,158770,1,8,1:0:0:0:
393,170,159114,1,8,1:0:0:0:
350,270,159459,2,0,P|329:321|341:377,1,110,8|8,1:0|1:0,0:0:0:0:
444,332,160149,5,8,1:0:0:0:
476,228,160494,1,8,1:0:0:0:
401,148,160838,1,8,1:0:0:0:
294,172,161183,1,8,1:0:0:0:
187,196,161528,1,8,1:0:0:0:
219,92,161873,1,8,1:0:0:0:
144,12,162217,1,8,1:0:0:0:
37,36,162563,2,0,P|32:84|36:108,1,55,0|0,1:0|1:0,0:0:0:0:
59,139,162908,6,0,P|69:193|62:248,1,110,8|8,0:0|0:0,0:0:0:0:
36,296,163425,1,8,0:0:0:0:
36,296,163597,2,0,P|90:286|145:293,1,110,8|8,0:0|0:0,0:0:0:0:
252,320,164287,1,8,0:0:0:0:
256,192,164459,12,0,165666,0:0:0:0:
336,112,167045,6,0,P|396:226|272:189,1,330,0|2,0:0|0:0,0:0:0:0:
236,84,168425,6,0,L|104:104,1,110,2|10,3:1|0:1,0:0:0:0:
20,76,169114,2,0,P|15:103|19:130,1,55,2|0,0:1|3:0,0:0:0:0:
44,180,169459,2,0,P|47:207|43:234,1,55,10|2,0:1|0:1,0:0:0:0:
12,280,169804,2,0,P|72:272|128:292,1,110,2|10,3:1|0:1,0:0:0:0:
212,344,170494,2,0,L|280:336,1,55,2|2,0:1|3:1,0:0:0:0:
312,368,170839,2,0,L|380:360,1,55,10|2,0:1|0:1,0:0:0:0:
420,348,171183,5,2,3:1:0:0:
456,244,171528,1,10,0:1:0:0:
384,160,171873,2,0,L|330:171,1,55,2|0,0:1|3:0,0:0:0:0:
284,200,172218,2,0,L|230:188,1,55,10|2,0:1|0:1,0:0:0:0:
180,216,172563,2,0,P|192:162|188:107,1,110,2|10,3:1|0:1,0:0:0:0:
156,64,173080,2,0,L|224:48,1,55,2|2,3:1|0:1,0:0:0:0:
260,72,173425,2,0,L|328:56,1,55,2|10,3:1|0:1,0:0:0:0:
407,3,173942,6,0,P|423:56|409:108,1,110,6|10,3:1|0:1,0:0:0:0:
332,188,174632,2,0,L|336:248,1,55,2|0,0:1|3:0,0:0:0:0:
376,280,174976,2,0,L|372:340,1,55,10|0,0:1|0:0,0:0:0:0:
408,376,175321,2,0,P|356:368|288:376,1,110,0|10,3:0|0:1,0:0:0:0:
188,371,176011,2,0,P|160:373|134:365,1,55,2|2,0:1|3:1,0:0:0:0:
88,336,176356,2,0,P|107:317|120:292,1,55,10|2,0:1|0:1,0:0:0:0:
128,240,176701,5,2,3:1:0:0:
236,264,177045,2,0,L|289:253,1,55,10|0,0:1|3:0,0:0:0:0:
336,224,177390,2,0,L|389:234,2,55,2|0|10,0:1|3:0|0:1,0:0:0:0:
264,140,178080,2,0,P|256:100|272:36,2,82.5,0|0|0,3:0|1:0|1:0,0:0:0:0:
228,180,178770,2,0,L|174:169,1,55,0|0,1:0|1:0,0:0:0:0:
120,160,179114,1,0,1:0:0:0:
40,236,179459,6,0,L|56:364,1,110,4|8,3:2|0:0,0:0:0:0:
160,368,180149,2,0,P|200:344|224:340,1,55,0|0,0:0|3:0,0:0:0:0:
262,334,180494,1,10,0:0:0:0:
371,351,180839,2,0,P|398:356|426:354,2,55,0|2|8,3:0|0:0|0:0,0:0:0:0:
332,248,181528,2,0,L|324:193,1,55,2|0,0:0|3:0,0:0:0:0:
284,156,181873,2,0,L|291:101,1,55,10|2,0:0|0:0,0:0:0:0:
320,56,182218,6,0,P|264:64|208:52,1,110,0|8,3:0|0:0,0:0:0:0:
164,28,182735,1,0,0:0:0:0:
72,88,183080,1,0,3:0:0:0:
72,88,183252,2,0,L|80:152,1,55,10|0,0:0|0:0,0:0:0:0:
120,180,183597,2,0,L|104:300,1,110,2|10,3:2|0:0,0:0:0:0:
64,324,184114,2,0,P|120:312|180:328,1,110,2|2,3:2|3:2,0:0:0:0:
216,356,184632,1,10,0:0:0:0:
320,324,184976,6,0,P|373:312|426:324,1,110,4|8,3:2|0:0,0:0:0:0:
508,248,185666,2,0,L|496:176,1,55,0|0,0:0|3:0,0:0:0:0:
484,140,186011,1,10,0:0:0:0:
403,64,186356,2,0,P|424:45|449:34,2,55,0|2|8,3:0|0:0|0:0,0:0:0:0:
320,132,187045,2,0,P|293:137|266:134,1,55,2|0,0:0|3:0,0:0:0:0:
220,104,187390,2,0,P|193:109|166:106,1,55,10|2,0:0|0:0,0:0:0:0:
120,80,187735,6,0,P|128:120|116:196,1,110,2|8,3:2|0:0,0:0:0:0:
84,232,188252,1,2,3:2:0:0:
168,300,188597,1,0,3:0:0:0:
168,300,188770,2,0,L|240:288,1,55,10|0,0:0|0:0,0:0:0:0:
268,264,189114,2,0,P|276:228|272:200,2,55,0|0|0,3:0|0:0|0:0,0:0:0:0:
308,300,189632,2,0,P|348:288|420:300,1,110,0|0,0:0|0:0,0:0:0:0:
460,328,190149,1,14,0:0:0:0:
508,228,190494,6,0,L|500:173,1,55,6|0,3:2|0:0,0:0:0:0:
452,148,190839,2,0,L|444:93,1,55,10|0,0:0|0:0,0:0:0:0:
475,48,191183,2,0,P|422:59|368:51,1,110,2|10,0:0|0:0,0:0:0:0:
264,88,191873,2,0,L|264:144,2,55,0|2|10,3:0|0:0|0:0,0:0:0:0:
160,52,192563,2,0,P|133:56|106:50,1,55,2|2,0:2|3:2,0:0:0:0:
56,32,192908,1,10,0:0:0:0:
8,132,193252,6,0,L|16:188,1,55,2|0,3:2|0:0,0:0:0:0:
60,220,193597,2,0,L|68:276,1,55,10|0,0:0|0:0,0:0:0:0:
35,320,193942,2,0,P|88:304|142:311,1,110,2|10,0:0|0:0,0:0:0:0:
184,348,194459,1,2,0:0:0:0:
184,348,194631,2,0,P|236:332|290:339,1,110,0|8,3:0|0:0,0:0:0:0:
340,368,195149,2,0,P|324:315|331:261,1,110,0|0,3:0|3:0,0:0:0:0:
364,216,195666,1,10,0:0:0:0:
304,124,196011,6,0,L|249:130,1,55,4|0,3:2|0:0,0:0:0:0:
212,172,196356,2,0,L|157:165,1,55,10|0,0:0|0:0,0:0:0:0:
112,132,196701,2,0,P|120:184|104:256,1,110,2|10,0:0|0:0,0:0:0:0:
12,288,197390,2,0,P|4:252|8:224,2,55,0|2|10,3:0|0:0|0:0,0:0:0:0:
100,352,198080,2,0,L|154:345,1,55,2|2,0:0|3:2,0:0:0:0:
192,304,198425,2,0,L|246:310,1,55,10|2,0:0|0:0,0:0:0:0:
300,320,198770,5,4,3:2:0:0:
304,212,199114,1,8,0:0:0:0:
304,212,199287,2,0,L|189:199,1,110,4|8,3:2|0:0,0:0:0:0:
143,220,199804,2,0,P|154:194|154:167,1,55,10|6,0:0|3:2,0:0:0:0:
