osu file format v14

[General]
AudioFilename: audio.mp3
AudioLeadIn: 0
PreviewTime: 67563
Countdown: 0
SampleSet: Soft
StackLeniency: 0.2
Mode: 0
LetterboxInBreaks: 0
WidescreenStoryboard: 1

[Editor]
DistanceSpacing: 0.4
BeatDivisor: 4
GridSize: 16
TimelineZoom: 2.7

[Metadata]
Title:Wakusei Rabbit (feat. TORIENA)
TitleUnicode:惑星ラビット (feat. TORIENA)
Artist:Yunomi
ArtistUnicode:Yunomi
Creator:Nathan
Version:PYON
Source:
Tags:trap snownino_ snownino sukinathan doormat
BeatmapID:1139789
BeatmapSetID:504171

[Difficulty]
HPDrainRate:5
CircleSize:4.2
OverallDifficulty:8.5
ApproachRate:9.2
SliderMultiplier:1.92
SliderTickRate:1

[Events]
//Background and Video events
0,0,"pyonnn.jpg",0,0
//Break Periods
2,146556,156820
//Storyboard Layer 0 (Background)
//Storyboard Layer 1 (Fail)
//Storyboard Layer 2 (Pass)
//Storyboard Layer 3 (Foreground)
//Storyboard Sound Samples

[TimingPoints]
2908,344.827586206897,4,2,1,80,1,0
2908,-133.333333333333,4,2,1,80,0,0
3252,-153.846153846153,4,2,1,80,0,0
3597,-181.818181818181,4,2,1,80,0,0
3942,-133.333333333333,4,2,1,80,0,0
4459,-117.647058823529,4,2,1,80,0,0
4976,-105.263157894737,4,2,1,80,0,0
5666,-133.333333333333,4,2,1,80,0,0
6011,-153.846153846153,4,2,1,80,0,0
6356,-181.818181818181,4,2,1,80,0,0
6701,-133.333333333333,4,2,1,80,0,0
8425,-117.647058823529,4,2,4,60,0,0
9804,-105.263157894737,4,2,1,70,0,0
12563,-200,4,2,1,80,0,0
12908,-166.666666666667,4,2,1,80,0,0
13252,-142.857142857143,4,2,1,80,0,0
13425,-125,4,2,1,80,0,0
13942,-100,4,2,3,80,0,1
15494,-90.9090909090909,4,2,3,80,0,1
16011,-83.3333333333333,4,2,3,80,0,1
16356,-76.9230769230769,4,2,3,80,0,1
16701,-100,4,2,3,80,0,1
17045,-111.111111111111,4,2,3,80,0,1
17390,-125,4,2,3,80,0,1
18080,-100,4,2,3,80,0,1
19114,-100,4,2,1,80,0,1
19201,-100,4,2,3,80,0,1
21011,-90.9090909090909,4,2,3,80,0,1
21528,-83.3333333333333,4,2,3,80,0,1
21873,-76.9230769230769,4,2,3,80,0,1
22218,-83.3333333333333,4,2,3,80,0,1
22563,-90.9090909090909,4,2,3,80,0,1
22908,-100,4,2,3,80,0,1
23597,-100,4,2,3,80,0,0
24976,-117.647058823529,4,2,2,80,0,0
27735,-100,4,2,2,80,0,0
30149,-100,4,2,1,80,0,0
30494,-117.647058823529,4,2,2,80,0,0
33252,-100,4,2,2,80,0,0
35666,-66.6666666666667,4,2,1,80,0,0
36011,-100,4,2,1,80,0,0
36356,-111.111111111111,4,2,1,80,0,0
36701,-125,4,2,1,80,0,0
37045,-117.647058823529,4,2,1,80,0,0
37563,-111.111111111111,4,2,1,80,0,0
38080,-105.263157894737,4,2,1,80,0,0
38425,-100,4,2,1,80,0,0
41873,-111.111111111111,4,2,1,80,0,0
42218,-125,4,2,1,80,0,0
43080,-117.647058823529,4,2,1,80,0,0
43597,-111.111111111111,4,2,1,80,0,0
43942,-105.263157894737,4,2,1,80,0,0
44287,-100,4,2,1,80,0,0
47045,-125,4,2,1,80,0,0
49804,-100,4,2,1,80,0,0
52563,-125,4,2,1,80,0,0
55321,-100,4,2,1,80,0,0
58080,-100,4,2,4,70,0,0
63597,-100,4,2,4,80,0,0
69114,-100,4,2,3,80,0,1
69459,-111.111111111111,4,2,3,80,0,1
69804,-125,4,2,3,80,0,1
70149,-100,4,2,3,80,0,1
72218,-111.111111111111,4,2,3,80,0,1
72563,-125,4,2,3,80,0,1
73252,-100,4,2,3,80,0,1
74976,-111.111111111111,4,2,3,80,0,1
75321,-125,4,2,3,80,0,1
75666,-100,4,2,3,80,0,1
77390,-83.3333333333333,4,2,3,80,0,1
77735,-90.9090909090909,4,2,3,80,0,1
78080,-100,4,2,3,80,0,1
78770,-100,4,2,3,80,0,0
80149,-100,4,2,1,80,0,1
81701,-90.9090909090909,4,2,1,80,0,1
82218,-83.3333333333333,4,2,1,80,0,1
82563,-76.9230769230769,4,2,1,80,0,1
82908,-100,4,2,1,80,0,1
87218,-90.9090909090909,4,2,1,80,0,1
87735,-83.3333333333333,4,2,1,80,0,1
88080,-76.9230769230769,4,2,1,80,0,1
88425,-100,4,2,1,80,0,1
91183,-166.666666666667,4,2,1,80,0,0
94804,-125,4,2,1,80,0,0
96183,-100,4,2,1,80,0,0
96701,-100,4,2,1,80,0,0
97045,-111.111111111111,4,2,1,80,0,0
97390,-125,4,2,1,80,0,0
97735,-117.647058823529,4,2,1,80,0,0
98252,-111.111111111111,4,2,1,80,0,0
98770,-105.263157894737,4,2,1,80,0,0
99114,-100,4,2,1,80,0,0
102218,-100,4,2,4,80,0,0
121528,-125,4,2,1,80,0,0
123597,-100,4,2,1,80,0,0
124287,-76.9230769230769,4,2,1,80,0,1
124976,-83.3333333333333,4,2,3,80,0,1
125666,-90.9090909090909,4,2,3,80,0,1
126011,-100,4,2,3,80,0,1
126701,-76.9230769230769,4,2,3,80,0,0
127045,-71.4285714285714,4,2,3,80,0,1
127735,-66.6666666666667,4,2,3,80,0,1
128770,-76.9230769230769,4,2,3,80,0,1
129114,-62.5,4,2,3,80,0,0
129804,-76.9230769230769,4,2,3,80,0,1
130494,-83.3333333333333,4,2,3,80,0,1
131873,-90.9090909090909,4,2,3,80,0,1
132218,-76.9230769230769,4,2,3,80,0,0
132563,-71.4285714285714,4,2,3,80,0,1
133252,-66.6666666666667,4,2,3,80,0,1
133942,-100,4,2,3,80,0,0
135321,-66.6666666666667,4,2,3,80,0,1
136011,-62.5,4,2,3,80,0,1
137735,-66.6666666666667,4,2,3,80,0,0
138080,-58.8235294117647,4,2,3,80,0,1
138770,-55.5555555555556,4,2,3,80,0,1
139459,-76.9230769230769,4,2,3,80,0,1
140149,-71.4285714285714,4,2,3,80,0,0
140494,-55.5555555555556,4,2,3,80,0,0
140839,-58.8235294117647,4,2,3,80,0,1
141528,-62.5,4,2,3,80,0,1
141873,-66.6666666666667,4,2,3,80,0,1
142218,-71.4285714285714,4,2,3,80,0,1
142563,-76.9230769230769,4,2,3,80,0,1
143252,-66.6666666666667,4,2,3,80,0,0
143597,-62.5,4,2,3,80,0,1
144287,-58.8235294117647,4,2,3,80,0,1
144976,-100,4,2,1,80,0,0
157390,-100,4,2,1,80,0,0
162908,-90.9090909090909,4,2,1,80,0,0
164287,-83.3333333333333,4,2,2,80,0,0
167045,-125,4,2,1,80,0,0
167908,-100,4,2,1,80,0,0
168425,-100,4,2,3,80,0,1
169976,-90.9090909090909,4,2,3,80,0,1
170494,-83.3333333333333,4,2,3,80,0,1
170839,-76.9230769230769,4,2,3,80,0,1
171183,-100,4,2,3,80,0,1
171528,-111.111111111111,4,2,3,80,0,1
171873,-125,4,2,3,80,0,1
172563,-90.9090909090909,4,2,3,80,0,1
172908,-83.3333333333333,4,2,3,80,0,1
173252,-90.9090909090909,4,2,3,80,0,1
173597,-90.9090909090909,4,2,1,80,0,1
173683,-90.9090909090909,4,2,3,80,0,1
173942,-100,4,2,3,80,0,1
175494,-90.9090909090909,4,2,3,80,0,1
176011,-83.3333333333333,4,2,3,80,0,1
176356,-76.9230769230769,4,2,3,80,0,1
176701,-100,4,2,3,80,0,1
177045,-111.111111111111,4,2,3,80,0,1
177390,-125,4,2,3,80,0,1
178080,-100,4,2,3,80,0,0
179459,-100,4,2,1,80,0,1
181011,-90.9090909090909,4,2,1,80,0,1
181528,-83.3333333333333,4,2,1,80,0,1
181873,-76.9230769230769,4,2,1,80,0,1
182218,-100,4,2,1,80,0,1
183597,-90.9090909090909,4,2,1,80,0,1
183942,-83.3333333333333,4,2,1,80,0,1
184287,-90.9090909090909,4,2,1,80,0,1
184976,-100,4,2,1,80,0,1
186528,-90.9090909090909,4,2,1,80,0,1
187045,-83.3333333333333,4,2,1,80,0,1
187390,-76.9230769230769,4,2,1,80,0,1
187735,-100,4,2,1,80,0,1
189114,-200,4,2,1,80,0,0
189459,-166.666666666667,4,2,1,80,0,0
189804,-142.857142857143,4,2,1,80,0,0
190494,-125,4,2,1,80,0,0
190839,-142.857142857143,4,2,1,80,0,0
191183,-166.666666666667,4,2,1,80,0,0
193252,-125,4,2,1,80,0,0
193597,-142.857142857143,4,2,1,80,0,0
193942,-166.666666666667,4,2,1,80,0,0
194632,-125,4,2,1,80,0,0
196356,-142.857142857143,4,2,1,80,0,0
196701,-166.666666666667,4,2,1,80,0,0
198770,-125,4,2,1,80,0,0

[Colours]
Combo1 : 255,94,55
Combo2 : 173,255,95
Combo3 : 17,254,176
Combo4 : 255,88,100

[HitObjects]
332,170,2908,6,0,P|297:170|262:178,1,72.0000027465821,2|0,0:0|0:0,0:0:0:0:
90,262,3252,6,0,P|125:262|157:253,1,62.3999971435548,2|0,0:0|0:0,0:0:0:0:
262,178,3597,6,0,P|231:171|202:175,1,52.8000016113282,2|0,0:0|0:0,0:0:0:0:
254,300,3942,5,2,0:0:0:0:
266,292,4028,1,0,0:0:0:0:
279,287,4114,2,0,P|313:278|349:276,1,72.0000027465821,2|0,0:0|0:0,0:0:0:0:
136,324,4459,5,2,0:0:0:0:
111,337,4545,1,0,0:0:0:0:
89,349,4631,2,0,P|55:358|8:360,1,81.6000015563965,2|0,0:0|0:0,0:0:0:0:
226,202,4976,5,2,0:0:0:0:
259,187,5062,1,0,0:0:0:0:
295,185,5149,1,2,0:0:0:0:
95,123,5321,5,2,0:0:0:0:
53,142,5407,1,0,0:0:0:0:
7,139,5494,1,2,0:0:0:0:
196,18,5666,6,0,L|205:117,1,72.0000027465821,2|0,0:0|0:0,0:0:0:0:
298,247,6011,6,0,L|294:182,1,62.3999971435548,2|0,0:0|0:0,0:0:0:0:
202,89,6356,6,0,L|207:153,1,52.8000016113282,2|0,0:0|0:0,0:0:0:0:
438,281,6701,5,2,0:0:0:0:
438,281,6787,1,0,0:0:0:0:
438,281,6873,1,2,0:0:0:0:
438,281,6959,1,0,0:0:0:0:
438,281,7045,6,0,P|375:253|281:264,1,144.000005493164
473,105,7563,2,0,P|472:140|481:175,1,72.0000027465821,0|0,0:0|0:0,0:0:0:0:
291,49,7908,2,0,P|291:40|290:32,2,18.0000006866455,2|0|0,0:0|0:0|0:0,0:0:0:0:
350,125,8080,1,2,0:0:0:0:
321,145,8166,1,0,0:0:0:0:
285,146,8252,1,2,0:0:0:0:
250,140,8339,1,0,0:0:0:0:
219,113,8425,6,0,L|120:109,1,81.6000015563965,8|8,1:0|0:1,0:0:0:0:
44,125,8683,1,0,1:0:0:0:
44,125,8770,2,0,L|47:84,1,40.8000007781983,8|0,1:0|0:0,0:0:0:0:
179,212,8942,2,0,L|138:209,1,40.8000007781983,8|0,1:0|0:0,0:0:0:0:
29,290,9114,1,8,0:1:0:0:
29,290,9201,2,0,L|26:335,2,40.8000007781983,0|8|0,1:0|0:1|0:0,0:0:0:0:
174,310,9459,2,0,L|134:308,1,40.8000007781983,8|0,1:0|0:0,0:0:0:0:
139,110,9632,2,0,L|179:112,1,40.8000007781983,8|0,1:0|0:0,0:0:0:0:
340,217,9804,1,0,0:0:0:0:
179,212,9976,5,2,1:2:0:0:
151,211,10063,1,0,1:2:0:0:
123,211,10149,1,2,1:2:0:0:
265,167,10321,1,0,1:2:0:0:
42,246,10493,5,2,1:2:0:0:
45,210,10580,1,0,1:2:0:0:
46,174,10666,1,2,1:2:0:0:
260,258,10839,5,2,1:2:0:0:
262,213,10926,1,0,1:2:0:0:
265,167,11012,1,2,1:2:0:0:
500,272,11183,6,0,L|506:144,1,91.1999975646973,4|0,3:2|0:0,0:0:0:0:
383,264,11528,2,0,L|389:136,1,91.1999975646973,4|0,3:2|0:0,0:0:0:0:
260,258,11873,2,0,L|266:130,1,91.1999975646973,4|0,3:2|0:0,0:0:0:0:
500,272,12218,6,0,L|503:212,1,45.5999987823487,4|0,3:2|0:0,0:0:0:0:
260,258,12390,2,0,L|263:198,1,45.5999987823487,4|0,3:2|0:0,0:0:0:0:
390,125,12563,6,0,L|387:195,1,48
390,125,12908,6,0,L|394:48,1,57.5999982421876
386,196,13252,6,0,L|382:278,1,67.1999979492188
82,45,13597,5,2,0:0:0:0:
82,45,13942,5,6,3:1:0:0:
35,302,14114,1,0,0:0:0:0:
207,183,14287,5,10,0:1:0:0:
1,166,14459,1,0,0:0:0:0:
144,265,14632,5,2,0:1:0:0:
180,93,14804,1,0,3:0:0:0:
172,357,14976,5,10,0:1:0:0:
153,363,15063,1,0,0:0:0:0:
134,365,15149,1,2,0:1:0:0:
116,360,15235,1,0,0:0:0:0:
99,349,15321,1,2,3:1:0:0:
284,231,15494,5,2,0:1:0:0:
292,261,15581,1,0,0:0:0:0:
292,292,15667,1,10,0:1:0:0:
281,321,15753,1,0,0:0:0:0:
261,345,15839,1,2,0:1:0:0:
196,92,16011,5,2,0:1:0:0:
239,107,16097,1,0,0:0:0:0:
265,144,16183,2,0,P|279:175|285:208,1,57.5999982421876,2|0,3:1|0:0,0:0:0:0:
76,277,16356,5,10,0:1:0:0:
50,219,16442,1,0,0:0:0:0:
57,157,16528,2,0,P|69:125|94:93,1,62.3999971435548,2|0,0:1|0:0,0:0:0:0:
332,76,16701,6,0,P|361:131|371:192,1,96,2|0,3:1|0:0,0:0:0:0:
129,204,17045,6,0,P|146:158|169:118,1,86.3999973632813,10|0,0:1|0:0,0:0:0:0:
368,163,17390,6,0,P|355:209|337:248,1,76.8,2|0,0:1|3:0,0:0:0:0:
164,125,17735,5,10,0:1:0:0:
176,114,17821,1,0,0:0:0:0:
189,105,17908,1,0,0:0:0:0:
204,99,17994,1,0,0:0:0:0:
223,92,18080,6,0,P|299:84|372:42,1,144,0|0,3:0|0:0,0:0:0:0:
427,155,18425,2,0,P|395:155|372:149,1,48,8|0,0:0|0:0,0:0:0:0:
240,199,18597,2,0,P|301:236|371:250,1,144,0|0,3:0|0:0,0:0:0:0:
328,356,18942,2,0,P|304:335|298:327,2,24,0|0|0,3:0|0:0|0:0,0:0:0:0:
181,280,19114,1,10,0:1:0:0:
185,308,19201,1,0,0:0:0:0:
196,334,19287,1,2,0:1:0:0:
209,360,19373,1,0,0:0:0:0:
226,383,19459,5,2,3:1:0:0:
493,337,19632,1,0,0:0:0:0:
322,131,19804,5,10,0:1:0:0:
356,340,19976,1,0,0:0:0:0:
411,226,20149,5,2,0:1:0:0:
266,250,20321,1,0,3:0:0:0:
492,87,20494,5,10,0:1:0:0:
498,104,20580,1,0,0:0:0:0:
501,122,20666,1,2,0:1:0:0:
500,141,20752,1,0,0:0:0:0:
496,160,20839,1,2,3:1:0:0:
256,140,21011,5,2,0:1:0:0:
273,113,21097,1,0,0:0:0:0:
302,100,21183,1,10,0:1:0:0:
333,97,21269,1,0,0:0:0:0:
360,113,21356,1,2,0:1:0:0:
229,244,21528,5,2,0:1:0:0:
184,231,21614,1,0,0:0:0:0:
159,189,21701,2,0,P|152:161|151:132,1,57.5999982421876,2|0,3:1|0:0,0:0:0:0:
373,8,21873,5,10,0:1:0:0:
431,29,21959,1,0,0:0:0:0:
454,89,22046,2,0,P|461:117|461:151,1,62.3999971435548
246,129,22218,6,0,P|300:116|364:113,1,115.199996484375,2|0,3:1|0:0,0:0:0:0:
221,293,22563,6,0,P|168:305|104:308,1,105.600003222656,10|0,0:1|3:0,0:0:0:0:
229,34,22908,6,0,P|242:88|246:147,1,96,2|0,0:1|3:0,0:0:0:0:
27,190,23252,5,10,0:1:0:0:
21,218,23339,1,0,0:0:0:0:
18,246,23425,1,2,0:1:0:0:
19,274,23511,1,0,0:0:0:0:
23,302,23597,6,0,B|59:296|59:296|128:311,1,96,0|0,3:0|0:0,0:0:0:0:
255,309,23856,1,0,1:0:0:0:
255,309,23942,2,0,L|260:375,1,48,8|0,1:0|0:0,0:0:0:0:
168,184,24114,1,0,1:0:0:0:
170,155,24201,1,0,1:0:0:0:
173,126,24287,1,0,1:0:0:0:
351,181,24459,1,0,3:0:0:0:
79,180,24632,2,0,L|15:173,3,48,0|0|0|0,1:0|1:0|1:0|1:0,1:0:0:0:
254,92,24976,6,0,P|187:100|161:115,1,81.6000015563965,4|0,3:2|0:0,0:0:0:0:
57,297,25321,2,0,P|101:337|226:315,1,163.200003112793,0|0,1:0|0:0,0:0:0:0:
254,92,25839,1,0,3:0:0:0:
57,297,26011,2,0,P|49:238|61:190,1,81.6000015563965,0|0,1:0|0:0,0:0:0:0:
350,157,26356,6,0,L|358:262,1,81.6000015563965,0|0,3:0|0:0,0:0:0:0:
202,320,26701,2,0,B|286:296|270:371|373:360,1,163.200003112793,0|0,1:0|0:0,0:0:0:0:
350,157,27218,1,0,3:0:0:0:
202,320,27390,2,0,P|141:332|99:331,1,81.6000015563965,0|0,1:0|0:0,0:0:0:0:
35,83,27735,5,2,3:2:0:0:
163,183,27908,1,0,0:0:0:0:
5,264,28080,1,0,1:0:0:0:
127,93,28252,2,0,P|187:83|257:168,1,144,2|0,0:0|0:0,0:0:0:0:
248,131,28597,1,0,3:0:0:0:
438,51,28770,2,0,P|373:58|335:61,1,96,2|0,1:2|0:0,0:0:0:0:
342,60,29028,1,0,0:0:0:0:
342,60,29114,5,2,3:2:0:0:
496,213,29287,1,0,0:0:0:0:
299,322,29459,1,0,3:0:0:0:
410,154,29632,2,0,L|394:317,1,144,2|0,1:2|0:0,0:0:0:0:
396,298,29976,1,0,0:0:0:0:
182,198,30149,6,0,B|267:186,1,48,8|0,0:0|0:0,0:0:0:0:
317,178,30321,1,0,0:0:0:0:
94,238,30494,6,0,P|88:179|100:144,1,81.6000015563965,0|0,3:0|0:0,0:0:0:0:
168,27,30839,2,0,P|96:63|-12:68,1,163.200003112793,0|0,1:0|0:0,0:0:0:0:
94,238,31356,1,0,3:0:0:0:
168,27,31528,2,0,P|209:27|247:40,1,81.6000015563965,0|0,1:0|0:0,0:0:0:0:
308,140,31787,1,0,0:0:0:0:
308,140,31873,6,0,P|269:153|228:153,1,81.6000015563965,0|0,3:0|0:0,0:0:0:0:
475,109,32218,2,0,B|469:304,1,163.200003112793,0|0,1:0|0:0,0:0:0:0:
308,140,32735,1,0,3:0:0:0:
475,109,32908,2,0,L|478:13,1,81.6000015563965,0|0,1:0|0:0,0:0:0:0:
349,276,33252,5,2,3:2:0:0:
339,46,33425,1,0,0:0:0:0:
465,219,33597,1,0,0:0:0:0:
227,230,33770,2,0,P|175:205|47:206,1,144,2|0,3:2|0:0,0:0:0:0:
201,343,34114,2,0,P|259:337|310:307,1,96,0|0,3:0|1:0,0:0:0:0:
346,53,34459,1,0,0:0:0:0:
346,53,34545,1,0,0:0:0:0:
346,53,34632,6,0,P|327:97|322:144,1,96,2|0,3:2|0:0,0:0:0:0:
429,187,34890,1,0,1:0:0:0:
429,187,34976,2,0,P|407:198|385:205,1,48,2|0,1:2|0:0,0:0:0:0:
245,126,35149,1,0,0:0:0:0:
340,283,35321,2,0,P|317:275|296:264,1,48,0|0,1:0|0:0,0:0:0:0:
245,126,35494,1,0,0:0:0:0:
248,331,35666,6,0,B|256:275|256:275|236:229|236:229|257:186|257:186|243:119,1,216.000008239746,12|0,0:0|0:0,0:0:0:0:
189,29,36011,6,0,P|232:38|289:28,1,96,6|0,3:2|0:0,0:0:0:0:
512,23,36356,6,0,P|482:55|462:97,1,86.3999973632813,10|0,0:0|0:0,0:0:0:0:
377,189,36701,6,0,P|363:147|341:114,1,76.8,2|0,0:0|3:0,0:0:0:0:
341,304,37045,5,10,1:2:0:0:
356,309,37132,1,0,0:0:0:0:
372,309,37218,1,2,0:0:0:0:
253,218,37390,1,0,3:0:0:0:
377,189,37563,5,2,0:0:0:0:
401,179,37650,1,0,0:0:0:0:
419,161,37736,1,10,0:0:0:0:
253,218,37908,1,0,0:0:0:0:
340,89,38080,5,2,0:0:0:0:
354,55,38167,1,0,0:0:0:0:
354,18,38253,1,2,3:2:0:0:
226,96,38425,5,10,0:0:0:0:
212,49,38512,1,0,0:0:0:0:
174,19,38598,1,2,0:0:0:0:
131,166,38770,5,2,3:2:0:0:
340,89,38942,1,0,0:0:0:0:
131,13,39114,1,8,0:0:0:0:
188,243,39287,2,0,P|117:205|23:221,1,144,2|0,3:2|0:0,0:0:0:0:
55,207,39632,1,0,3:0:0:0:
268,326,39804,1,10,1:2:0:0:
268,326,39890,1,0,0:0:0:0:
268,326,39976,2,0,P|291:324|314:316,1,48,0|0,0:0|0:0,0:0:0:0:
413,213,40149,5,0,3:0:0:0:
216,140,40321,1,0,0:0:0:0:
374,0,40494,1,8,0:0:0:0:
328,202,40666,2,0,P|301:130|338:34,1,144,0|0,3:0|0:0,0:0:0:0:
421,76,41011,2,0,P|446:69|463:70,2,32,0|0|0,3:0|0:0|0:0,0:0:0:0:
449,149,41183,1,10,0:0:0:0:
446,177,41270,1,0,0:0:0:0:
445,205,41356,1,2,0:0:0:0:
443,233,41442,1,0,0:0:0:0:
441,261,41528,6,0,L|432:375,1,96,2|0,3:2|0:0,0:0:0:0:
334,115,41873,6,0,L|327:205,1,86.3999973632813,10|0,0:0|0:0,0:0:0:0:
203,257,42218,6,0,L|197:335,1,76.8,2|0,0:0|3:0,0:0:0:0:
98,152,42563,5,10,0:0:0:0:
97,167,42649,1,0,0:0:0:0:
97,182,42735,1,2,0:0:0:0:
89,290,42908,1,0,3:0:0:0:
185,234,43080,5,2,0:0:0:0:
203,257,43166,1,0,0:0:0:0:
216,277,43252,1,10,0:0:0:0:
275,351,43425,1,0,0:0:0:0:
254,159,43597,5,2,0:0:0:0:
286,170,43683,1,0,0:0:0:0:
319,178,43769,1,2,3:2:0:0:
282,66,43942,5,10,0:0:0:0:
325,51,44028,1,0,0:0:0:0:
367,38,44114,1,2,0:0:0:0:
409,273,44287,5,2,3:2:0:0:
282,66,44459,1,0,0:0:0:0:
464,44,44632,1,8,0:0:0:0:
225,163,44804,2,0,L|368:174,1,144,2|0,3:2|0:0,0:0:0:0:
368,174,45149,1,2,3:2:0:0:
297,317,45321,1,10,0:0:0:0:
297,317,45408,1,0,0:0:0:0:
297,317,45494,2,0,L|291:266,1,48,2|0,0:0|0:0,0:0:0:0:
269,84,45666,5,0,3:0:0:0:
468,156,45839,1,0,0:0:0:0:
194,189,46011,1,8,0:0:0:0:
361,78,46183,2,0,L|371:217,1,96,2|0,3:2|0:0,0:0:0:0:
381,264,46442,1,0,0:0:0:0:
381,264,46528,1,0,3:0:0:0:
178,149,46701,2,0,L|138:145,6,24,10|0|0|0|2|0|0,0:0|0:0|0:0|0:0|0:0|0:0|0:0,0:0:0:0:
260,170,47045,6,0,P|215:169|115:234,1,153.6,2|0,0:0|0:0,0:0:0:0:
296,79,47563,2,0,P|230:51|205:27,1,76.8,2|0,0:0|0:0,0:0:0:0:
298,263,47908,2,0,P|232:291|207:315,1,76.8,2|0,0:0|0:0,0:0:0:0:
363,180,48252,1,2,0:0:0:0:
236,189,48425,5,2,0:0:0:0:
213,191,48597,2,0,P|193:158|182:121,1,76.8,0|0,0:0|0:0,0:0:0:0:
462,264,48942,2,0,P|451:300|431:333,1,76.8,2|0,0:0|0:0,0:0:0:0:
369,151,49287,5,0,0:0:0:0:
372,128,49459,1,0,0:0:0:0:
376,105,49632,1,0,0:0:0:0:
461,198,49804,5,2,0:0:0:0:
298,30,49976,1,2,0:0:0:0:
482,67,50149,1,2,0:0:0:0:
277,170,50321,1,2,0:0:0:0:
465,293,50494,2,0,L|370:305,2,96,2|0|0,0:0|0:0|0:0,0:0:0:0:
223,257,51011,6,0,L|270:262,2,48,2|0|0,0:0|0:0|0:0,0:0:0:0:
360,204,51356,1,2,0:0:0:0:
280,363,51528,1,2,0:0:0:0:
360,204,51701,1,2,0:0:0:0:
137,315,51873,2,0,L|126:219,1,96,2|0,0:0|0:0,0:0:0:0:
271,72,52218,1,0,0:0:0:0:
274,43,52390,1,0,0:0:0:0:
227,179,52563,6,0,P|264:186|373:115,1,153.6,2|0,0:0|0:0,0:0:0:0:
191,270,53080,2,0,P|204:315|209:365,1,76.8,2|0,0:0|0:0,0:0:0:0:
152,108,53425,2,0,P|165:63|170:13,1,76.8,2|0,0:0|0:0,0:0:0:0:
73,209,53770,1,0,0:0:0:0:
257,166,53942,5,2,0:0:0:0:
278,158,54114,2,0,P|315:163|352:175,1,76.8,0|0,0:0|0:0,0:0:0:0:
129,320,54459,2,0,P|92:331|54:337,1,76.8,2|0,0:0|0:0,0:0:0:0:
272,283,54804,5,0,0:0:0:0:
295,283,54976,1,0,0:0:0:0:
317,289,55149,1,0,0:0:0:0:
140,153,55321,6,0,P|143:105|156:58,1,96,2|0,0:0|0:0,0:0:0:0:
220,220,55666,1,2,0:0:0:0:
56,218,55839,1,2,0:0:0:0:
313,163,56011,2,0,P|325:209|329:257,1,96,2|0,0:0|0:0,0:0:0:0:
183,373,56356,1,0,0:0:0:0:
417,314,56528,6,0,P|343:269|237:298,1,192,2|0,0:0|0:0,0:0:0:0:
232,158,57045,1,2,0:0:0:0:
245,292,57218,1,2,0:0:0:0:
214,45,57390,2,0,P|123:89|243:147,1,288,2|0,0:0|0:0,0:0:0:0:
38,49,58080,6,0,P|25:110|35:160,1,96,8|0,1:0|0:0,0:0:0:0:
58,241,58339,1,0,1:0:0:0:
58,241,58425,1,8,1:0:0:0:
205,247,58597,2,0,P|188:243|139:241,1,48,0|0,1:0|1:2,1:0:0:0:
0,335,58770,1,8,1:0:0:0:
0,335,58856,2,0,P|17:339|104:340,1,96,0|0,1:0|0:0,0:0:0:0:
203,362,59114,1,8,1:0:0:0:
33,155,59287,6,0,P|29:138|27:89,2,48,0|0|8,0:0|0:0|1:0,0:0:0:0:
204,120,59632,1,0,1:0:0:0:
204,120,59718,1,0,1:0:0:0:
204,120,59804,1,8,1:0:0:0:
94,33,59976,2,0,L|141:37,1,48,0|0,1:0|1:0,1:0:0:0:
159,217,60149,1,8,0:0:0:0:
159,217,60235,2,0,L|42:225,1,96,0|0,1:0|0:0,0:0:0:0:
204,120,60494,2,0,L|321:128,1,96,8|0,1:0|0:0,0:0:0:0:
499,277,60839,6,0,P|444:261|397:267,1,96,8|0,1:0|0:0,0:0:0:0:
317,323,61097,1,0,1:0:0:0:
317,323,61183,1,8,1:0:0:0:
447,119,61356,2,0,P|443:159|433:180,1,48,0|0,1:0|1:0,1:0:0:0:
307,222,61528,1,8,1:0:0:0:
307,222,61614,2,0,L|299:118,1,96,0|0,1:0|0:0,0:0:0:0:
369,38,61873,1,8,1:0:0:0:
406,264,62045,6,0,L|476:269,2,48,0|0|8,1:0|1:0|1:0,0:0:0:0:
460,145,62390,1,0,1:0:0:0:
460,145,62476,1,0,1:0:0:0:
460,145,62563,1,8,1:0:0:0:
369,38,62735,2,0,P|345:38|321:44,1,48,0|0,1:0|1:0,1:0:0:0:
279,169,62908,2,0,P|272:192|272:216,3,48,8|0|0|0,1:0|1:0|0:0|0:0,0:0:0:0:
336,290,63252,1,8,1:0:0:0:
303,309,63338,1,0,0:0:0:0:
265,314,63424,1,0,0:0:0:0:
228,304,63510,1,0,0:0:0:0:
199,280,63596,5,8,0:0:0:0:
80,172,63770,1,8,0:0:0:0:
47,340,63942,1,8,0:0:0:0:
113,265,64114,1,8,0:0:0:0:
113,265,64201,1,0,0:0:0:0:
113,265,64287,5,8,0:0:0:0:
0,110,64459,1,8,0:0:0:0:
168,38,64632,1,8,0:0:0:0:
80,172,64804,2,0,L|92:60,1,96,8|8,0:0|0:0,0:0:0:0:
204,360,65149,1,8,0:0:0:0:
204,360,65235,1,0,0:0:0:0:
204,360,65321,2,0,L|216:248,1,96,8|8,0:0|0:0,0:0:0:0:
62,311,65666,2,0,L|0:317,2,48,8|0|8,0:0|0:0|0:0,0:0:0:0:
186,146,66011,2,0,L|290:136,1,96,8|8,0:0|0:0,0:0:0:0:
487,199,66356,5,8,0:0:0:0:
504,231,66442,1,8,0:0:0:0:
508,269,66528,1,8,0:0:0:0:
496,307,66614,1,8,0:0:0:0:
470,336,66701,1,8,0:0:0:0:
433,348,66787,1,8,0:0:0:0:
395,340,66873,1,8,0:0:0:0:
363,316,66959,1,8,0:0:0:0:
342,283,67045,5,8,0:0:0:0:
320,271,67132,1,8,0:0:0:0:
296,270,67218,1,8,0:0:0:0:
275,282,67304,1,8,0:0:0:0:
261,302,67390,1,8,0:0:0:0:
253,324,67476,1,8,0:0:0:0:
256,348,67563,5,8,0:0:0:0:
256,348,68770,5,2,0:0:0:0:
256,348,69114,6,0,L|200:354,1,48,6|0,3:2|0:0,0:0:0:0:
94,142,69287,2,0,L|46:147,1,48
235,168,69459,6,0,L|179:162,1,43.1999986816407,10|0,0:0|0:0,0:0:0:0:
102,361,69632,2,0,L|59:356,1,43.1999986816407,0|0,0:0|0:0,0:0:0:0:
170,259,69804,6,0,L|98:265,1,38.4,2|0,0:0|0:0,0:0:0:0:
53,269,69976,1,0,3:0:0:0:
258,236,70149,5,10,0:0:0:0:
264,254,70235,1,0,0:0:0:0:
262,273,70321,1,2,0:0:0:0:
288,42,70494,1,0,3:0:0:0:
121,138,70666,5,2,0:0:0:0:
114,110,70752,1,0,0:0:0:0:
120,81,70839,1,10,0:0:0:0:
380,235,71011,1,0,0:0:0:0:
266,118,71183,5,2,0:0:0:0:
304,114,71270,1,0,0:0:0:0:
341,124,71356,1,2,3:2:0:0:
118,271,71528,5,10,0:0:0:0:
71,283,71615,1,0,0:0:0:0:
26,265,71701,1,2,0:0:0:0:
211,328,71873,6,0,B|229:299|229:299|218:212,1,96,2|0,3:2|0:0,0:0:0:0:
37,45,72218,6,0,B|19:74|19:74|29:159,1,86.3999973632813,10|0,0:0|0:0,0:0:0:0:
221,237,72563,6,0,L|212:161,1,76.8,2|0,0:0|3:0,0:0:0:0:
25,125,72908,5,10,0:0:0:0:
26,140,72994,1,0,0:0:0:0:
28,155,73080,1,2,0:0:0:0:
295,79,73252,6,0,B|196:65|196:65|139:95,1,144,0|0,3:0|0:0,0:0:0:0:
32,168,73597,2,0,B|59:177|59:177|95:177,1,48,8|0,0:0|0:0,0:0:0:0:
207,327,73770,2,0,B|227:288|227:288|213:189,1,144,0|0,3:0|0:0,0:0:0:0:
157,85,74114,1,0,3:0:0:0:
324,163,74287,1,10,0:0:0:0:
351,171,74373,1,0,0:0:0:0:
375,156,74459,1,2,0:0:0:0:
402,163,74545,1,0,0:0:0:0:
430,156,74632,6,0,B|456:153|456:153|476:160,1,48,6|0,3:2|2:0,2:0:0:0:
369,326,74804,2,0,B|370:302|370:302|360:279,1,48,0|0,2:0|2:0,2:0:0:0:
232,111,74976,6,0,B|211:100|211:100|198:84,1,43.1999986816407,10|0,2:0|2:0,2:0:0:0:
236,241,75149,2,0,B|222:257|222:257|201:264,1,43.1999986816407,2|0,2:0|2:0,2:0:0:0:
345,68,75321,6,0,B|346:52|346:52|357:32,1,38.4,2|0,2:0|2:0,2:0:0:0:
326,177,75494,1,0,3:0:0:0:
446,91,75666,5,10,0:0:0:0:
464,96,75752,1,0,0:0:0:0:
480,106,75839,1,2,0:0:0:0:
484,11,76011,1,0,3:0:0:0:
326,177,76183,5,2,0:0:0:0:
318,149,76269,1,0,0:0:0:0:
326,121,76356,1,10,0:0:0:0:
196,159,76528,1,0,0:0:0:0:
456,260,76701,5,2,0:0:0:0:
426,284,76787,1,0,0:0:0:0:
387,288,76874,1,2,3:2:0:0:
317,36,77045,5,10,0:0:0:0:
364,42,77132,1,0,0:0:0:0:
400,73,77218,1,2,0:0:0:0:
243,238,77390,6,0,B|217:257|217:257|104:250,1,115.199996484375,2|0,3:2|0:0,0:0:0:0:
400,73,77735,6,0,B|426:54|426:54|534:60,1,105.600003222656,10|0,0:0|3:0,0:0:0:0:
243,238,78080,6,0,L|231:136,1,96,2|0,0:0|3:0,0:0:0:0:
400,73,78425,5,10,0:0:0:0:
398,100,78511,1,0,0:0:0:0:
395,129,78597,1,2,0:0:0:0:
488,277,78770,6,0,P|434:271|378:286,1,96,0|0,3:0|0:0,0:0:0:0:
292,353,79028,1,0,1:0:0:0:
292,353,79114,2,0,P|314:360|338:360,1,48,8|0,1:0|0:0,0:0:0:0:
378,179,79287,1,0,1:0:0:0:
350,171,79373,1,0,1:0:0:0:
321,172,79459,1,0,1:0:0:0:
452,278,79632,1,0,1:0:0:0:
241,225,79804,1,0,1:0:0:0:
232,207,79890,1,0,1:0:0:0:
227,188,79976,1,0,1:0:0:0:
228,168,80063,1,0,1:0:0:0:
233,149,80149,6,0,P|238:99|230:21,1,96,6|0,3:2|0:0,0:0:0:0:
60,267,80494,1,8,0:0:0:0:
59,305,80666,1,0,0:0:0:0:
94,95,80839,1,0,0:0:0:0:
243,261,81011,1,0,3:0:0:0:
89,182,81183,6,0,L|11:189,2,48,10|0|0,0:0|0:0|0:0,0:0:0:0:
243,261,81528,1,0,3:0:0:0:
74,95,81701,6,0,L|-7:102,2,52.8000016113282,2|0|8,0:0|0:0|0:0,0:0:0:0:
243,261,82045,1,0,0:0:0:0:
59,11,82218,6,0,L|-6:16,2,57.5999982421876,2|0|0,0:0|0:0|3:0,0:0:0:0:
108,270,82563,6,0,L|23:277,1,62.3999971435548,10|0,0:0|0:0,0:0:0:0:
267,130,82735,2,0,L|329:135,1,62.3999971435548,2|0,0:0|0:0,0:0:0:0:
170,178,82908,6,0,P|178:112|179:63,1,96,0|0,3:0|0:0,0:0:0:0:
356,257,83252,1,8,0:0:0:0:
360,295,83425,1,0,0:0:0:0:
439,139,83597,1,0,0:0:0:0:
242,270,83770,1,0,3:0:0:0:
462,349,83942,1,10,0:0:0:0:
459,329,84028,1,0,0:0:0:0:
457,310,84114,1,0,0:0:0:0:
455,291,84200,1,0,0:0:0:0:
452,272,84287,6,0,P|403:243|310:248,1,144,0|0,3:0|0:0,0:0:0:0:
287,268,84632,1,8,0:0:0:0:
60,174,84804,2,0,P|109:145|202:150,1,144,0|0,3:0|0:0,0:0:0:0:
226,167,85149,1,0,3:0:0:0:
381,57,85321,2,0,P|323:44|276:58,1,96,8|0,0:0|0:0,0:0:0:0:
154,334,85666,6,0,L|138:217,1,96,4|0,3:2|0:0,0:0:0:0:
420,268,86011,1,8,0:0:0:0:
457,262,86183,1,0,0:0:0:0:
224,184,86356,1,0,0:0:0:0:
342,369,86528,1,0,3:0:0:0:
432,176,86701,5,10,0:0:0:0:
432,176,86787,1,0,0:0:0:0:
432,176,86873,2,0,P|431:150|427:126,1,48
417,33,87045,1,0,3:0:0:0:
382,253,87218,6,0,P|365:278|351:297,2,52.8000016113282,2|0|8,0:0|0:0|0:0,0:0:0:0:
427,128,87563,1,0,0:0:0:0:
278,347,87735,6,0,P|255:354|220:360,2,57.5999982421876,2|0|0,0:0|0:0|3:0,0:0:0:0:
512,300,88080,6,0,P|489:270|471:254,1,62.3999971435548,10|0,0:0|0:0,0:0:0:0:
328,93,88252,2,0,P|314:128|309:152,1,62.3999971435548,2|0,0:0|0:0,0:0:0:0:
404,359,88425,5,2,3:2:0:0:
227,235,88597,1,0,0:0:0:0:
429,148,88770,1,8,0:0:0:0:
314,380,88942,2,0,P|323:297|325:209,1,144,2|0,3:2|0:0,0:0:0:0:
327,198,89287,1,0,3:0:0:0:
115,318,89459,2,0,P|168:332|220:337,1,96,10|0,0:0|0:0,0:0:0:0:
419,369,89804,5,0,3:0:0:0:
219,217,89976,1,0,1:0:0:0:
219,217,90063,1,0,1:0:0:0:
219,217,90149,1,0,1:0:0:0:
429,140,90321,1,0,1:0:0:0:
361,263,90494,1,0,1:0:0:0:
361,263,90580,1,0,1:0:0:0:
361,263,90666,1,0,1:0:0:0:
361,263,90752,1,0,1:0:0:0:
361,263,90839,1,0,1:0:0:0:
491,262,91011,1,0,1:0:0:0:
301,122,91183,5,4,0:0:0:0:
212,316,91528,1,2,0:0:0:0:
214,338,91701,1,0,0:0:0:0:
185,150,91873,2,0,P|132:158|112:164,1,57.5999982421876,2|0,0:0|0:0,0:0:0:0:
299,225,92218,2,0,P|352:217|372:211,1,57.5999982421876,2|0,0:0|0:0,0:0:0:0:
223,44,92563,6,0,P|165:37|109:23,1,115.199996484375,2|0,0:0|0:0,0:0:0:0:
110,24,93080,1,0,0:0:0:0:
307,76,93252,5,2,0:0:0:0:
311,53,93425,1,0,0:0:0:0:
185,152,93597,1,2,0:0:0:0:
192,185,93770,1,0,0:0:0:0:
52,278,93942,5,2,0:0:0:0:
239,266,94114,1,2,0:0:0:0:
95,187,94287,1,2,0:0:0:0:
100,366,94459,1,2,0:0:0:0:
412,366,94804,5,2,0:0:0:0:
417,274,94976,1,2,0:0:0:0:
428,182,95148,1,2,0:0:0:0:
428,182,95234,1,0,0:0:0:0:
428,182,95321,5,2,0:0:0:0:
327,313,95494,1,2,0:0:0:0:
511,232,95666,1,2,1:2:0:0:
329,114,95839,2,0,L|323:213,1,76.8,2|0,0:0|1:0,0:0:0:0:
482,31,96183,2,0,L|485:-14,2,24,2|0|0,0:0|0:0|0:0,0:0:0:0:
452,117,96356,1,10,1:2:0:0:
428,103,96442,1,0,0:0:0:0:
410,84,96528,1,2,0:0:0:0:
399,59,96614,1,0,0:0:0:0:
396,33,96701,6,0,L|280:23,1,96,6|0,3:2|0:0,0:0:0:0:
77,125,97045,6,0,L|163:132,1,86.3999973632813,10|0,0:0|0:0,0:0:0:0:
286,246,97390,6,0,L|366:253,1,76.8,2|0,0:0|3:0,0:0:0:0:
148,337,97735,5,10,0:0:0:0:
131,335,97821,1,0,0:0:0:0:
113,333,97908,1,2,0:0:0:0:
241,345,98080,1,0,3:0:0:0:
35,220,98252,5,2,0:0:0:0:
33,245,98338,1,0,0:0:0:0:
33,271,98425,1,10,0:0:0:0:
42,86,98597,1,0,0:0:0:0:
193,156,98770,5,2,0:0:0:0:
156,153,98856,1,0,0:0:0:0:
119,150,98943,1,2,3:2:0:0:
241,345,99114,5,10,0:0:0:0:
245,297,99200,1,0,0:0:0:0:
248,248,99287,1,2,0:0:0:0:
140,292,99459,5,2,3:2:0:0:
368,212,99632,1,0,0:0:0:0:
184,63,99804,1,8,0:0:0:0:
248,248,99976,2,0,P|258:206|264:124,1,96,2|0,3:2|0:0,0:0:0:0:
184,63,100321,1,0,3:0:0:0:
91,178,100494,2,0,P|81:136|75:54,1,96,8|0,0:0|0:0,0:0:0:0:
75,83,100752,1,0,0:0:0:0:
75,83,100839,5,2,3:2:0:0:
237,248,101011,1,0,0:0:0:0:
27,289,101183,1,8,0:0:0:0:
198,159,101356,2,0,P|277:159|325:234,1,144,2|0,3:2|0:0,0:0:0:0:
318,203,101701,1,0,3:0:0:0:
472,94,101873,2,0,B|442:86|442:86|377:96,1,96,8|0,0:0|0:0,0:0:0:0:
177,330,102218,6,0,L|309:317,1,96,12|0,3:2|0:0,0:0:0:0:
381,315,102476,1,0,1:0:0:0:
381,315,102563,1,8,1:0:0:0:
210,206,102735,1,0,3:0:0:0:
383,113,102908,1,8,1:0:0:0:
383,113,102994,2,0,P|394:198|393:249,1,96,0|0,1:0|0:0,0:0:0:0:
381,315,103252,1,8,3:2:0:0:
500,137,103425,1,0,0:0:0:0:
256,164,103597,6,0,P|259:116|267:68,1,96,8|0,3:2|0:0,0:0:0:0:
353,18,103856,1,0,1:0:0:0:
353,18,103942,1,8,1:0:0:0:
129,86,104114,2,0,P|148:100|165:116,1,48,0|0,3:0|0:0,0:0:0:0:
312,241,104287,1,8,1:0:0:0:
312,241,104373,2,0,P|290:250|203:276,1,96,0|0,1:0|0:0,1:0:0:0:
134,219,104632,1,8,3:2:0:0:
271,356,104804,1,0,0:0:0:0:
94,382,104976,5,8,3:2:0:0:
229,174,105149,1,0,1:0:0:0:
229,174,105235,1,0,1:0:0:0:
229,174,105321,1,8,1:0:0:0:
32,124,105494,1,0,3:0:0:0:
97,283,105666,1,8,1:0:0:0:
97,283,105752,2,0,L|106:173,1,96,0|0,1:0|0:0,0:0:0:0:
119,91,106011,1,8,3:2:0:0:
387,201,106183,2,0,L|326:205,1,48,0|0,1:0|0:0,0:0:0:0:
223,218,106356,5,8,3:2:0:0:
379,305,106528,1,0,1:0:0:0:
379,305,106614,1,0,1:0:0:0:
379,305,106701,1,8,1:2:0:0:
275,130,106873,1,0,3:0:0:0:
188,315,107045,1,8,0:0:0:0:
188,315,107132,2,0,L|80:307,1,96,0|0,1:0|0:0,0:0:0:0:
92,307,107390,1,8,3:2:0:0:
270,268,107563,1,0,1:0:0:0:
155,121,107735,6,0,P|139:182|145:218,1,96,8|0,3:2|0:0,0:0:0:0:
244,185,107994,1,0,1:0:0:0:
244,185,108080,1,8,1:2:0:0:
56,65,108252,2,0,P|51:32|48:7,1,48,0|0,3:0|0:0,0:0:0:0:
240,52,108425,1,8,1:0:0:0:
240,52,108511,2,0,P|287:55|332:40,1,96,0|0,1:0|0:0,0:0:0:0:
417,0,108770,1,8,3:0:0:0:
268,170,108942,1,0,1:0:0:0:
484,211,109114,5,8,3:2:0:0:
399,120,109287,1,0,1:0:0:0:
399,120,109373,1,0,1:0:0:0:
399,120,109459,1,8,1:0:0:0:
352,314,109632,1,0,3:0:0:0:
200,184,109804,1,8,1:0:0:0:
200,184,109890,2,0,P|152:180|107:195,1,96,0|0,1:0|0:0,0:0:0:0:
20,254,110149,1,8,3:2:0:0:
164,292,110321,1,0,1:0:0:0:
136,79,110494,5,8,3:2:0:0:
23,134,110666,1,0,1:0:0:0:
23,134,110752,1,0,1:0:0:0:
23,134,110839,1,8,1:0:0:0:
221,165,111011,2,0,L|276:158,1,48,0|0,3:0|0:0,0:0:0:0:
183,273,111183,1,8,1:0:0:0:
183,273,111270,2,0,L|66:255,1,96,0|0,1:0|0:0,1:0:0:0:
8,237,111528,1,8,3:2:0:0:
282,304,111701,2,0,L|275:249,1,48,0|0,1:0|0:0,0:0:0:0:
177,170,111873,5,8,3:1:0:0:
405,264,112045,1,0,1:0:0:0:
405,264,112132,1,0,1:0:0:0:
405,264,112218,1,8,1:0:0:0:
199,377,112390,1,0,3:0:0:0:
289,119,112563,2,0,B|334:216|256:209|297:318,1,192,8|8,0:0|0:0,0:0:0:0:
292,305,113080,1,0,0:0:0:0:
116,173,113252,5,14,3:2:0:0:
137,161,113339,1,0,0:0:0:0:
160,159,113425,2,0,P|186:170|224:169,1,48,0|0,0:0|1:0,0:0:0:0:
404,252,113597,2,0,P|380:254|358:264,1,48,8|0,0:0|0:0,0:0:0:0:
302,382,113770,2,0,P|278:380|256:370,1,48,8|0,0:0|0:0,0:0:0:0:
184,254,113942,1,8,0:0:0:0:
38,379,114114,1,0,0:0:0:0:
35,355,114201,2,0,P|37:332|46:310,2,48,0|8|0,0:0|1:0|0:0,0:0:0:0:
184,254,114459,1,0,0:0:0:0:
36,58,114632,6,0,P|11:102|17:173,1,96,8|0,0:0|0:0,0:0:0:0:
23,234,114890,1,0,1:0:0:0:
23,234,114976,2,0,P|72:229|100:217,1,48,8|0,1:0|0:0,0:0:0:0:
170,90,115149,2,0,P|219:95|247:107,1,48,0|0,1:0|0:0,0:0:0:0:
303,200,115321,1,8,1:0:0:0:
303,200,115408,2,0,P|355:203|431:182,1,96,0|0,1:0|0:0,0:0:0:0:
478,123,115666,1,8,0:0:0:0:
490,252,115839,1,0,1:0:0:0:
482,274,115925,1,0,1:0:0:0:
469,294,116011,6,0,P|421:285|374:289,1,96,8|0,0:0|0:0,0:0:0:0:
262,260,116270,1,0,1:0:0:0:
262,260,116356,2,0,P|292:223|310:186,1,48,8|0,1:0|0:0,0:0:0:0:
373,145,116528,2,0,P|389:189|413:223,1,48,0|0,1:0|0:0,0:0:0:0:
311,384,116701,1,0,0:0:0:0:
374,288,116873,1,0,0:0:0:0:
398,286,116959,2,0,P|421:285|447:290,2,48,0|8|0,0:0|1:0|0:0,0:0:0:0:
262,260,117218,6,0,P|239:261|213:256,3,48,0|0|8|0,0:0|0:0|0:0|0:0,0:0:0:0:
116,349,117563,1,0,1:0:0:0:
116,349,117649,1,0,1:0:0:0:
116,349,117735,1,8,1:0:0:0:
239,164,117908,1,0,1:0:0:0:
58,85,118080,1,8,1:0:0:0:
58,85,118166,2,0,P|52:138|64:180,1,96,0|0,1:0|0:0,0:0:0:0:
239,164,118425,2,0,P|245:111|233:69,1,96,8|0,1:0|0:0,0:0:0:0:
146,22,118683,1,0,1:0:0:0:
146,22,118770,6,0,L|149:91,1,48,8|0,1:0|0:0,0:0:0:0:
155,202,118942,2,0,L|152:154,1,48,8|0,1:0|0:0,0:0:0:0:
6,51,119115,2,0,L|53:53,1,48,8|0,0:0|1:0,0:0:0:0:
231,22,119287,2,0,L|233:69,1,48,8|0,0:0|0:0,0:0:0:0:
15,176,119459,6,0,L|84:179,1,48,8|0,0:0|1:0,0:0:0:0:
253,185,119632,1,8,0:0:0:0:
253,185,119718,2,0,L|322:188,2,48,0|8|0,0:0|1:0|0:0,0:0:0:0:
234,354,119976,2,0,L|231:285,1,48,8|0,1:0|0:0,0:0:0:0:
392,206,120149,6,0,L|389:137,1,48,8|0,1:0|0:0,0:0:0:0:
215,70,120321,1,8,0:0:0:0:
215,70,120408,1,0,1:0:0:0:
215,70,120494,2,0,L|212:1,1,48,8|0,1:0|0:0,0:0:0:0:
489,150,120666,2,0,L|492:219,1,48,8|0,1:0|1:0,0:0:0:0:
267,191,120839,5,8,0:0:0:0:
267,191,120925,2,0,L|177:197,2,48,0|8|0,1:0|0:0|0:0,0:0:0:0:
102,230,121183,2,0,L|98:182,1,48,8|0,1:0|0:0,0:0:0:0:
389,158,121356,2,0,L|392:205,1,48,8|0,0:0|0:0,1:0:0:0:
262,368,121528,6,0,L|248:210,2,153.6,2|2|2,0:0|0:0|0:0,0:0:0:0:
385,195,122563,1,2,0:0:0:0:
111,219,122735,1,2,0:0:0:0:
118,226,123597,5,0,1:0:0:0:
118,226,123683,1,0,1:0:0:0:
118,226,123770,2,0,L|115:179,1,48,0|0,1:0|1:0,1:0:0:0:
107,44,123942,1,2,0:0:0:0:
505,97,124287,6,0,B|460:93|460:93|431:103|431:103|382:99,1,124.79999428711,6|0,3:1|0:0,0:0:0:0:
230,209,124545,1,0,0:0:0:0:
271,203,124632,2,0,L|342:197,1,62.3999971435548,2|0,0:1|0:0,0:0:0:0:
355,10,124804,2,0,L|284:16,1,62.3999971435548,2|0,0:1|0:0,0:0:0:0:
157,133,124976,6,0,P|101:82|163:41,1,172.799994726563,10|0,0:1|0:0,0:0:0:0:
189,221,125321,2,0,P|160:224|131:224,1,57.5999982421876,2|0,3:1|0:0,0:0:0:0:
16,106,125494,2,0,P|15:77|19:48,1,57.5999982421876,2|0,0:1|0:0,0:0:0:0:
242,2,125666,6,0,B|269:56|229:56|258:137,1,105.600003222656,2|0,0:1|3:0,0:0:0:0:
115,47,125925,1,0,0:0:0:0:
115,47,126011,2,0,L|195:38,1,48,2|0,3:1|0:0,0:0:0:0:
382,81,126183,2,0,L|301:72,1,48,2|0,0:1|0:0,0:0:0:0:
117,189,126356,2,0,B|152:173|182:174|182:174|206:203|250:202,1,144,10|0,0:1|0:0,0:0:0:0:
150,380,126701,6,0,B|159:264|159:264|188:282|229:288,1,187.199991430664,2|0,3:1|0:0,0:0:0:0:
362,380,127045,6,0,B|357:347|357:347|346:330|346:330|361:304|361:304|351:285|351:285|344:233,1,134.399995898438,2|0,3:1|0:0,0:0:0:0:
440,163,127304,1,0,0:0:0:0:
471,196,127390,2,0,B|482:228|482:228|476:280,1,67.1999979492188,2|0,0:1|0:0,0:0:0:0:
226,287,127563,2,0,B|214:254|214:254|220:202,1,67.1999979492188,2|0,0:1|0:0,0:0:0:0:
319,19,127735,6,0,B|352:86|352:86|329:158|329:158|280:79,1,216.000008239746,10|0,0:1|0:0,0:0:0:0:
207,123,128080,2,0,B|164:111|175:138|105:131,1,72.0000027465821,2|0,3:1|0:0,0:0:0:0:
406,209,128252,2,0,B|449:197|438:224|508:217,1,72.0000027465821,2|0,0:1|0:0,0:0:0:0:
226,287,128425,6,0,B|167:277|186:304|108:297,2,96.0000036621095,2|2|2,0:1|0:1|0:1,0:0:0:0:
273,215,128770,6,0,P|231:202|191:209,1,62.3999971435548,2|0,3:1|0:0,0:0:0:0:
207,366,128942,2,0,P|165:379|125:372,1,62.3999971435548,2|0,0:1|0:0,0:0:0:0:
66,191,129114,6,0,B|117:140|117:140|132:306,1,230.4,10|0,0:1|0:0,0:0:0:0:
13,104,129459,2,0,B|13:89|13:89|16:79|16:79|15:70|15:70|17:53,5,51.2,10|0|0|0|0|0,0:1|1:0|1:0|1:0|1:0|1:0,0:0:0:0:
102,39,129804,6,0,B|122:35|144:43|144:43|183:33|183:33|235:36,1,124.79999428711,2|0,3:1|0:0,0:0:0:0:
288,151,130063,1,0,0:0:0:0:
244,147,130149,2,0,L|158:144,1,62.3999971435548,2|0,0:1|0:0,0:0:0:0:
314,3,130321,2,0,B|322:36|322:36|311:83,1,62.3999971435548,2|0,0:1|0:0,0:0:0:0:
373,255,130494,6,0,B|370:220|370:220|379:196|379:196|373:170|373:170|376:141,1,115.199996484375,10|0,0:1|0:0,0:0:0:0:
413,56,130752,1,0,0:0:0:0:
413,56,130838,2,0,L|497:60,1,57.5999982421876,2|0,3:1|0:0,0:0:0:0:
465,226,131011,2,0,B|471:198|471:198|463:165,1,57.5999982421876,2|0,0:1|0:0,0:0:0:0:
465,226,131356,5,2,3:1:0:0:
285,339,131528,2,0,L|280:262,2,76.7999976562501,2|2|2,3:1|0:1|0:1,0:0:0:0:
342,196,131873,6,0,B|308:165|308:165|238:170|238:170|209:203,1,158.400004833985,10|0,0:1|0:0,0:0:0:0:
23,283,132218,6,0,B|95:275|121:217|121:217|127:256|155:272,1,187.199991430664,2|0,3:1|0:0,0:0:0:0:
21,61,132563,6,0,B|0:93|-12:120|-12:120|4:150|24:175,1,134.399995898438,2|0,3:1|0:0,0:0:0:0:
214,164,132821,1,0,0:0:0:0:
222,117,132908,2,0,B|224:79|224:79|211:47,1,67.1999979492188,2|0,0:1|0:0,3:0:0:0:
23,283,133080,2,0,B|21:321|21:321|35:352,1,67.1999979492188,2|0,0:1|0:0,0:0:0:0:
319,251,133252,6,0,B|271:258|271:258|238:252|238:252|204:283|204:283|174:277|174:277|117:289,1,216.000008239746,10|0,0:1|0:0,0:0:0:0:
57,181,133597,2,0,B|82:175|82:175|105:180|105:180|127:177,1,72.0000027465821,2|0,3:1|0:0,0:0:0:0:
259,365,133770,2,0,B|281:362|281:362|304:367|304:367|329:360,1,72.0000027465821,2|0,0:1|0:0,0:0:0:0:
408,128,133942,5,0,0:0:0:0:
279,258,134114,1,2,0:0:0:0:
279,258,134201,1,0,0:0:0:0:
279,258,134287,1,2,0:0:0:0:
408,128,134459,1,0,0:0:0:0:
258,20,134632,6,0,L|192:30,2,64,0|0|0,1:0|1:0|1:0,1:0:0:0:
368,213,134976,2,0,L|432:222,2,64,0|0|0,1:0|1:0|1:0,1:0:0:0:
231,126,135321,6,0,B|304:91|294:161|396:109,1,144.000005493164,6|0,3:1|0:0,0:0:0:0:
271,319,135580,1,0,0:0:0:0:
270,275,135666,2,0,B|279:236|260:236|273:187,1,72.0000027465821,2|0,3:1|0:0,0:0:0:0:
451,147,135839,2,0,B|460:108|441:108|454:59,1,72.0000027465821,2|0,0:1|0:0,0:0:0:0:
349,26,136011,6,0,B|343:77|343:77|370:119|370:119|333:181|379:242,1,230.4,6|0,3:1|0:0,0:0:0:0:
436,350,136356,2,0,B|413:351|396:356|396:356|382:341|351:330,1,76.8,2|0,3:1|0:0,0:0:0:0:
269,203,136528,2,0,B|246:202|229:197|229:197|215:212|184:223,1,76.8,2|0,0:1|0:0,0:0:0:0:
44,347,136701,6,0,B|103:333|123:288|123:288|163:323|218:315,1,204.8,4|2,3:1|0:1,0:0:0:0:
21,173,137045,2,0,B|21:207|21:207|29:222|29:222|37:258,1,76.8,2|0,3:1|0:0,0:0:0:0:
219,317,137218,2,0,B|248:299|248:299|257:285|257:285|284:260,1,76.8,2|0,0:1|0:0,0:0:0:0:
228,78,137390,2,0,B|164:42|164:42|150:122|150:122|168:225,1,230.4,4|0,3:1|0:0,0:0:0:0:
276,267,137735,6,0,B|300:246|300:246|339:269|390:252|390:252|338:330,1,216.000008239746,2|0,3:1|0:0,0:0:0:0:
349,176,138080,6,0,B|355:124|355:124|340:91|340:91|354:59|354:59|346:-7,1,163.200003112793,6|0,3:1|0:0,0:0:0:0:
432,143,138339,1,0,0:0:0:0:
349,176,138425,2,0,B|329:173|329:173|310:179|310:179|290:174|290:174|269:178,1,81.6000015563965,2|0,3:1|0:0,0:0:0:0:
349,19,138597,2,0,B|369:22|369:22|388:16|388:16|408:21|408:21|428:16,1,81.6000015563965,2|0,0:1|0:0,0:0:0:0:
445,261,138770,6,0,B|404:274|368:252|368:252|352:281|352:281|337:278|324:287|324:287|298:267|298:267|271:303|220:296,1,259.199992089844,6|0,3:1|0:0,0:0:0:0:
94,368,139114,2,0,B|102:357|88:338|88:338|97:317|97:317|86:286,1,86.3999973632813,2|0,3:1|0:0,0:0:0:0:
234,202,139287,2,0,B|225:191|239:172|239:172|230:151|230:151|241:120,1,86.3999973632813,2|0,0:1|0:0,0:0:0:0:
73,44,139459,6,0,B|61:82|61:82|79:160,2,83.1999961914064,4|2|2,3:1|0:1|0:1,0:0:0:0:
29,210,139804,2,0,B|59:205|59:205|83:209|83:209|111:203,1,83.1999961914064,2|0,3:1|0:0,0:0:0:0:
310,201,140034,1,2,0:1:0:0:
232,95,140149,6,0,P|241:204|333:176,1,201.599993847656,2|0,0:1|0:0,0:0:0:0:
217,75,140494,6,0,B|206:102|189:120|189:120|198:143|186:172|186:172|214:188|223:219|223:219|252:214|280:232|280:232|294:221|312:219,1,259.199992089844,2|0,0:1|0:0,0:0:0:0:
453,77,140839,6,0,B|403:50|403:50|350:58|350:58|301:104,1,163.200003112793,6|0,3:1|0:0,0:0:0:0:
308,235,141097,1,0,0:0:0:0:
400,208,141183,2,0,B|398:179|398:179|412:167|395:155|395:155|380:92,1,81.6000015563965,2|0,3:1|0:0,0:0:0:0:
228,0,141356,2,0,B|226:29|226:29|240:41|223:53|223:53|217:75,1,81.6000015563965,2|0,0:1|0:0,0:0:0:0:
275,302,141528,6,0,B|295:138|295:138|277:167|241:178,1,230.4,6|0,3:1|0:0,0:0:0:0:
97,259,141873,2,0,B|109:271|128:276|128:276|142:276|178:262,1,72.0000027465821,2|0,3:1|0:0,0:0:0:0:
455,319,142045,2,0,B|436:305|422:303|422:303|403:304|388:313,1,72.0000027465821,2|0,0:1|0:0,0:0:0:0:
275,302,142218,5,6,3:1:0:0:
301,97,142390,2,0,L|288:211,1,67.1999979492188,2|0,0:1|0:0,0:0:0:0:
275,302,142563,2,0,L|263:384,2,83.1999961914064,2|2|2,3:1|0:1|0:1,0:0:0:0:
343,221,142908,2,0,B|312:211|291:189|291:189|268:206|231:210,1,124.79999428711,6|0,3:1|0:0,0:0:0:0:
216,213,143166,1,0,0:0:0:0:
198,211,143252,6,0,B|244:224|283:278|283:278|326:233|374:228,1,216.000008239746,2|0,0:1|0:0,0:0:0:0:
407,39,143597,6,0,P|372:104|455:98,1,153.6,6|0,3:1|0:0,0:0:0:0:
290,24,143856,1,0,0:0:0:0:
277,66,143942,2,0,B|276:91|272:103|272:103|281:115|278:152,1,76.8,2|0,3:1|0:0,0:0:0:0:
454,229,144114,2,0,B|429:221|418:214|418:214|404:220|369:208,1,76.8,2|0,0:1|0:0,0:0:0:0:
137,297,144287,6,0,B|171:297|198:276|198:276|232:304|232:304|252:295|297:298,1,163.200003112793,6|0,3:1|0:0,0:0:0:0:
380,350,144545,1,0,0:0:0:0:
305,379,144632,2,0,B|286:380|270:373|270:373|247:385|247:385|227:381,1,81.6000015563965,2|0,3:1|0:0,0:0:0:0:
202,200,144804,2,0,B|221:198|221:198|244:210|244:210|260:203|279:204,1,81.6000015563965,0|0,0:3|0:3,0:3:0:0:
477,280,144976,5,6,3:2:0:0:
462,280,145062,1,0,1:0:0:0:
448,281,145148,1,0,1:0:0:0:
433,282,145234,1,0,1:0:0:0:
419,283,145320,1,0,1:0:0:0:
405,284,145407,1,0,1:0:0:0:
390,285,145493,1,0,1:0:0:0:
376,286,145579,1,0,1:0:0:0:
362,287,145665,1,0,1:0:0:0:
490,382,145839,5,0,0:0:0:0:
490,382,145925,1,0,0:0:0:0:
490,382,146011,1,0,1:0:0:0:
362,287,146183,1,0,0:0:0:0:
469,184,146356,5,6,3:2:0:0:
94,71,157390,6,0,L|88:203,1,96,8|0,0:0|0:0,0:0:0:0:
92,259,157649,1,0,1:0:0:0:
92,259,157735,1,8,1:0:0:0:
270,188,157908,2,0,P|238:179|203:181,1,48,0|0,1:0|1:0,1:0:0:0:
214,348,158080,1,8,1:0:0:0:
214,348,158166,2,0,P|260:345|322:326,1,96,0|0,1:0|0:0,0:0:0:0:
437,318,158425,2,0,L|433:380,1,48,8|0,1:0|0:0,0:0:0:0:
301,213,158597,2,0,L|297:165,1,48
458,161,158770,5,8,1:0:0:0:
316,339,158942,1,0,1:0:0:0:
316,339,159028,1,0,1:0:0:0:
316,339,159114,1,8,1:0:0:0:
454,208,159287,2,0,L|458:160,1,48,0|0,1:0|1:0,1:0:0:0:
294,69,159459,1,8,1:0:0:0:
294,69,159545,2,0,L|298:202,1,96,0|0,1:0|0:0,0:0:0:0:
306,252,159804,2,0,L|354:246,1,48,8|0,1:0|0:0,1:0:0:0:
465,166,159976,1,0,1:0:0:0:
465,166,160063,1,0,1:0:0:0:
465,166,160149,5,8,1:0:0:0:
403,39,160321,2,0,P|397:62|397:86,1,48,0|0,1:0|1:0,1:0:0:0:
354,247,160494,1,8,1:0:0:0:
496,256,160666,2,0,P|472:250|448:250,1,48,0|0,1:0|1:0,1:0:0:0:
346,164,160839,1,8,1:0:0:0:
346,164,160925,2,0,P|294:174|246:175,1,96,0|0,1:0|0:0,0:0:0:0:
183,272,161183,2,0,P|159:271|136:278,2,48,8|0|0,1:0|0:0|1:0,0:0:0:0:
297,68,161528,5,8,1:0:0:0:
150,182,161701,1,0,1:0:0:0:
148,162,161787,1,0,1:0:0:0:
147,142,161873,1,8,1:0:0:0:
282,274,162045,2,0,L|289:346,1,48,0|0,1:0|1:0,1:0:0:0:
63,244,162218,1,8,1:0:0:0:
60,225,162304,2,0,L|49:116,1,96,0|0,1:0|0:0,0:0:0:0:
43,31,162563,2,0,L|-12:37,5,32,0|0|0|0|0|0,1:0|1:0|1:0|1:0|1:0|1:0,1:0:0:0:
143,118,162908,6,0,L|273:105,1,105.600003222656,8|0,0:0|0:0,0:0:0:0:
296,17,163166,1,8,0:0:0:0:
263,18,163252,2,0,L|194:24,1,52.8000016113282,8|0,0:0|0:0,0:0:0:0:
234,194,163425,2,0,L|302:187,1,52.8000016113282,8|0,0:0|0:0,0:0:0:0:
376,71,163597,2,0,L|382:124,1,52.8000016113282,8|0,0:0|0:0,0:0:0:0:
144,242,163770,2,0,L|149:294,1,52.8000016113282,8|0,0:0|0:0,0:0:0:0:
411,375,163942,2,0,L|405:322,1,52.8000016113282,8|0,0:0|0:0,0:0:0:0:
398,228,164114,1,8,0:0:0:0:
398,228,164201,1,0,0:0:0:0:
398,228,164287,6,8,P|445:223|479:236,2,76.7999976562501
321,374,164632,2,8,P|321:335|305:301,2,76.7999976562501
132,273,164976,2,8,P|168:263|198:239,1,76.7999976562501
348,115,165206,1,8,0:0:0:0:
178,66,165321,2,8,P|196:99|227:121,1,76.7999976562501
399,227,165551,1,8,0:0:0:0:
348,115,165666,1,0,0:0:0:0:
348,115,167045,5,0,0:0:0:0:
262,38,167218,2,0,L|255:97,1,38.4,0|0,0:0|0:0,0:0:0:0:
438,73,167390,1,0,0:0:0:0:
440,95,167476,1,0,0:0:0:0:
443,118,167562,1,0,0:0:0:0:
446,141,167648,1,0,0:0:0:0:
449,164,167734,1,0,0:0:0:0:
452,187,167821,1,0,0:0:0:0:
455,210,167908,2,0,L|464:274,1,48
348,115,168080,5,2,0:0:0:0:
348,115,168425,5,2,3:1:0:0:
75,181,168597,1,0,0:0:0:0:
268,247,168770,5,10,0:1:0:0:
217,29,168942,1,0,0:0:0:0:
167,158,169114,5,2,0:1:0:0:
300,129,169287,1,0,3:0:0:0:
28,169,169459,5,10,0:1:0:0:
25,188,169545,1,0,0:0:0:0:
29,206,169632,1,2,0:1:0:0:
86,60,169804,1,2,3:1:0:0:
173,221,169976,5,2,0:1:0:0:
178,189,170062,1,0,0:0:0:0:
167,158,170149,1,10,0:1:0:0:
274,228,170321,1,0,0:0:0:0:
35,308,170494,5,2,0:1:0:0:
76,327,170580,1,0,0:0:0:0:
121,327,170666,2,0,P|170:299|185:275,1,57.5999982421876,2|0,3:1|0:0,0:0:0:0:
255,80,170839,5,10,0:1:0:0:
202,46,170925,1,0,0:0:0:0:
139,45,171011,2,0,P|96:64|81:79,1,62.3999971435548,2|0,0:1|0:0,0:0:0:0:
274,228,171183,6,0,P|350:252|406:250,1,96,2|0,3:1|0:0,0:0:0:0:
338,60,171528,6,0,P|293:64|249:83,1,86.3999973632813,10|0,0:1|0:0,0:0:0:0:
365,253,171873,6,0,P|360:208|345:166,1,76.8,2|0,0:1|3:0,0:0:0:0:
255,80,172218,5,10,0:1:0:0:
251,95,172304,1,0,0:0:0:0:
251,110,172390,1,2,0:1:0:0:
476,227,172563,5,2,3:1:0:0:
472,197,172649,1,0,0:0:0:0:
459,167,172735,1,2,0:1:0:0:
279,330,172908,5,10,0:1:0:0:
229,332,172994,1,0,0:0:0:0:
189,311,173080,1,2,3:1:0:0:
350,204,173252,5,2,0:1:0:0:
397,179,173339,1,2,0:0:0:0:
449,186,173425,1,2,3:1:0:0:
487,222,173511,1,2,0:0:0:0:
498,274,173597,5,10,0:1:0:0:
493,293,173683,1,0,0:0:0:0:
490,313,173770,1,2,0:1:0:0:
486,333,173856,1,0,0:0:0:0:
483,351,173942,5,6,3:1:0:0:
242,215,174114,1,0,0:0:0:0:
452,143,174287,5,10,0:1:0:0:
337,340,174459,1,0,0:0:0:0:
331,137,174632,5,2,0:1:0:0:
389,246,174804,1,0,3:0:0:0:
230,94,174976,5,10,0:1:0:0:
210,91,175063,1,0,0:0:0:0:
190,88,175149,1,0,0:0:0:0:
372,25,175321,1,0,3:0:0:0:
303,231,175494,5,2,0:1:0:0:
334,226,175581,1,0,0:0:0:0:
364,220,175666,1,10,0:1:0:0:
173,85,175839,1,0,0:0:0:0:
200,245,176011,5,2,0:1:0:0:
153,236,176098,1,0,0:0:0:0:
109,226,176183,2,0,L|31:211,1,57.5999982421876,2|0,3:1|0:0,0:0:0:0:
296,134,176356,5,10,0:1:0:0:
357,122,176443,1,0,0:0:0:0:
417,108,176528,2,0,L|491:90,1,62.3999971435548,2|0,0:1|0:0,0:0:0:0:
415,289,176701,6,0,L|301:267,1,96,2|0,3:1|0:0,0:0:0:0:
108,132,177045,6,0,L|192:116,1,86.3999973632813,10|0,0:1|3:0,0:0:0:0:
320,270,177390,6,0,L|220:251,1,76.8,2|0,0:1|3:0,0:0:0:0:
192,116,177735,5,10,0:1:0:0:
207,113,177821,1,0,0:0:0:0:
222,110,177908,1,2,0:1:0:0:
161,306,178080,6,0,P|147:232|169:183,1,96,0|0,3:0|0:0,0:0:0:0:
87,139,178339,1,0,1:0:0:0:
87,139,178425,2,0,P|66:146|17:142,1,48,8|0,1:0|0:0,0:0:0:0:
244,23,178597,1,0,1:0:0:0:
271,32,178683,1,0,1:0:0:0:
290,53,178770,1,0,1:0:0:0:
79,32,178942,1,0,1:0:0:0:
252,141,179114,1,0,1:0:0:0:
268,151,179201,1,0,1:0:0:0:
286,154,179287,1,0,1:0:0:0:
305,152,179373,1,0,1:0:0:0:
323,148,179459,6,0,L|436:159,1,96,4|0,3:2|0:0,0:0:0:0:
176,80,179804,1,8,0:0:0:0:
180,41,179976,1,0,0:0:0:0:
247,242,180149,1,0,0:0:0:0:
74,125,180321,1,0,3:0:0:0:
290,53,180494,6,0,L|294:-5,2,48,10|0|0,0:0|0:0|0:0,0:0:0:0:
375,158,180839,1,0,3:0:0:0:
126,129,181011,6,0,L|64:124,2,52.8000016113282,2|0|8,0:0|0:0|0:0,0:0:0:0:
375,158,181356,1,0,0:0:0:0:
94,238,181528,6,0,L|88:315,2,57.5999982421876,2|0|0,0:0|0:0|3:0,0:0:0:0:
417,36,181873,6,0,L|487:42,1,62.3999971435548,10|0,0:0|0:0,0:0:0:0:
273,155,182045,2,0,L|267:225,1,62.3999971435548,2|0,0:0|0:0,0:0:0:0:
450,318,182218,6,0,L|459:205,1,96,0|0,3:0|0:0,0:0:0:0:
307,54,182563,1,8,0:0:0:0:
303,15,182735,1,0,0:0:0:0:
380,139,182908,1,0,0:0:0:0:
194,57,183080,1,0,3:0:0:0:
433,63,183252,5,10,0:0:0:0:
446,76,183339,1,0,0:0:0:0:
453,93,183425,1,0,0:0:0:0:
234,177,183597,6,0,P|220:214|222:248,3,52.8000016113282,2|0|2|0,3:2|0:0|0:0|0:0,0:0:0:0:
318,230,183942,6,0,P|347:226|374:216,1,57.5999982421876,10|0,0:0|0:0,0:0:0:0:
128,292,184114,2,0,P|101:282|73:278,1,57.5999982421876,2|0,3:2|0:0,0:0:0:0:
259,381,184287,6,0,P|245:344|247:310,3,52.8000016113282,2|0|2|0,0:0|0:0|3:2|0:0,0:0:0:0:
348,324,184632,1,10,0:0:0:0:
130,190,184804,1,0,0:0:0:0:
314,42,184976,6,0,P|337:117|328:160,1,96,4|0,3:2|0:0,0:0:0:0:
86,78,185321,1,8,0:0:0:0:
47,72,185494,1,0,0:0:0:0:
209,186,185666,1,0,0:0:0:0:
189,33,185839,1,0,3:0:0:0:
38,194,186011,6,0,P|25:221|22:250,2,48,10|0|0,0:0|0:0|0:0,0:0:0:0:
284,31,186356,1,0,3:0:0:0:
137,260,186528,6,0,P|144:289|161:321,2,52.8000016113282,2|0|8,0:0|0:0|0:0,0:0:0:0:
18,98,186873,1,0,0:0:0:0:
261,258,187045,6,0,P|285:275|323:290,2,57.5999982421876,2|0|0,0:0|0:0|3:0,0:0:0:0:
137,8,187390,6,0,P|109:20|81:44,1,62.3999971435548,10|0,0:0|0:0,0:0:0:0:
56,229,187563,2,0,P|80:248|108:261,1,62.3999971435548,2|0,0:0|0:0,0:0:0:0:
329,199,187735,5,2,3:2:0:0:
123,141,187908,1,0,0:0:0:0:
316,42,188080,1,8,0:0:0:0:
242,267,188252,2,0,L|225:124,1,144,2|0,3:2|0:0,0:0:0:0:
221,87,188597,1,0,3:0:0:0:
370,340,188770,2,0,P|376:280|394:237,1,96,10|0,0:0|0:0,0:0:0:0:
90,283,189114,6,0,P|106:305|122:341,1,48,0|0,3:0|0:0,0:0:0:0:
111,198,189459,6,0,P|89:229|73:265,1,57.5999982421876
80,113,189804,6,0,P|102:144|115:184,1,67.1999979492188
430,45,190149,5,14,0:0:0:0:
430,45,190494,6,0,P|395:57|348:51,1,76.8,6|0,3:2|0:0,0:0:0:0:
276,197,190839,6,0,P|283:160|309:127,1,67.1999979492188,10|0,0:0|0:0,0:0:0:0:
214,6,191183,6,0,P|241:30|254:60,1,57.5999982421876,2|0,0:0|3:0,0:0:0:0:
375,204,191528,5,10,0:0:0:0:
386,206,191614,1,0,0:0:0:0:
397,208,191701,1,2,0:0:0:0:
473,221,191873,1,0,3:0:0:0:
358,287,192045,5,2,0:0:0:0:
374,290,192131,1,0,0:0:0:0:
391,292,192218,1,10,0:0:0:0:
466,305,192390,1,0,0:0:0:0:
338,367,192563,5,2,0:2:0:0:
360,371,192649,1,0,0:0:0:0:
382,376,192735,1,2,3:2:0:0:
375,203,192908,5,10,0:0:0:0:
403,208,192994,1,0,0:0:0:0:
431,213,193080,1,2,0:0:0:0:
269,268,193252,6,0,L|178:256,1,76.8,2|0,3:2|0:0,0:0:0:0:
55,156,193597,6,0,L|143:146,1,67.1999979492188,10|0,0:0|0:0,0:0:0:0:
193,258,193942,6,0,L|182:334,1,57.5999982421876,2|0,0:0|3:0,0:0:0:0:
121,148,194287,5,10,0:0:0:0:
119,136,194373,1,0,0:0:0:0:
117,124,194459,1,2,0:0:0:0:
115,112,194545,1,0,0:0:0:0:
113,100,194632,6,0,P|175:56|276:62,1,153.6,0|8,3:0|0:0,0:0:0:0:
303,197,195149,2,0,P|241:241|140:235,1,153.6,0|0,3:0|3:0,0:0:0:0:
353,101,195666,5,10,0:0:0:0:
375,96,195752,1,0,0:0:0:0:
397,91,195839,1,2,0:0:0:0:
419,86,195925,1,0,0:0:0:0:
441,82,196011,6,0,P|480:88|519:109,1,76.8,4|0,3:2|0:0,0:0:0:0:
473,237,196356,6,0,P|434:231|399:211,1,67.1999979492188,10|0,0:0|0:0,0:0:0:0:
429,138,196701,6,0,P|432:109|441:82,1,57.5999982421876,2|0,0:0|3:0,0:0:0:0:
284,109,197045,5,10,0:0:0:0:
279,98,197132,1,0,0:0:0:0:
278,86,197218,1,2,0:0:0:0:
196,117,197390,1,0,3:0:0:0:
354,155,197563,5,2,0:0:0:0:
357,171,197649,1,0,0:0:0:0:
350,187,197735,1,10,0:0:0:0:
445,187,197908,1,0,0:0:0:0:
272,272,198080,5,2,0:0:0:0:
269,250,198166,1,0,0:0:0:0:
274,228,198252,1,2,3:2:0:0:
360,375,198425,5,10,0:0:0:0:
368,347,198511,1,0,0:0:0:0:
358,319,198597,1,2,0:0:0:0:
184,250,198770,6,0,L|50:238,1,115.2,4|0,3:2|0:0,0:0:0:0:
69,239,199114,1,8,0:0:0:0:
328,250,199287,6,0,L|462:238,1,115.2,4|0,3:2|0:0,0:0:0:0:
442,239,199631,1,8,0:0:0:0:
256,125,199804,6,0,L|256:178,1,38.4,10|0,0:0|0:0,0:0:0:0:
256,316,199976,1,6,3:2:0:0:
