osu file format v14

[General]
AudioFilename: audio.mp3
AudioLeadIn: 0
PreviewTime: 67563
Countdown: 0
SampleSet: Soft
StackLeniency: 0.2
Mode: 0
LetterboxInBreaks: 0
WidescreenStoryboard: 1

[Editor]
Bookmarks: 69114
DistanceSpacing: 0.5
BeatDivisor: 8
GridSize: 16
TimelineZoom: 2.9

[Metadata]
Title:Wakusei Rabbit (feat. TORIENA)
TitleUnicode:惑星ラビット (feat. TORIENA)
Artist:Yunomi
ArtistUnicode:Yunomi
Creator:Nathan
Version:NiNo's Insane
Source:
Tags:trap snownino_ snownino sukinathan doormat
BeatmapID:1079573
BeatmapSetID:504171

[Difficulty]
HPDrainRate:6
CircleSize:3.8
OverallDifficulty:8
ApproachRate:9
SliderMultiplier:1.8
SliderTickRate:1

[Events]
//Background and Video events
0,0,"pyonnn.jpg",0,0
//Break Periods
2,146556,156790
//Storyboard Layer 0 (Background)
//Storyboard Layer 1 (Fail)
//Storyboard Layer 2 (Pass)
//Storyboard Layer 3 (Foreground)
//Storyboard Sound Samples

[TimingPoints]
2908,344.827586206897,4,2,1,80,1,0
2908,-133.333333333333,4,2,1,80,0,0
4459,-117.647058823529,4,2,1,80,0,0
4976,-105.263157894737,4,2,1,80,0,0
5321,-95.2380952380952,4,2,1,80,0,0
5666,-133.333333333333,4,2,1,80,0,0
8425,-133.333333333333,4,2,4,60,0,0
9804,-133.333333333333,4,2,1,70,0,0
9976,-117.647058823529,4,2,1,70,0,0
10494,-105.263157894737,4,2,1,70,0,0
10839,-95.2380952380952,4,2,1,70,0,0
12563,-100,4,2,1,20,0,0
12649,-100,4,2,1,5,0,0
12735,-90.9090909090909,4,2,1,30,0,0
12821,-100,4,2,1,5,0,0
12908,-83.3333333333333,4,2,1,40,0,0
12994,-100,4,2,1,5,0,0
13080,-76.9230769230769,4,2,1,50,0,0
13166,-100,4,2,1,5,0,0
13252,-71.4285714285714,4,2,1,60,0,0
13339,-100,4,2,1,5,0,0
13425,-66.6666666666667,4,2,1,70,0,0
13511,-100,4,2,1,5,0,0
13597,-100,4,2,3,80,0,0
13942,-100,4,2,3,80,0,0
19114,-100,4,2,1,80,0,0
19201,-100,4,2,3,80,0,0
24976,-125,4,2,2,80,0,0
30149,-125,4,2,1,80,0,0
30494,-125,4,2,2,80,0,0
35666,-125,4,2,1,80,0,0
37563,-111.111111111111,4,2,1,80,0,0
38080,-100,4,2,1,80,0,0
38425,-90.9090909090909,4,2,1,80,0,0
38770,-125,4,2,1,80,0,0
43080,-111.111111111111,4,2,1,80,0,0
43597,-100,4,2,1,80,0,0
43942,-90.9090909090909,4,2,1,80,0,0
44287,-125,4,2,1,80,0,0
47045,-142.857142857143,4,2,1,80,0,0
58080,-125,4,2,4,70,0,0
63597,-111.111111111111,4,2,4,80,0,0
69114,-83.3333333333333,4,2,3,80,0,1
80149,-83.3333333333333,4,2,1,80,0,1
81701,-76.9230769230769,4,2,1,80,0,1
82218,-71.4285714285714,4,2,1,80,0,1
82563,-66.6666666666667,4,2,1,80,0,1
82908,-83.3333333333333,4,2,1,80,0,1
87218,-76.9230769230769,4,2,1,80,0,1
87735,-71.4285714285714,4,2,1,80,0,1
88080,-66.6666666666667,4,2,1,80,0,1
88425,-83.3333333333333,4,2,1,80,0,1
91183,-125,4,2,1,80,0,0
96183,-100,4,2,1,80,0,0
96528,-125,4,2,1,80,0,0
98252,-111.111111111111,4,2,1,80,0,0
98770,-100,4,2,1,80,0,0
99114,-90.9090909090909,4,2,1,80,0,0
99459,-125,4,2,1,80,0,0
102218,-125,4,2,4,80,0,0
121528,-125,4,2,1,80,0,0
124287,-66.6666666666667,4,2,1,80,0,1
124976,-71.4285714285714,4,2,3,80,0,1
125666,-76.9230769230769,4,2,3,80,0,1
126701,-133.333333333333,4,2,3,80,0,1
127045,-66.6666666666667,4,2,3,80,0,1
127735,-62.5,4,2,3,80,0,1
128425,-66.6666666666667,4,2,3,80,0,1
129114,-133.333333333333,4,2,3,80,0,1
129804,-66.6666666666667,4,2,3,80,0,1
130494,-71.4285714285714,4,2,3,80,0,1
131183,-76.9230769230769,4,2,3,80,0,1
132218,-133.333333333333,4,2,3,80,0,1
132563,-66.6666666666667,4,2,3,80,0,1
133252,-62.5,4,2,3,80,0,1
133942,-100,4,2,3,80,0,0
134632,-83.3333333333333,4,2,3,80,0,0
134976,-71.4285714285714,4,2,3,80,0,0
135321,-62.5,4,2,3,80,0,1
136701,-66.6666666666667,4,2,3,80,0,1
137735,-133.333333333333,4,2,3,80,0,1
138080,-58.8235294117647,4,2,3,80,0,1
138770,-55.5555555555556,4,2,3,80,0,1
139459,-58.8235294117647,4,2,3,80,0,1
140149,-133.333333333333,4,2,3,80,0,1
140839,-55.5555555555556,4,2,3,80,0,1
141528,-58.8235294117647,4,2,3,80,0,1
142218,-62.5,4,2,3,80,0,1
143252,-133.333333333333,4,2,3,80,0,1
143597,-62.5,4,2,3,80,0,1
144287,-58.8235294117647,4,2,3,80,0,1
144976,-100,4,2,1,80,0,0
164287,-100,4,2,2,80,0,0
167045,-133.333333333333,4,2,1,80,0,0
168166,-133.333333333333,4,2,1,5,0,0
168425,-83.3333333333333,4,2,3,80,0,1
173597,-83.3333333333333,4,2,1,80,0,1
173683,-83.3333333333333,4,2,3,80,0,1
179459,-83.3333333333333,4,2,1,80,0,1
181011,-76.9230769230769,4,2,1,80,0,1
181528,-71.4285714285714,4,2,1,80,0,1
181873,-66.6666666666667,4,2,1,80,0,1
182218,-83.3333333333333,4,2,1,80,0,1
186528,-76.9230769230769,4,2,1,80,0,1
187045,-71.4285714285714,4,2,1,80,0,1
187390,-66.6666666666667,4,2,1,80,0,1
187735,-83.3333333333333,4,2,1,80,0,1
190494,-133.333333333333,4,2,1,80,0,0
192045,-117.647058823529,4,2,1,80,0,0
192563,-105.263157894737,4,2,1,80,0,0
192908,-95.2380952380952,4,2,1,80,0,0
193252,-133.333333333333,4,2,1,80,0,0
197563,-117.647058823529,4,2,1,80,0,0
198080,-105.263157894737,4,2,1,80,0,0
198425,-95.2380952380952,4,2,1,80,0,0
198770,-133.333333333333,4,2,1,80,0,0

[Colours]
Combo1 : 255,94,55
Combo2 : 173,255,95
Combo3 : 17,254,176
Combo4 : 255,88,100

[HitObjects]
103,78,2908,6,0,P|145:83|173:96,1,67.5000025749208,2|0,0:0|0:0,0:0:0:0:
312,119,3252,2,0,P|270:124|242:137,1,67.5000025749208,2|0,0:0|0:0,0:0:0:0:
126,187,3597,2,0,P|168:192|196:205,1,67.5000025749208,2|0,0:0|0:0,0:0:0:0:
279,245,3942,6,0,L|284:279,2,33.7500012874604,2|0|2,0:0|0:0|0:0,0:0:0:0:
247,133,4287,1,0,0:0:0:0:
196,251,4459,6,0,L|177:297,2,38.2500007295609,2|0|2,0:0|0:0|0:0,0:0:0:0:
255,124,4804,1,0,0:0:0:0:
115,236,4976,6,0,L|75:266,2,42.7499988584519,2|0|2,0:0|0:0|0:0,0:0:0:0:
264,115,5321,6,0,L|307:148,2,47.2499985580445,2|0|2,0:0|0:0|0:0,0:0:0:0:
248,17,5666,6,0,P|290:21|327:39,1,67.5000025749208,2|0,0:0|0:0,0:0:0:0:
466,92,6011,2,0,P|434:103|400:105,1,67.5000025749208,2|0,0:0|0:0,0:0:0:0:
305,129,6356,2,0,P|317:169|315:208,1,67.5000025749208,2|0,0:0|0:0,0:0:0:0:
217,265,6701,1,2,0:0:0:0:
218,248,6787,1,0,0:0:0:0:
219,231,6873,1,2,0:0:0:0:
163,129,7045,6,0,P|199:120|227:95,1,67.5000025749208,0|0,0:0|0:0,0:0:0:0:
376,222,7390,2,0,P|349:201|316:194,1,67.5000025749208,0|0,0:0|0:0,0:0:0:0:
214,229,7735,1,0,0:0:0:0:
318,280,7908,2,0,L|315:303,3,22.5000008583069,2|0|0|2,0:0|0:0|0:0|0:0,0:0:0:0:
316,194,8252,1,2,0:0:0:0:
313,177,8338,1,0,0:0:0:0:
311,160,8424,5,8,1:0:0:0:
331,45,8597,1,8,0:1:0:0:
238,166,8770,1,8,1:0:0:0:
221,62,8943,1,8,1:0:0:0:
154,218,9114,1,8,0:1:0:0:
150,118,9287,1,8,0:1:0:0:
238,166,9459,6,0,L|248:214,2,33.7500012874604,8|0|8,1:0|0:0|1:0,0:0:0:0:
285,293,9804,1,0,0:0:0:0:
340,160,9976,6,0,L|321:218,2,38.2500007295609,2|0|2,1:2|1:2|1:2,0:0:0:0:
282,303,10321,1,0,1:2:0:0:
428,221,10494,6,0,L|391:254,2,42.7499988584519,2|0|2,1:2|1:2|1:2,0:0:0:0:
279,312,10839,6,0,L|315:345,2,47.2499985580445,2|0|2,1:2|1:2|1:2,0:0:0:0:
160,302,11183,5,4,3:2:0:0:
187,194,11356,1,0,0:0:0:0:
313,343,11528,1,4,3:2:0:0:
286,235,11701,1,0,0:0:0:0:
123,236,11873,1,4,3:2:0:0:
150,128,12046,1,0,0:0:0:0:
204,320,12218,5,4,3:2:0:0:
57,162,12390,1,4,3:2:0:0:
50,318,12563,6,0,P|76:308|100:307,1,45
189,230,12735,2,0,P|163:226|140:217,1,49.5000015106202
39,307,12908,6,0,P|66:296|92:295,1,53.9999983520508
200,241,13080,2,0,P|168:238|139:226,1,58.4999973220826
28,296,13252,6,0,P|59:283|89:282,1,62.9999980773926
211,252,13425,2,0,P|175:249|143:236,1,67.5000025749208
202,119,13597,5,2,0:0:0:0:
202,119,13942,6,0,P|253:99|296:103,1,90,6|0,3:1|0:0,0:0:0:0:
407,55,14287,2,0,B|399:125|399:125|413:164|413:164|401:245,1,180,10|2,0:1|0:1,0:0:0:0:
483,111,14804,1,0,3:0:0:0:
331,176,14976,2,0,B|316:278,1,90,10|2,0:1|0:1,0:0:0:0:
246,349,15321,5,2,3:1:0:0:
178,253,15494,1,2,0:1:0:0:
174,230,15580,1,0,0:0:0:0:
171,208,15666,1,10,0:1:0:0:
238,341,15839,5,2,0:1:0:0:
274,240,16011,1,2,0:1:0:0:
283,214,16097,1,0,0:0:0:0:
293,189,16183,1,2,3:1:0:0:
331,305,16356,5,10,0:1:0:0:
359,278,16442,1,0,0:0:0:0:
391,254,16528,1,2,0:1:0:0:
230,333,16701,6,0,P|211:294|213:240,1,90,2|0,3:1|0:0,0:0:0:0:
225,133,17045,2,0,B|263:139|283:162|283:162|300:128|348:103|393:119,1,180,10|2,0:1|0:1,0:0:0:0:
480,178,17563,1,0,3:0:0:0:
377,291,17735,2,0,P|361:245|368:195,1,90,10|0,0:1|0:0,0:0:0:0:
401,95,18080,6,0,P|342:58|272:61,1,135,0|0,3:0|0:0,0:0:0:0:
316,156,18425,2,0,P|276:154|242:175,1,45,8|0,0:0|0:0,0:0:0:0:
291,258,18597,2,0,P|229:290|202:353,1,135,0|0,3:0|0:0,0:0:0:0:
309,357,18942,2,0,L|342:358,4,22.5,0|0|0|0|8,3:0|0:0|0:0|0:0|0:0,0:0:0:0:
184,305,19287,1,2,0:1:0:0:
189,283,19373,1,0,0:0:0:0:
204,266,19459,6,0,P|221:225|211:166,1,90,2|0,3:1|0:0,0:0:0:0:
173,88,19804,2,0,B|256:50|273:122|348:90,1,180,10|2,0:1|0:1,0:0:0:0:
307,16,20321,1,0,3:0:0:0:
362,173,20494,2,0,P|312:183|256:171,1,90,10|2,0:1|0:1,0:0:0:0:
173,88,20839,5,2,3:1:0:0:
101,189,21011,1,2,0:1:0:0:
91,209,21097,1,0,0:0:0:0:
82,230,21183,1,10,0:1:0:0:
178,83,21356,5,2,0:1:0:0:
193,210,21528,1,2,0:1:0:0:
194,236,21614,1,0,0:0:0:0:
197,264,21700,1,2,3:1:0:0:
275,160,21873,5,10,0:1:0:0:
294,190,21959,1,0,0:0:0:0:
317,222,22045,1,0,0:0:0:0:
432,360,22218,6,0,B|408:314|408:314|436:223,1,135,2|0,3:1|0:0,0:0:0:0:
330,179,22563,2,0,L|312:237,1,45,10|0,0:1|0:0,0:0:0:0:
302,340,22735,2,0,P|259:308|176:309,1,135,0|0,3:0|0:0,0:0:0:0:
93,338,23080,2,0,P|88:316|91:287,1,45,0|0,3:0|0:0,0:0:0:0:
147,218,23252,2,0,P|158:162|148:119,1,90,10|2,0:1|0:1,0:0:0:0:
150,23,23597,6,0,L|259:30,1,90,0|0,3:0|0:0,0:0:0:0:
258,42,23856,1,0,1:0:0:0:
276,55,23942,2,0,L|350:59,1,45,8|0,1:0|0:0,0:0:0:0:
391,113,24114,1,0,1:0:0:0:
413,111,24200,1,0,1:0:0:0:
435,110,24286,1,0,1:0:0:0:
492,31,24459,1,0,3:0:0:0:
391,113,24632,2,0,P|380:158|391:216,1,90,0|0,1:0|1:0,0:0:0:0:
452,298,24976,6,0,L|375:292,1,72,4|0,3:2|0:0,0:0:0:0:
246,349,25321,2,0,B|266:284|266:284|234:178,1,144,0|0,1:0|0:0,0:0:0:0:
173,157,25839,1,0,3:0:0:0:
334,209,26011,2,0,L|358:291,1,72,0|0,1:0|0:0,0:0:0:0:
160,350,26356,6,0,L|180:280,1,72,0|0,3:0|0:0,0:0:0:0:
223,166,26701,2,0,P|147:167|102:118,1,144,0|0,1:0|0:0,0:0:0:0:
184,87,27218,1,0,3:0:0:0:
45,187,27390,1,0,1:0:0:0:
82,23,27563,1,0,0:0:0:0:
147,251,27735,6,0,L|63:259,2,72,2|0|0,3:2|0:0|1:0,0:0:0:0:
282,211,28252,2,0,P|312:242|318:348,1,144,2|0,0:0|3:0,0:0:0:0:
196,169,28770,2,0,L|204:90,1,72,2|0,1:2|0:0,0:0:0:0:
238,297,29114,6,0,L|246:376,2,72,2|0|0,3:2|0:0|3:0,0:0:0:0:
296,199,29632,2,0,P|364:211|429:142,1,144,2|0,1:2|0:0,0:0:0:0:
174,165,30149,2,0,L|182:244,1,72,8|0,0:0|0:0,0:0:0:0:
344,129,30494,6,0,L|352:50,1,72,0|0,3:0|0:0,0:0:0:0:
267,103,30839,1,0,1:0:0:0:
434,104,31011,1,0,0:0:0:0:
212,5,31183,2,0,P|193:46|194:81,1,72,0|0,0:0|3:0,0:0:0:0:
314,247,31528,2,0,P|311:211|294:179,1,72,0|0,1:0|0:0,0:0:0:0:
177,190,31873,6,0,L|164:336,1,144,0|0,3:0|1:0,0:0:0:0:
75,357,32390,1,0,0:0:0:0:
256,336,32563,2,0,L|249:263,1,72,0|0,0:0|3:0,0:0:0:0:
91,200,32908,1,0,1:0:0:0:
164,333,33080,1,0,0:0:0:0:
220,149,33252,6,0,L|306:143,2,72,2|0|0,3:2|0:0|0:0,0:0:0:0:
95,110,33770,2,0,P|106:149|100:198,1,72,2|0,3:2|0:0,0:0:0:0:
243,305,34114,2,0,P|242:269|252:234,1,72,0|0,3:0|1:0,0:0:0:0:
361,129,34459,1,0,0:0:0:0:
397,269,34632,6,0,P|361:282|316:277,1,72,2|0,3:2|0:0,0:0:0:0:
311,272,34890,1,0,1:0:0:0:
294,265,34976,2,0,P|258:252|213:257,1,72,2|0,1:2|0:0,0:0:0:0:
109,295,35321,1,0,1:0:0:0:
110,277,35407,1,0,0:0:0:0:
111,259,35493,1,0,0:0:0:0:
112,241,35579,1,0,0:0:0:0:
113,223,35665,1,12,0:0:0:0:
113,223,36011,6,0,P|128:180|128:150,1,72,6|0,3:2|0:0,0:0:0:0:
163,13,36356,2,0,P|192:47|218:62,1,72,10|0,0:0|0:0,0:0:0:0:
319,160,36701,2,0,P|274:168|248:183,1,72,2|0,0:0|3:0,0:0:0:0:
128,153,37045,6,0,L|134:107,2,36,10|0|2,1:2|0:0|0:0,0:0:0:0:
169,258,37390,1,0,3:0:0:0:
251,181,37563,6,0,L|279:144,2,40.4999987640381,2|0|10,0:0|0:0|0:0,0:0:0:0:
161,266,37908,1,0,0:0:0:0:
275,296,38080,6,0,L|317:278,2,45,2|0|2,0:0|0:0|3:2,0:0:0:0:
128,153,38425,6,0,L|65:126,2,49.5000015106202,10|0|2,0:0|0:0|0:0,0:0:0:0:
251,181,38770,6,0,P|259:135|254:106,1,72,2|0,3:2|0:0,0:0:0:0:
179,232,39114,2,0,P|214:261|242:272,1,72,8|2,0:0|3:2,0:0:0:0:
174,141,39459,2,0,P|130:157|107:175,1,72,0|0,0:0|3:0,0:0:0:0:
28,235,39804,1,10,1:2:0:0:
30,252,39890,1,0,0:0:0:0:
32,270,39976,1,0,0:0:0:0:
110,172,40149,6,0,L|125:57,1,108,0|0,3:0|0:0,0:0:0:0:
201,31,40494,2,0,L|208:89,1,36,8|0,0:0|0:0,0:0:0:0:
209,146,40666,2,0,P|246:164|322:161,1,108,0|0,3:0|0:0,0:0:0:0:
391,167,41011,2,0,L|388:191,3,24,0|0|0|0,3:0|0:0|0:0|0:0,0:0:0:0:
322,54,41356,1,2,0:0:0:0:
322,54,41442,1,0,0:0:0:0:
322,54,41528,6,0,P|367:49|400:32,1,72,2|0,3:2|0:0,0:0:0:0:
331,169,41873,2,0,P|312:210|311:247,1,72,10|0,0:0|0:0,0:0:0:0:
229,116,42218,2,0,P|202:79|170:59,1,72,2|0,0:0|3:0,0:0:0:0:
175,233,42563,6,0,L|211:236,2,36,10|0|2,0:0|0:0|0:0,0:0:0:0:
82,145,42908,1,0,3:0:0:0:
209,149,43080,6,0,L|247:130,2,40.4999987640381,2|0|10,0:0|0:0|0:0,0:0:0:0:
72,143,43425,1,0,0:0:0:0:
180,64,43597,6,0,L|210:19,2,45,2|0|2,0:0|0:0|0:0,0:0:0:0:
34,226,43942,6,0,L|-3:173,2,49.5000015106202,10|0|2,3:2|0:0|0:0,0:0:0:0:
172,178,44287,6,0,P|181:218|180:259,1,72,2|0,3:2|0:0,0:0:0:0:
101,127,44632,2,0,P|61:114|26:93,1,72,8|2,0:0|3:2,0:0:0:0:
178,92,44976,2,0,P|208:64|244:44,1,72,0|2,0:0|3:2,0:0:0:0:
327,137,45321,1,10,0:0:0:0:
291,133,45407,1,0,0:0:0:0:
255,129,45493,1,2,0:0:0:0:
148,185,45666,6,0,P|178:227|182:286,1,108,0|0,3:0|0:0,0:0:0:0:
190,354,46011,2,0,P|214:360|234:360,1,36,8|0,0:0|0:0,0:0:0:0:
281,316,46183,2,0,P|326:308|389:325,1,108,2|0,3:2|0:0,0:0:0:0:
458,325,46528,2,0,P|468:296|468:274,1,36,0|0,3:0|0:0,0:0:0:0:
399,150,46701,1,10,0:0:0:0:
399,150,47045,6,0,P|365:159|281:108,1,125.999996154785,2|0,0:0|0:0,0:0:0:0:
194,100,47563,2,0,P|213:147|212:167,1,62.9999980773926,2|0,0:0|0:0,0:0:0:0:
174,244,47908,1,2,0:0:0:0:
174,244,48252,1,2,0:0:0:0:
237,314,48425,6,0,L|376:304,1,125.999996154785,2|0,0:0|0:0,0:0:0:0:
448,264,48942,2,0,P|434:230|433:202,1,62.9999980773926,2|0,0:0|0:0,0:0:0:0:
353,152,49287,2,0,P|350:183|337:211,1,62.9999980773926,0|0,0:0|0:0,0:0:0:0:
249,246,49632,1,0,0:0:0:0:
211,159,49804,6,0,L|145:147,2,62.9999980773926,2|2|2,0:0|0:0|0:0,0:0:0:0:
298,122,50321,1,2,0:0:0:0:
337,211,50494,1,2,0:0:0:0:
337,211,51011,6,0,P|319:245|313:339,1,125.999996154785,2|2,0:0|0:0,0:0:0:0:
402,357,51528,1,2,0:0:0:0:
476,298,51701,1,2,0:0:0:0:
430,215,51873,1,2,0:0:0:0:
430,215,52563,6,0,P|451:180|436:77,1,125.999996154785,2|0,0:0|0:0,0:0:0:0:
478,7,53080,2,0,P|437:20|410:19,1,62.9999980773926,2|0,0:0|0:0,0:0:0:0:
329,55,53425,1,2,0:0:0:0:
329,55,53770,1,0,0:0:0:0:
368,140,53942,6,0,L|364:210,1,62.9999980773926,2|0,0:0|0:0,0:0:0:0:
283,252,54287,2,0,L|287:322,1,62.9999980773926,0|2,0:0|0:0,0:0:0:0:
199,351,54632,2,0,P|162:361|136:361,2,62.9999980773926,0|0|0,0:0|0:0|0:0,0:0:0:0:
286,314,55149,1,0,0:0:0:0:
210,257,55321,6,0,P|200:222|201:191,1,62.9999980773926,2|0,0:0|0:0,0:0:0:0:
287,159,55666,2,0,P|297:124|296:93,1,62.9999980773926,2|2,0:0|0:0,0:0:0:0:
222,38,56011,1,2,0:0:0:0:
222,38,56528,6,0,L|93:27,1,125.999996154785,2|0,0:0|0:0,0:0:0:0:
1,21,57045,2,0,P|18:62|19:93,1,62.9999980773926,2|2,0:0|0:0,0:0:0:0:
29,174,57390,1,2,0:0:0:0:
29,174,58080,6,0,L|104:180,1,72,8|0,1:0|0:0,0:0:0:0:
113,192,58339,1,0,1:0:0:0:
126,204,58425,2,0,L|201:210,1,72,8|0,1:0|1:0,0:0:0:0:
305,113,58770,2,0,L|230:119,1,72,8|0,1:0|0:0,0:0:0:0:
215,121,59028,1,0,0:0:0:0:
197,122,59114,1,8,1:0:0:0:
340,209,59287,6,0,P|357:234|366:293,1,72,0|8,0:0|1:0,0:0:0:0:
269,314,59632,1,0,1:0:0:0:
230,210,59804,2,0,L|238:135,1,72,8|0,1:0|1:0,0:0:0:0:
174,65,60149,2,0,P|150:93|140:136,1,72,8|0,0:0|0:0,0:0:0:0:
332,121,60494,2,0,P|319:86|287:56,1,72,8|0,1:0|0:0,0:0:0:0:
278,56,60752,1,0,0:0:0:0:
259,53,60839,6,0,P|219:62|189:59,1,72,8|0,1:0|0:0,0:0:0:0:
83,32,61183,2,0,L|76:108,1,72,8|0,1:0|1:0,0:0:0:0:
31,186,61528,1,8,1:0:0:0:
162,141,61701,1,0,0:0:0:0:
162,141,61787,2,0,P|196:159|239:159,1,72,0|0,0:0|0:0,0:0:0:0:
300,150,62045,6,0,P|316:178|320:240,1,72,0|8,1:0|1:0,0:0:0:0:
256,304,62390,1,0,1:0:0:0:
407,290,62563,2,0,L|496:282,1,72,8|0,1:0|1:0,0:0:0:0:
322,216,62908,2,0,L|159:201,1,144,8|8,1:0|1:0,0:0:0:0:
75,171,63425,1,0,0:0:0:0:
75,171,63511,1,0,0:0:0:0:
75,171,63597,6,0,P|91:133|92:88,1,80.9999975280763,8|8,0:0|0:0,0:0:0:0:
178,203,63942,2,0,P|180:243|195:280,1,80.9999975280763,8|8,0:0|0:0,0:0:0:0:
272,345,64287,2,0,P|292:302|292:263,1,80.9999975280763,8|8,0:0|0:0,0:0:0:0:
104,316,64632,2,0,P|131:354|165:374,1,80.9999975280763,8|8,0:0|0:0,0:0:0:0:
195,280,64976,6,0,P|207:227|204:185,1,80.9999975280763,8|8,0:0|0:0,0:0:0:0:
146,111,65321,2,0,P|113:147|99:193,1,80.9999975280763,8|8,0:0|0:0,0:0:0:0:
314,194,65666,2,0,P|299:147|266:112,1,80.9999975280763,8|8,0:0|0:0,0:0:0:0:
195,280,66011,2,0,L|206:374,1,80.9999975280763,8|8,0:0|0:0,0:0:0:0:
361,352,66356,5,8,0:0:0:0:
346,338,66442,1,8,0:0:0:0:
334,321,66528,1,8,0:0:0:0:
326,303,66614,1,8,0:0:0:0:
321,283,66700,1,8,0:0:0:0:
321,263,66787,1,8,0:0:0:0:
324,243,66873,1,8,0:0:0:0:
331,224,66959,1,8,0:0:0:0:
344,205,67045,2,0,L|362:165,4,40.4999987640381,8|8|8|8|8,0:0|0:0|0:0|0:0|0:0,0:0:0:0:
256,192,67563,5,8,0:0:0:0:
256,192,68597,2,0,L|269:113,2,80.9999975280763,0|2|0,0:0|0:0|0:0,0:0:0:0:
285,298,69114,6,0,P|235:280|177:289,1,107.999996704102,6|0,3:2|0:0,0:0:0:0:
10,227,69459,2,0,P|60:209|118:218,1,107.999996704102,10|0,0:0|0:0,0:0:0:0:
224,129,69804,2,0,P|174:111|116:120,1,107.999996704102,2|0,0:0|3:0,0:0:0:0:
113,216,70149,5,10,0:0:0:0:
108,242,70235,1,0,0:0:0:0:
104,269,70321,1,2,0:0:0:0:
120,118,70494,1,0,3:0:0:0:
191,185,70666,5,2,0:0:0:0:
201,215,70752,1,0,0:0:0:0:
213,244,70838,1,10,0:0:0:0:
114,112,71011,1,0,0:0:0:0:
217,104,71183,5,2,0:0:0:0:
244,128,71269,1,0,0:0:0:0:
274,152,71355,1,2,3:2:0:0:
91,30,71528,5,10,0:0:0:0:
58,58,71614,1,0,0:0:0:0:
22,87,71700,1,2,0:0:0:0:
12,225,71873,6,0,L|118:241,1,107.999996704102,2|0,3:2|0:0,0:0:0:0:
160,137,72218,2,0,P|182:86|179:23,1,107.999996704102,10|0,0:0|0:0,0:0:0:0:
228,228,72563,2,0,L|239:347,1,107.999996704102,2|0,0:0|3:0,0:0:0:0:
125,221,72908,1,10,0:0:0:0:
127,194,72994,1,0,0:0:0:0:
129,167,73080,1,2,0:0:0:0:
205,49,73252,6,0,P|259:82|361:62,1,161.999995056153,0|0,3:0|0:0,0:0:0:0:
298,162,73597,2,0,P|267:162|231:151,1,53.9999983520508,8|0,0:0|0:0,0:0:0:0:
140,124,73770,2,0,P|153:183|107:272,1,161.999995056153,0|0,3:0|0:0,0:0:0:0:
36,350,74114,2,0,L|29:306,3,35.9999989013672,0|0|0|10,3:0|0:0|0:0|0:0,0:0:0:0:
154,365,74459,1,2,0:0:0:0:
178,354,74545,1,0,0:0:0:0:
205,352,74632,6,0,P|265:353|313:333,1,107.999996704102,6|0,3:2|2:0,0:0:0:0:
468,290,74976,2,0,P|408:291|360:271,1,107.999996704102,10|2,2:0|2:0,0:0:0:0:
239,211,75321,2,0,P|299:212|347:192,1,107.999996704102,2|0,2:0|3:0,0:0:0:0:
272,112,75666,5,10,0:0:0:0:
245,108,75752,1,0,0:0:0:0:
218,105,75838,1,2,0:0:0:0:
342,194,76011,1,0,3:0:0:0:
360,87,76183,5,2,0:0:0:0:
334,66,76269,1,0,0:0:0:0:
308,47,76355,1,10,0:0:0:0:
334,202,76528,1,0,0:0:0:0:
435,141,76701,5,2,0:0:0:0:
420,103,76787,1,0,0:0:0:0:
404,68,76873,1,2,3:2:0:0:
288,297,77045,5,10,0:0:0:0:
306,252,77131,1,0,0:0:0:0:
326,210,77217,1,2,0:0:0:0:
224,154,77390,6,0,L|176:46,1,107.999996704102,2|0,3:2|0:0,0:0:0:0:
113,190,77735,2,0,L|102:304,1,107.999996704102,10|0,0:0|3:0,0:0:0:0:
207,359,78080,2,0,P|265:335|319:339,1,107.999996704102,2|0,0:0|3:0,0:0:0:0:
444,357,78425,1,10,0:0:0:0:
456,318,78511,1,0,0:0:0:0:
453,278,78597,1,2,0:0:0:0:
353,199,78770,6,0,L|246:204,1,107.999996704102,0|0,3:0|0:0,0:0:0:0:
223,220,79028,1,0,1:0:0:0:
200,235,79114,2,0,L|132:238,1,53.9999983520508,8|0,1:0|0:0,0:0:0:0:
38,256,79287,1,0,1:0:0:0:
50,231,79373,1,0,1:0:0:0:
57,205,79459,1,0,1:0:0:0:
94,100,79631,1,0,1:0:0:0:
146,237,79804,2,0,L|153:355,1,107.999996704102,0|0,1:0|1:0,0:0:0:0:
259,366,80149,6,0,B|283:329|283:329|365:318,1,107.999996704102,6|0,3:2|0:0,0:0:0:0:
490,364,80494,2,0,B|438:317|438:317|467:161,1,215.999993408203,8|0,0:0|0:0,0:0:0:0:
357,156,81011,1,0,3:0:0:0:
356,267,81183,6,0,L|344:327,2,53.9999983520508,10|0|0,0:0|0:0|0:0,0:0:0:0:
359,148,81528,1,0,3:0:0:0:
263,219,81701,6,0,L|222:265,2,58.4999973220826,2|0|8,0:0|0:0|0:0,0:0:0:0:
361,140,82045,1,0,0:0:0:0:
245,114,82218,6,0,L|169:140,2,62.9999980773926,2|0|0,0:0|0:0|3:0,0:0:0:0:
441,261,82563,6,0,L|516:287,2,67.5000025749208,10|0|2,0:0|0:0|0:0,0:0:0:0:
306,199,82908,6,0,P|285:254|294:322,1,107.999996704102,0|0,3:0|0:0,0:0:0:0:
430,248,83252,2,0,L|414:131,1,107.999996704102,8|0,0:0|0:0,0:0:0:0:
322,90,83597,2,0,P|255:95|210:79,1,107.999996704102,0|0,0:0|3:0,0:0:0:0:
112,95,83942,2,0,L|120:37,2,53.9999983520508,10|0|0,0:0|0:0|0:0,0:0:0:0:
181,183,84287,6,0,L|205:362,1,161.999995056153,0|0,3:0|0:0,0:0:0:0:
275,261,84632,2,0,L|283:203,1,53.9999983520508,8|0,0:0|0:0,0:0:0:0:
278,99,84804,2,0,P|348:108|436:45,1,161.999995056153,0|0,3:0|0:0,0:0:0:0:
500,23,85149,2,0,L|508:97,1,53.9999983520508,0|0,3:0|0:0,0:0:0:0:
499,184,85321,2,0,P|454:165|393:172,1,107.999996704102,8|0,0:0|0:0,0:0:0:0:
278,99,85666,6,0,P|298:151|291:217,1,107.999996704102,4|0,3:2|0:0,0:0:0:0:
232,325,86011,2,0,P|292:302|346:311,1,107.999996704102,8|0,0:0|0:0,0:0:0:0:
183,221,86356,2,0,L|65:207,1,107.999996704102,0|0,0:0|3:0,0:0:0:0:
163,101,86701,6,0,L|228:93,2,53.9999983520508,10|0|0,0:0|0:0|0:0,0:0:0:0:
75,208,87045,1,0,3:0:0:0:
210,182,87218,6,0,L|270:208,2,58.4999973220826,2|0|8,0:0|0:0|0:0,0:0:0:0:
67,200,87563,1,0,0:0:0:0:
200,275,87735,6,0,L|239:327,2,62.9999980773926,2|0|0,0:0|0:0|3:0,0:0:0:0:
21,253,88080,6,0,L|72:184,2,67.5000025749208,10|0|2,0:0|0:0|0:0,0:0:0:0:
71,354,88425,6,0,P|124:291|220:279,1,161.999995056153,2|0,3:2|0:0,0:0:0:0:
305,297,88770,2,0,P|287:264|286:233,1,53.9999983520508,8|0,0:0|0:0,0:0:0:0:
326,148,88942,2,0,L|150:128,1,161.999995056153,2|0,3:2|0:0,0:0:0:0:
232,44,89287,2,0,L|303:35,1,53.9999983520508,0|0,3:0|0:0,0:0:0:0:
385,78,89459,2,0,P|374:119|404:193,1,107.999996704102,10|0,0:0|0:0,0:0:0:0:
250,273,89804,6,0,L|262:158,1,107.999996704102,0|0,3:0|1:0,0:0:0:0:
249,141,90063,1,0,1:0:0:0:
236,116,90149,2,0,L|247:2,1,107.999996704102,0|0,1:0|1:0,0:0:0:0:
122,54,90494,2,0,L|130:136,1,53.9999983520508,0|0,1:0|1:0,0:0:0:0:
65,159,90666,2,0,L|56:241,1,53.9999983520508,0|0,1:0|1:0,0:0:0:0:
81,291,90839,2,0,P|128:317|192:314,1,107.999996704102,0|0,1:0|1:0,0:0:0:0:
318,353,91183,6,0,P|303:316|332:214,1,144,4|2,0:0|0:0,0:0:0:0:
237,213,91701,2,0,P|222:260|220:295,1,72,0|2,0:0|0:0,0:0:0:0:
411,235,92045,2,0,P|406:199|393:165,1,72,0|2,0:0|0:0,0:0:0:0:
292,114,92390,1,0,0:0:0:0:
237,213,92563,6,0,P|191:236|87:236,1,144,2|0,0:0|0:0,0:0:0:0:
223,100,93080,2,0,P|264:101|300:120,1,72,0|2,0:0|0:0,0:0:0:0:
408,191,93425,2,0,P|375:204|339:204,1,72,0|2,0:0|0:0,0:0:0:0:
237,213,93770,1,0,0:0:0:0:
335,276,93942,6,0,L|340:189,1,72,2|2,0:0|0:0,0:0:0:0:
282,125,94287,1,2,0:0:0:0:
436,191,94459,2,0,L|431:273,1,72,2|0,0:0|0:0,0:0:0:0:
241,284,94804,2,0,L|236:201,1,72,2|2,0:0|0:0,0:0:0:0:
282,125,95149,1,2,0:0:0:0:
181,127,95321,6,0,P|138:141|103:141,1,72,2|2,0:0|0:0,0:0:0:0:
273,55,95666,2,0,P|284:97|280:135,1,72,2|2,1:2|0:0,0:0:0:0:
236,212,96011,1,0,1:0:0:0:
376,113,96183,2,0,L|410:108,4,22.5,2|0|0|0|10,0:0|0:0|0:0|1:2|1:2,0:0:0:0:
282,125,96528,1,2,0:0:0:0:
264,121,96614,1,0,0:0:0:0:
245,120,96701,6,0,P|193:127|165:124,1,72,6|0,3:2|0:0,0:0:0:0:
16,189,97045,2,0,P|68:196|96:193,1,72,10|0,0:0|0:0,0:0:0:0:
181,223,97390,2,0,P|192:264|190:301,1,72,2|0,0:0|3:0,0:0:0:0:
28,355,97735,6,0,L|35:312,2,36,10|0|2,0:0|0:0|0:0,0:0:0:0:
87,194,98080,1,0,3:0:0:0:
153,358,98252,6,0,L|137:317,2,40.4999987640381,2|0|10,0:0|0:0|0:0,0:0:0:0:
85,186,98597,1,0,0:0:0:0:
248,274,98770,6,0,L|197:232,2,45,2|0|2,0:0|0:0|3:2,0:0:0:0:
11,151,99114,6,0,L|61:109,2,49.5000015106202,10|0|2,0:0|0:0|0:0,0:0:0:0:
192,69,99459,6,0,P|236:80|262:103,1,72,2|0,3:2|0:0,0:0:0:0:
358,153,99804,2,0,P|314:164|288:187,1,72,8|2,0:0|3:2,0:0:0:0:
190,155,100149,1,0,0:0:0:0:
358,153,100321,2,0,P|368:118|365:67,1,72,0|8,3:0|0:0,0:0:0:0:
363,65,100580,1,0,0:0:0:0:
356,48,100666,1,0,0:0:0:0:
190,155,100839,6,0,L|199:310,1,144,2|8,3:2|0:0,0:0:0:0:
110,196,101356,2,0,B|106:127|106:127|133:93,1,108,2|0,3:2|0:0,0:0:0:0:
142,81,101701,1,0,3:0:0:0:
267,206,101873,2,0,L|271:290,1,72,8|0,0:0|0:0,0:0:0:0:
107,347,102218,6,0,L|111:263,1,72,12|0,3:2|0:0,0:0:0:0:
122,261,102476,1,0,1:0:0:0:
133,246,102563,2,0,L|137:162,1,72,8|0,1:0|3:0,0:0:0:0:
263,134,102908,2,0,L|267:218,1,72,8|0,1:0|0:0,0:0:0:0:
224,305,103252,1,8,3:2:0:0:
133,246,103425,1,0,0:0:0:0:
266,205,103597,6,0,P|318:209|397:152,1,144,8|8,3:2|1:0,0:0:0:0:
380,45,104114,1,0,3:0:0:0:
277,81,104287,2,0,P|234:94|195:94,1,72,8|0,1:0|0:0,0:0:0:0:
392,160,104632,2,0,P|427:162|461:174,1,72,8|0,3:2|0:0,0:0:0:0:
295,228,104976,6,0,L|312:144,2,72,8|0|8,3:2|1:0|1:0,0:0:0:0:
271,334,105494,1,0,3:0:0:0:
193,259,105666,2,0,P|139:250|109:255,1,72,8|0,1:0|0:0,0:0:0:0:
20,289,106011,1,8,3:2:0:0:
39,183,106183,6,0,L|31:100,1,72,0|8,1:0|3:2,0:0:0:0:
126,34,106528,1,0,1:0:0:0:
126,34,106614,1,0,1:0:0:0:
126,34,106701,2,0,L|118:126,1,72,8|0,1:2|3:0,0:0:0:0:
145,210,107045,2,0,P|184:188|300:189,1,144,8|8,0:0|3:2,0:0:0:0:
366,251,107563,1,0,1:0:0:0:
372,143,107735,6,0,B|361:64,1,72,8|0,3:2|0:0,0:0:0:0:
350,57,107994,1,0,1:0:0:0:
334,47,108080,2,0,P|291:51|248:43,1,72,8|0,1:2|3:0,0:0:0:0:
156,24,108425,1,8,1:0:0:0:
156,24,108511,1,0,1:0:0:0:
156,24,108597,2,0,P|163:64|161:105,1,72,0|8,0:0|3:0,0:0:0:0:
138,198,108942,1,0,1:0:0:0:
266,110,109114,6,0,P|310:98|362:98,1,72,8|0,3:2|1:0,0:0:0:0:
208,211,109459,2,0,P|172:207|137:197,1,72,8|0,1:0|3:0,0:0:0:0:
322,211,109804,1,8,1:0:0:0:
264,312,109976,1,0,0:0:0:0:
201,218,110149,2,0,P|165:214|130:204,1,72,8|0,3:2|1:0,0:0:0:0:
30,253,110494,6,0,P|40:212|39:172,1,72,8|0,3:2|1:0,0:0:0:0:
135,111,110839,2,0,P|125:70|126:30,1,72,8|0,1:0|3:0,0:0:0:0:
18,20,111183,1,8,1:0:0:0:
18,20,111528,1,8,3:2:0:0:
124,40,111701,6,0,L|276:33,1,144,0|0,1:0|1:0,0:0:0:0:
326,124,112218,2,0,L|230:119,1,72,8|0,1:0|3:0,0:0:0:0:
148,144,112563,2,0,P|164:184|150:293,1,144,8|8,0:0|0:0,0:0:0:0:
143,296,112994,1,0,0:0:0:0:
137,312,113080,1,0,0:0:0:0:
137,329,113166,1,0,0:0:0:0:
142,345,113252,6,0,L|198:356,1,36,14|0,3:2|0:0,0:0:0:0:
237,311,113425,2,0,L|293:300,1,36,0|0,0:0|1:0,0:0:0:0:
330,345,113597,2,0,L|386:356,1,36,8|0,0:0|0:0,0:0:0:0:
425,311,113770,2,0,L|481:300,1,36,0|0,1:0|1:0,0:0:0:0:
484,236,113942,2,0,P|468:196|474:143,1,72,8|0,0:0|0:0,0:0:0:0:
473,150,114201,1,0,0:0:0:0:
478,133,114287,2,0,P|494:82|488:40,1,90,8|0,1:0|0:0,0:0:0:0:
354,101,114632,6,0,L|370:187,1,72,8|0,0:0|0:0,0:0:0:0:
356,186,114890,1,0,1:0:0:0:
344,199,114976,2,0,L|328:285,1,72,8|0,1:0|1:0,0:0:0:0:
275,352,115321,1,8,1:0:0:0:
259,343,115408,1,0,1:0:0:0:
241,338,115494,1,0,0:0:0:0:
223,337,115580,1,0,0:0:0:0:
205,338,115666,2,0,P|163:344|130:340,1,72,8|0,0:0|1:0,0:0:0:0:
118,330,115925,1,0,1:0:0:0:
107,315,116011,6,0,P|110:291|103:254,1,36,8|0,0:0|0:0,0:0:0:0:
45,246,116183,2,0,P|42:222|49:185,1,36,0|0,0:0|1:0,0:0:0:0:
107,176,116356,2,0,P|110:152|103:115,1,36,8|0,1:0|0:0,0:0:0:0:
45,107,116528,2,0,P|42:83|49:46,1,36,0|0,1:0|1:0,0:0:0:0:
104,32,116701,2,0,P|145:47|182:47,1,72,8|0,1:0|0:0,0:0:0:0:
190,46,116959,1,0,0:0:0:0:
207,40,117045,1,8,1:0:0:0:
321,27,117218,6,0,L|314:117,1,72,0|8,0:0|1:0,0:0:0:0:
303,111,117476,1,0,0:0:0:0:
291,125,117563,2,0,L|286:182,1,36,0|0,1:0|1:0,0:0:0:0:
227,199,117735,2,0,L|231:256,1,36,8|0,1:0|0:0,0:0:0:0:
291,272,117908,2,0,L|286:329,1,36,0|0,1:0|0:0,0:0:0:0:
347,348,118080,2,0,P|393:354|426:345,1,72,8|0,1:0|0:0,0:0:0:0:
434,342,118339,1,0,0:0:0:0:
446,329,118425,2,0,P|445:279|461:245,1,72,8|0,1:0|0:0,0:0:0:0:
466,247,118683,1,0,1:0:0:0:
478,234,118770,6,0,L|474:152,1,72,8|8,1:0|0:0,0:0:0:0:
377,69,119114,2,0,L|373:150,1,72,8|8,0:0|1:0,0:0:0:0:
285,237,119459,2,0,P|347:223|377:228,1,72,8|8,0:0|0:0,0:0:0:0:
240,137,119804,2,0,P|222:92|225:58,1,72,8|8,1:0|1:0,0:0:0:0:
133,164,120149,6,0,L|129:240,1,72,8|8,1:0|0:0,0:0:0:0:
190,334,120494,2,0,P|221:301|236:257,1,72,8|8,1:0|1:0,0:0:0:0:
240,137,120839,1,8,0:0:0:0:
129,235,121011,1,8,0:0:0:0:
274,209,121183,1,8,1:0:0:0:
163,111,121355,1,8,0:0:0:0:
231,276,121528,5,2,0:0:0:0:
231,276,121873,1,2,0:0:0:0:
231,276,122218,1,2,0:0:0:0:
231,276,122563,1,2,0:0:0:0:
221,172,122735,6,0,P|244:128|235:24,1,144,2|0,0:0|0:0,0:0:0:0:
155,19,123252,1,0,0:0:0:0:
71,40,123425,1,0,0:0:0:0:
37,120,123597,1,0,1:0:0:0:
74,210,123770,1,0,1:0:0:0:
74,210,123856,1,0,1:0:0:0:
74,210,123942,2,0,P|114:227|153:231,1,72,2|0,0:0|0:0,0:0:0:0:
274,264,124287,6,0,B|256:198|256:198|279:115,1,135.000005149842,6|0,3:1|0:0,0:0:0:0:
192,119,124545,1,0,0:0:0:0:
192,119,124632,2,0,L|172:192,1,67.5000025749208,2|0,0:1|0:0,0:0:0:0:
360,271,124804,2,0,L|340:198,1,67.5000025749208,2|0,0:1|0:0,0:0:0:0:
240,288,124976,6,0,P|189:324|112:319,1,125.999996154785,10|0,0:1|0:0,0:0:0:0:
27,329,125235,1,0,0:0:0:0:
27,329,125321,2,0,P|37:291|34:265,1,62.9999980773926,2|0,3:1|0:0,0:0:0:0:
152,177,125494,2,0,P|150:208|159:238,1,62.9999980773926,2|0,0:1|0:0,0:0:0:0:
156,349,125666,6,0,L|299:337,1,116.999994644165,2|0,0:1|3:0,0:0:0:0:
217,243,125925,1,0,0:0:0:0:
217,243,126011,2,0,L|152:237,1,58.4999973220826,2|0,3:1|0:0,0:0:0:0:
272,339,126183,2,0,L|337:333,1,58.4999973220826,2|0,0:1|0:0,0:0:0:0:
367,176,126356,2,0,L|184:160,1,175.499991966248,10|0,0:1|0:0,0:0:0:0:
91,170,126701,6,0,L|197:160,1,101.250003862381,2|0,3:1|0:0,0:0:0:0:
316,271,127045,6,0,L|168:258,1,135.000005149842,2|0,3:1|0:0,0:0:0:0:
188,193,127304,1,0,0:0:0:0:
188,193,127390,2,0,L|182:263,1,67.5000025749208,2|0,0:1|0:0,0:0:0:0:
321,338,127563,2,0,L|315:268,1,67.5000025749208,2|0,0:1|0:0,0:0:0:0:
296,157,127735,6,0,P|373:146|420:99,1,144,10|0,0:1|0:0,0:0:0:0:
299,86,127994,1,0,0:0:0:0:
299,86,128080,2,0,P|291:125|298:164,1,72,2|0,3:1|0:0,0:0:0:0:
374,222,128252,2,0,P|411:209|442:183,1,72,2|0,0:1|0:0,0:0:0:0:
198,185,128425,6,0,L|190:277,2,90.0000034332277,2|2|2,0:1|0:1|0:1,0:0:0:0:
135,103,128770,2,0,L|127:13,1,67.5000025749208,2|0,3:1|0:0,0:0:0:0:
295,156,128942,2,0,L|287:245,1,67.5000025749208,2|0,0:1|0:0,0:0:0:0:
188,322,129114,6,0,B|227:306|227:306|302:326,1,101.250003862381,10|0,0:1|0:0,0:0:0:0:
380,320,129459,2,0,B|341:336|341:336|266:316,1,101.250003862381,10|0,0:1|0:0,0:0:0:0:
102,334,129804,6,0,P|122:263|92:195,1,135.000005149842,2|0,3:1|0:0,0:0:0:0:
200,294,130063,1,0,0:0:0:0:
200,294,130149,2,0,P|193:332|175:369,1,67.5000025749208,2|0,0:1|0:0,0:0:0:0:
29,269,130321,2,0,P|16:237|10:204,1,67.5000025749208,2|0,0:1|0:0,0:0:0:0:
59,75,130494,6,0,L|203:88,1,125.999996154785,10|0,0:1|0:0,0:0:0:0:
270,54,130752,1,0,0:0:0:0:
270,54,130839,2,0,L|160:63,1,62.9999980773926,2|0,3:1|0:0,0:0:0:0:
95,172,131011,1,2,0:1:0:0:
95,172,131356,6,0,L|184:180,1,58.4999973220826,2|0,3:1|0:0,0:0:0:0:
274,178,131528,2,0,P|261:210|260:268,1,77.9999964294435,2|0,3:1|0:0,0:0:0:0:
354,223,131758,1,0,0:0:0:0:
359,184,131873,2,0,P|347:125|235:102,1,175.499991966248,10|0,0:1|0:0,0:0:0:0:
407,69,132218,6,0,P|432:108|438:177,1,101.250003862381,2|0,3:1|0:0,0:0:0:0:
305,267,132563,6,0,P|304:204|343:143,1,135.000005149842,2|0,3:1|0:0,0:0:0:0:
387,294,132821,1,0,0:0:0:0:
387,294,132908,2,0,P|372:326|327:348,1,67.5000025749208,2|0,0:1|0:0,0:0:0:0:
266,126,133080,2,0,P|281:94|326:72,1,67.5000025749208,2|0,0:1|0:0,0:0:0:0:
228,256,133252,6,0,L|74:247,1,144,10|0,0:1|0:0,0:0:0:0:
78,175,133511,1,0,0:0:0:0:
78,175,133597,2,0,L|84:251,1,72,2|0,3:1|0:0,0:0:0:0:
222,327,133770,2,0,L|228:251,1,72,2|0,0:1|0:0,0:0:0:0:
194,126,133942,5,0,0:0:0:0:
338,100,134114,2,0,L|389:90,2,45,2|0|2,0:0|0:0|0:0,0:0:0:0:
184,128,134459,5,0,0:0:0:0:
317,205,134632,2,0,L|390:230,2,53.9999983520508,0|0|0,1:0|0:0|0:0,0:0:0:0:
174,130,134976,6,0,L|100:155,2,62.9999980773926,0|0|0,1:0|0:0|0:0,0:0:0:0:
317,205,135321,6,0,P|327:142|399:95,1,144,6|0,3:1|0:0,0:0:0:0:
379,265,135580,1,0,0:0:0:0:
347,282,135666,2,0,P|309:289|262:267,1,72,2|0,3:1|0:0,0:0:0:0:
252,137,135839,2,0,P|264:100|306:68,1,72,2|0,0:1|0:0,0:0:0:0:
193,221,136011,6,0,L|46:209,1,144,6|0,3:1|0:0,0:0:0:0:
43,102,136270,1,0,0:0:0:0:
45,137,136356,2,0,L|49:217,1,72,2|0,3:1|0:0,0:0:0:0:
189,292,136528,2,0,L|193:212,1,72,2|0,0:1|0:0,0:0:0:0:
191,36,136701,5,4,3:1:0:0:
192,220,136930,1,0,0:0:0:0:
192,220,137045,2,0,P|231:217|267:201,1,67.5000025749208,2|0,3:1|0:0,0:0:0:0:
256,50,137218,2,0,P|224:38|190:36,1,67.5000025749208,2|0,0:1|0:0,0:0:0:0:
335,263,137390,2,0,B|394:186|295:149|359:61,1,202.500007724762,4|0,3:1|0:0,0:0:0:0:
431,185,137735,6,0,P|434:218|427:258,1,67.5000025749208,2|0,3:1|0:0,0:0:0:0:
290,302,138080,6,0,P|261:271|144:254,1,153.000002918243,6|0,3:1|0:0,0:0:0:0:
126,357,138339,1,0,0:0:0:0:
145,324,138425,2,0,P|157:283|152:233,1,76.5000014591217,2|0,3:1|0:0,0:0:0:0:
278,227,138597,2,0,P|277:265|289:301,1,76.5000014591217,2|0,0:1|0:0,0:0:0:0:
307,135,138770,6,0,B|245:140|245:140|214:163|214:163|140:171,1,161.999995056153,6|0,3:1|0:0,0:0:0:0:
47,86,139028,1,0,0:0:0:0:
86,93,139114,2,0,L|167:101,1,80.9999975280763,2|0,3:1|0:0,0:0:0:0:
358,219,139287,2,0,L|277:227,1,80.9999975280763,2|0,0:1|0:0,0:0:0:0:
51,160,139459,6,0,L|163:171,2,102.000001945496,4|2|2,3:1|0:1|0:1,0:0:0:0:
221,213,139804,2,0,P|231:170|221:132,1,76.5000014591217,2|0,3:1|0:0,0:0:0:0:
47,86,139976,2,0,P|40:123|50:159,1,76.5000014591217,0|0,0:0|0:0,0:0:0:0:
22,363,140149,6,0,B|16:325|16:325|38:305|38:305|83:307,1,101.250003862381,2|0,0:1|0:0,0:0:0:0:
144,291,140494,2,0,B|114:267|114:267|85:276|85:276|65:316,1,101.250003862381,2|0,0:1|0:0,0:0:0:0:
66,129,140839,6,0,L|225:168,1,161.999995056153,4|0,3:1|0:0,0:0:0:0:
344,60,141097,1,0,0:0:0:0:
304,70,141183,2,0,L|203:94,1,80.9999975280763,2|0,3:1|0:0,0:0:0:0:
140,227,141356,2,0,L|240:251,1,80.9999975280763,2|0,0:1|0:0,0:0:0:0:
371,131,141528,6,0,L|212:170,1,153.000002918243,6|0,3:1|0:0,0:0:0:0:
189,76,141787,1,0,0:0:0:0:
225,88,141873,2,0,L|333:112,1,76.5000014591217,2|0,3:1|0:0,0:0:0:0:
293,228,142045,2,0,L|180:255,1,76.5000014591217,2|0,0:1|0:0,0:0:0:0:
134,179,142218,5,6,3:1:0:0:
134,179,142390,2,0,P|206:169|251:106,1,144,2|2,0:1|3:1,0:0:0:0:
302,39,142678,1,0,0:0:0:0:
302,39,142793,1,0,0:0:0:0:
386,75,142908,2,0,B|414:142|414:142|377:293,1,216,6|0,3:1|0:0,0:0:0:0:
485,175,143252,6,0,B|493:136|493:136|466:71,1,101.250003862381,2|0,0:1|0:0,0:0:0:0:
334,151,143597,6,0,B|263:173|263:173|184:149,1,144,6|0,3:1|0:0,0:0:0:0:
255,257,143856,1,0,0:0:0:0:
288,245,143942,2,0,L|371:218,1,72,2|0,3:1|0:0,0:0:0:0:
386,75,144114,2,0,L|303:48,1,72,2|0,0:1|0:0,0:0:0:0:
212,69,144287,6,0,P|240:107|222:222,1,153.000002918243,6|0,3:1|0:0,0:0:0:0:
118,113,144545,1,0,0:0:0:0:
121,74,144632,2,0,P|131:37|150:3,1,76.5000014591217,2|0,3:1|0:0,0:0:0:0:
292,52,144804,2,0,P|310:84|322:127,1,76.5000014591217,0|0,0:0|0:0,0:0:0:0:
232,208,144976,6,0,L|174:203,1,45,4|0,3:1|1:0,0:0:0:0:
276,125,145149,2,0,L|334:120,1,45,0|0,1:0|1:0,0:0:0:0:
409,173,145321,1,0,1:0:0:0:
422,191,145407,1,0,1:0:0:0:
431,211,145493,1,0,1:0:0:0:
436,233,145579,1,0,1:0:0:0:
436,255,145665,1,0,1:0:0:0:
267,214,145839,2,0,L|277:114,2,90,0|0|0,0:0|1:0|0:0,0:0:0:0:
256,352,146356,5,6,3:2:0:0:
100,158,157390,6,0,P|153:150|190:112,1,90,8|0,0:0|0:0,0:0:0:0:
195,110,157649,1,0,1:0:0:0:
210,94,157735,2,0,P|256:79|302:84,1,90,8|0,1:0|1:0,0:0:0:0:
317,92,157994,1,0,1:0:0:0:
336,103,158080,2,0,P|382:118|428:113,1,90,8|0,1:0|0:0,0:0:0:0:
304,225,158425,2,0,L|190:233,1,90,8|0,1:0|0:0,0:0:0:0:
130,173,158770,6,0,P|170:138|225:133,1,90,8|0,1:0|1:0,0:0:0:0:
204,333,159114,2,0,P|153:315|121:270,1,90,8|0,1:0|1:0,0:0:0:0:
304,225,159459,2,0,L|318:327,1,90,8|0,1:0|0:0,0:0:0:0:
204,333,159804,1,8,1:0:0:0:
204,333,160149,6,0,P|157:319|103:330,1,90,8|0,1:0|1:0,0:0:0:0:
304,225,160494,2,0,P|348:229|390:216,1,90,8|0,1:0|1:0,0:0:0:0:
235,172,160839,2,0,P|220:228|230:272,1,90,8|0,1:0|0:0,0:0:0:0:
114,140,161183,2,0,L|103:35,1,90,8|0,1:0|1:0,0:0:0:0:
52,225,161528,6,0,P|91:243|143:238,1,90,8|0,1:0|1:0,0:0:0:0:
277,282,161873,2,0,P|262:231|273:187,1,90,8|0,1:0|1:0,0:0:0:0:
186,52,162218,2,0,L|177:147,1,90,8|0,1:0|0:0,0:0:0:0:
351,155,162563,2,0,L|346:107,3,45,0|0|0|0,1:0|0:0|1:0|0:0,0:0:0:0:
404,208,162908,6,0,P|463:194|493:166,1,90,8|0,0:0|0:0,0:0:0:0:
494,155,163166,1,8,0:0:0:0:
497,132,163252,2,0,P|494:100|498:82,1,45,8|0,0:0|0:0,0:0:0:0:
422,13,163425,2,0,P|424:35|421:57,1,45,8|0,0:0|0:0,0:0:0:0:
348,132,163597,2,0,P|345:100|349:82,1,45,8|0,0:0|0:0,0:0:0:0:
273,13,163770,2,0,P|275:35|272:57,1,45,8|0,0:0|0:0,0:0:0:0:
200,134,163942,1,8,0:0:0:0:
347,87,164114,1,8,0:0:0:0:
347,87,164201,1,0,0:0:0:0:
347,87,164287,6,0,L|338:20,2,60,8|8|8,0:0|0:0|0:0,0:0:0:0:
453,140,164632,2,0,L|444:207,2,60,8|8|8,0:0|0:0|0:0,0:0:0:0:
434,34,164976,2,0,L|501:25,2,60,8|8|8,0:0|0:0|0:0,0:0:0:0:
366,193,165321,2,0,L|299:184,2,60,8|8|8,0:0|0:0|0:0,0:0:0:0:
483,135,165666,5,0,0:0:0:0:
483,135,167045,6,0,P|493:171|492:221,1,67.5000025749208,0|0,0:0|0:0,0:0:0:0:
486,215,167304,1,0,0:0:0:0:
480,230,167390,2,0,P|470:266|471:316,1,67.5000025749208,0|0,0:0|0:0,0:0:0:0:
479,309,167649,1,0,0:0:0:0:
487,323,167735,1,0,0:0:0:0:
487,339,167821,1,0,0:0:0:0:
479,354,167908,1,0,0:0:0:0:
464,362,167994,1,0,0:0:0:0:
447,365,168080,2,0,L|401:368,1,33.7500012874604,2|0,0:0|0:0,0:0:0:0:
303,361,168425,6,0,L|290:247,1,107.999996704102,2|0,3:1|0:0,0:0:0:0:
248,110,168770,2,0,P|197:137|134:133,1,107.999996704102,10|0,0:1|0:0,0:0:0:0:
335,161,169114,2,0,L|458:167,1,107.999996704102,2|0,0:1|3:0,0:0:0:0:
290,253,169459,5,10,0:1:0:0:
263,254,169545,1,0,0:0:0:0:
236,255,169631,1,2,0:1:0:0:
130,206,169804,1,2,3:1:0:0:
236,345,169976,5,2,0:1:0:0:
207,330,170062,1,0,0:0:0:0:
178,315,170148,1,10,0:1:0:0:
128,198,170321,1,0,0:0:0:0:
138,384,170494,5,2,0:1:0:0:
116,351,170580,1,0,0:0:0:0:
95,318,170666,1,2,3:1:0:0:
177,110,170839,5,10,0:1:0:0:
152,150,170925,1,0,0:0:0:0:
126,190,171011,1,2,0:1:0:0:
243,238,171183,6,0,P|301:244|355:218,1,107.999996704102,2|0,3:1|0:0,0:0:0:0:
416,95,171528,2,0,L|306:106,1,107.999996704102,10|0,0:1|0:0,0:0:0:0:
456,201,171873,2,0,P|479:268|474:315,1,107.999996704102,2|0,0:1|3:0,0:0:0:0:
325,362,172218,1,10,0:1:0:0:
327,335,172304,1,0,0:0:0:0:
330,308,172390,1,2,0:1:0:0:
362,218,172563,5,2,3:1:0:0:
360,185,172649,1,0,0:0:0:0:
356,153,172735,1,2,0:1:0:0:
291,69,172908,1,10,0:1:0:0:
260,92,172994,1,0,0:0:0:0:
225,108,173080,1,2,3:1:0:0:
186,115,173166,1,0,0:0:0:0:
148,112,173252,2,0,L|93:108,1,53.9999983520508,2|0,0:1|0:0,0:0:0:0:
71,19,173425,2,0,L|16:23,1,53.9999983520508,2|0,3:1|0:0,0:0:0:0:
20,174,173597,5,10,0:1:0:0:
31,198,173683,1,0,0:0:0:0:
37,224,173769,1,2,0:1:0:0:
38,251,173855,1,0,0:0:0:0:
33,277,173942,6,0,P|61:316|125:338,1,107.999996704102,6|0,3:1|0:0,0:0:0:0:
134,165,174287,2,0,P|106:126|42:104,1,107.999996704102,10|0,0:1|0:0,0:0:0:0:
202,260,174632,2,0,L|329:248,1,107.999996704102,2|0,0:1|3:0,0:0:0:0:
334,156,174976,5,10,0:1:0:0:
307,153,175062,1,0,0:0:0:0:
280,150,175148,1,0,0:0:0:0:
202,260,175321,1,0,3:0:0:0:
259,104,175494,5,2,0:1:0:0:
227,116,175580,1,0,0:0:0:0:
197,129,175666,1,10,0:1:0:0:
198,270,175839,1,0,0:0:0:0:
168,101,176011,5,2,0:1:0:0:
142,131,176097,1,0,0:0:0:0:
119,162,176183,1,2,3:1:0:0:
253,354,176356,5,10,0:1:0:0:
221,318,176442,1,0,0:0:0:0:
194,280,176528,1,2,0:1:0:0:
268,187,176701,6,0,P|277:125|230:31,1,161.999995056153,2|0,3:1|0:0,0:0:0:0:
369,95,177045,2,0,P|373:128|369:164,1,53.9999983520508,10|0,0:1|0:0,0:0:0:0:
305,263,177218,2,0,P|256:225|158:231,1,161.999995056153,0|0,3:0|0:0,0:0:0:0:
61,220,177563,2,0,P|61:250|76:282,1,53.9999983520508,0|0,3:0|0:0,0:0:0:0:
69,372,177735,1,10,0:1:0:0:
42,369,177821,1,0,0:0:0:0:
15,366,177907,1,2,0:1:0:0:
168,337,178080,6,0,L|159:224,1,107.999996704102,0|0,3:0|0:0,0:0:0:0:
140,209,178339,1,0,1:0:0:0:
120,189,178425,2,0,L|115:132,1,53.9999983520508,8|0,1:0|0:0,0:0:0:0:
41,33,178597,1,0,1:0:0:0:
41,33,178683,1,0,1:0:0:0:
41,33,178770,2,0,L|109:39,1,53.9999983520508,0|0,1:0|0:0,0:0:0:0:
115,135,178942,2,0,L|183:129,1,53.9999983520508,0|0,1:0|0:0,0:0:0:0:
204,44,179114,1,0,1:0:0:0:
230,46,179200,1,0,1:0:0:0:
257,48,179286,1,0,1:0:0:0:
284,51,179372,1,0,1:0:0:0:
311,53,179459,6,0,L|441:64,1,107.999996704102,4|0,3:2|0:0,0:0:0:0:
273,200,179804,2,0,L|143:211,1,107.999996704102,8|0,0:0|0:0,0:0:0:0:
367,147,180149,2,0,P|383:202|364:268,1,107.999996704102,0|0,0:0|3:0,0:0:0:0:
165,209,180494,6,0,L|175:151,2,53.9999983520508,10|0|0,0:0|0:0|0:0,0:0:0:0:
177,350,180839,1,0,3:0:0:0:
267,240,181011,6,0,L|304:194,2,58.4999973220826,2|0|8,0:0|0:0|0:0,0:0:0:0:
175,358,181356,1,0,0:0:0:0:
323,333,181528,6,0,L|404:303,2,62.9999980773926,2|0|0,0:0|0:0|3:0,0:0:0:0:
91,342,181873,6,0,L|8:312,2,67.5000025749208,10|0|0,0:0|0:0|0:0,0:0:0:0:
220,245,182218,6,0,P|245:175|239:135,1,107.999996704102,0|0,3:0|0:0,0:0:0:0:
372,61,182563,2,0,L|404:168,1,107.999996704102,8|0,0:0|0:0,0:0:0:0:
312,293,182908,2,0,P|278:262|209:245,1,107.999996704102,0|0,0:0|3:0,0:0:0:0:
88,272,183252,2,0,L|96:205,2,53.9999983520508,10|0|0,0:0|0:0|0:0,0:0:0:0:
169,99,183597,6,0,L|177:166,2,53.9999983520508,2|0|2,3:2|0:0|0:0,0:0:0:0:
203,16,183942,1,10,0:0:0:0:
221,34,184028,1,0,0:0:0:0:
243,49,184114,1,2,3:2:0:0:
268,60,184200,1,0,0:0:0:0:
295,63,184287,2,0,L|355:56,1,53.9999983520508,2|0,0:0|0:0,0:0:0:0:
419,10,184459,2,0,L|479:17,1,53.9999983520508,2|0,3:2|0:0,0:0:0:0:
494,100,184632,1,10,0:0:0:0:
482,124,184718,1,0,0:0:0:0:
477,150,184804,1,0,0:0:0:0:
477,177,184890,1,0,0:0:0:0:
483,205,184976,6,0,P|500:264|491:322,1,107.999996704102,4|0,3:2|0:0,0:0:0:0:
344,244,185321,2,0,L|351:131,1,107.999996704102,8|0,0:0|0:0,0:0:0:0:
392,341,185666,2,0,P|333:356|274:329,1,107.999996704102,0|0,0:0|3:0,0:0:0:0:
189,294,186011,6,0,L|180:360,2,53.9999983520508,10|0|0,0:0|0:0|0:0,0:0:0:0:
195,171,186356,1,0,3:0:0:0:
104,258,186528,6,0,L|63:310,2,58.4999973220826,2|0|8,0:0|0:0|0:0,0:0:0:0:
199,161,186873,1,0,0:0:0:0:
70,171,187045,6,0,L|8:196,2,62.9999980773926,2|0|0,0:0|0:0|3:0,0:0:0:0:
243,296,187390,6,0,L|325:329,2,67.5000025749208,10|0|0,0:0|0:0|0:0,0:0:0:0:
146,243,187735,6,0,B|154:355|154:355|213:382,1,161.999995056153,2|0,3:2|0:0,0:0:0:0:
243,296,188080,2,0,L|238:236,1,53.9999983520508,8|0,0:0|0:0,0:0:0:0:
259,151,188252,2,0,P|195:128|165:29,1,161.999995056153,2|0,3:2|0:0,0:0:0:0:
116,150,188597,2,0,P|137:178|165:197,1,53.9999983520508,0|0,3:0|0:0,0:0:0:0:
161,315,188770,2,0,L|43:299,1,107.999996704102,10|0,0:0|0:0,0:0:0:0:
282,242,189114,6,0,L|400:226,1,107.999996704102,0|0,3:0|0:0,0:0:0:0:
200,109,189459,2,0,P|179:156|185:225,1,107.999996704102,0|0,0:0|0:0,0:0:0:0:
289,295,189804,2,0,L|279:227,1,53.9999983520508,0|0,0:0|0:0,0:0:0:0:
342,170,189976,2,0,L|352:102,1,53.9999983520508,0|0,0:0|0:0,0:0:0:0:
256,32,190149,1,14,0:0:0:0:
256,32,190494,6,0,P|219:49|177:55,1,67.5000025749208,6|0,3:2|0:0,0:0:0:0:
89,136,190839,2,0,L|163:140,1,67.5000025749208,10|0,0:0|0:0,0:0:0:0:
231,197,191183,2,0,P|221:242|225:278,1,67.5000025749208,2|0,0:0|3:0,0:0:0:0:
314,153,191528,6,0,L|310:106,2,33.7500012874604,10|0|2,0:0|0:0|0:0,0:0:0:0:
338,249,191873,1,0,3:0:0:0:
403,175,192045,6,0,L|423:132,2,38.2500007295609,2|0|10,0:0|0:0|0:0,0:0:0:0:
334,261,192390,1,0,0:0:0:0:
435,263,192563,6,0,L|473:236,2,42.7499988584519,2|0|2,0:2|0:0|3:2,0:0:0:0:
330,273,192908,6,0,L|291:299,2,47.2499985580445,10|0|2,0:0|0:0|0:0,0:0:0:0:
346,174,193252,6,0,P|328:135|324:105,1,67.5000025749208,2|0,3:2|0:0,0:0:0:0:
241,43,193597,2,0,L|236:112,1,67.5000025749208,10|0,0:0|0:0,0:0:0:0:
208,207,193942,2,0,P|171:194|133:196,1,67.5000025749208,2|0,0:0|3:0,0:0:0:0:
38,187,194287,1,10,0:0:0:0:
40,203,194373,1,0,0:0:0:0:
42,220,194459,1,2,0:0:0:0:
68,330,194632,5,0,3:0:0:0:
143,194,194804,1,0,0:0:0:0:
168,303,194976,1,8,0:0:0:0:
42,220,195149,2,0,L|53:110,1,101.250003862381,0|0,3:0|0:0,0:0:0:0:
52,35,195494,2,0,L|25:27,4,16.8750006437302,0|0|0|0|8,3:0|0:0|0:0|0:0|0:0,0:0:0:0:
163,25,195839,1,2,0:0:0:0:
193,39,195925,1,0,0:0:0:0:
215,63,196011,6,0,P|258:81|300:82,1,67.5000025749208,4|0,3:2|0:0,0:0:0:0:
179,158,196356,2,0,L|105:162,1,67.5000025749208,10|0,0:0|0:0,0:0:0:0:
185,254,196701,2,0,P|200:290|206:326,1,67.5000025749208,2|0,0:0|3:0,0:0:0:0:
289,220,197045,6,0,L|293:180,2,33.7500012874604,10|0|2,0:0|0:0|0:0,0:0:0:0:
205,317,197390,1,0,3:0:0:0:
175,189,197563,6,0,L|158:152,2,38.2500007295609,2|0|10,0:0|0:0|0:0,0:0:0:0:
207,325,197908,1,0,0:0:0:0:
83,265,198080,6,0,L|38:232,2,42.7499988584519,2|0|2,0:0|0:0|3:2,0:0:0:0:
209,333,198425,6,0,L|253:300,2,47.2499985580445,10|0|2,0:0|0:0|0:0,0:0:0:0:
183,209,198770,6,0,P|204:158|202:122,1,67.5000025749208,4|0,3:2|0:0,0:0:0:0:
200,30,199114,2,0,P|247:41|294:42,1,67.5000025749208,8|4,0:0|3:2,0:0:0:0:
324,128,199459,2,0,L|403:121,1,67.5000025749208,0|8,0:0|0:0,0:0:0:0:
493,151,199804,2,0,L|487:111,1,33.7500012874604,10|0,0:0|0:0,0:0:0:0:
469,22,199976,1,6,3:2:0:0:
