osu file format v14

[General]
AudioFilename: wakusei.mp3
AudioLeadIn: 0
PreviewTime: 79471
Countdown: 0
SampleSet: Soft
StackLeniency: 0.3
Mode: 0
LetterboxInBreaks: 0
WidescreenStoryboard: 0

[Editor]
Bookmarks: 24988,47057,57488,58092,63609,66368,69126,91195,96713,108264,113264,118782,119471,121540,124299,144988,145420,157402,162920,168437,190506,200161
DistanceSpacing: 3
BeatDivisor: 4
GridSize: 8
TimelineZoom: 2.999999

[Metadata]
Title:Wakusei Rabbit (feat. TORIENA)
TitleUnicode:惑星ラビット (feat. TORIENA)
Artist:Yunomi
ArtistUnicode:Yunomi
Creator:GenDoNL
Version:Pyon Pyon
Source:
Tags:Elcheer ShogunMoon Shunao Kami-senpai jpop dnb
BeatmapID:1039881
BeatmapSetID:487784

[Difficulty]
HPDrainRate:6
CircleSize:4
OverallDifficulty:9
ApproachRate:9.3
SliderMultiplier:2
SliderTickRate:2

[Events]
//Background and Video events
0,0,"bg.png",0,0
//Break Periods
2,67846,68643
2,123018,123816
//Storyboard Layer 0 (Background)
//Storyboard Layer 1 (Fail)
//Storyboard Layer 2 (Pass)
//Storyboard Layer 3 (Foreground)
//Storyboard Sound Samples

[TimingPoints]
2991,344.827586206897,4,2,1,60,1,0
7128,-133.333333333333,4,2,1,60,0,0
7991,-100,4,2,1,70,0,0
14025,-100,4,2,1,80,0,0
25059,-133.333333333333,4,2,1,60,0,0
35749,-100,4,2,1,100,0,0
36094,-133.333333333333,4,2,1,60,0,0
47128,-200,4,2,1,40,0,0
58163,-200,4,2,1,60,0,0
63853,-200,4,2,1,70,0,0
66439,-100,4,2,1,60,0,0
69197,-100,4,2,1,80,0,1
79887,-100,4,2,1,80,0,0
80232,-100,4,2,1,80,0,1
91266,-200,4,2,1,40,0,0
96266,-100,4,2,1,60,0,0
102301,-133.333333333333,4,2,0,50,0,0
113335,-100,4,2,1,60,0,0
124370,-100,4,1,1,80,0,0
126784,-80,4,1,1,80,0,0
127128,-100,4,1,1,80,0,0
129197,-80,4,1,1,80,0,0
129542,-100,4,1,1,80,0,0
132301,-80,4,1,1,80,0,0
132646,-100,4,1,1,80,0,0
134025,-100,4,2,1,50,0,0
135404,-80,4,1,1,80,0,0
137818,-66.6666666666667,4,1,1,80,0,0
138163,-80,4,1,1,80,0,0
140577,-66.6666666666667,4,1,1,80,0,0
140922,-80,4,1,1,80,0,0
143335,-66.6666666666667,4,1,1,80,0,0
143680,-80,4,1,1,80,0,0
145059,-100,4,2,1,50,0,0
157473,-100,4,2,1,70,0,0
168508,-100,4,2,1,80,0,1
179197,-100,4,2,1,80,0,0
179542,-100,4,2,1,80,0,1
190577,-133.333333333333,4,2,1,60,0,0

[Colours]
Combo1 : 163,129,254
Combo2 : 128,255,255
Combo3 : 198,79,82
Combo4 : 255,128,192

[HitObjects]
96,128,2991,6,0,P|144:144|226:137,1,100,4|0,0:0|0:0,0:0:0:0:
356,111,3335,1,2,0:0:0:0:
145,244,3508,1,0,0:0:0:0:
253,47,3680,5,2,0:0:0:0:
253,290,3853,1,0,0:0:0:0:
227,160,4025,1,2,0:0:0:0:
234,177,4111,1,2,0:0:0:0:
241,192,4197,1,2,0:0:0:0:
304,104,4370,5,2,0:0:0:0:
253,290,4542,1,2,0:0:0:0:
260,307,4628,1,2,0:0:0:0:
268,324,4714,1,2,0:0:0:0:
201,108,4887,5,2,0:0:0:0:
29,200,5059,1,2,0:0:0:0:
46,207,5145,1,2,0:0:0:0:
63,215,5231,1,2,0:0:0:0:
201,108,5404,1,2,0:0:0:0:
184,115,5490,1,2,0:0:0:0:
167,123,5576,1,2,0:0:0:0:
41,100,5749,5,2,0:0:0:0:
40,282,5922,1,0,0:0:0:0:
114,155,6094,5,2,0:0:0:0:
113,337,6266,1,0,0:0:0:0:
187,100,6439,5,2,0:0:0:0:
188,282,6612,1,0,0:0:0:0:
260,155,6784,1,2,0:0:0:0:
259,173,6870,1,2,0:0:0:0:
258,193,6956,1,2,0:0:0:0:
292,286,7128,6,0,P|357:294|395:274,1,75.0000028610231
181,209,7473,1,0,0:0:0:0:
409,357,7646,2,0,P|456:311|464:269,1,75.0000028610231
422,119,7991,6,2,L|436:78,4,25
413,83,8249,1,2,0:0:0:0:
392,64,8335,1,2,0:0:0:0:
367,57,8421,1,2,0:0:0:0:
342,59,8507,5,10,0:0:0:0:
99,187,8680,1,0,0:0:0:0:
353,162,8853,5,8,0:0:0:0:
47,101,9026,1,0,0:0:0:0:
321,65,9197,5,8,0:0:0:0:
43,281,9370,1,0,0:0:0:0:
304,251,9542,1,10,0:0:0:0:
287,241,9628,1,2,0:0:0:0:
272,233,9714,1,2,0:0:0:0:
58,107,9887,5,8,0:0:0:0:
336,269,10059,1,2,0:0:0:0:
319,259,10145,1,2,0:0:0:0:
304,251,10232,1,10,0:0:0:0:
75,118,10404,1,0,0:0:0:0:
368,287,10577,5,10,0:0:0:0:
351,277,10663,1,2,0:0:0:0:
336,269,10749,1,2,0:0:0:0:
90,126,10922,1,10,0:0:0:0:
107,136,11008,1,2,0:0:0:0:
122,144,11094,1,2,0:0:0:0:
368,287,11266,5,8,0:0:0:0:
72,209,11611,5,8,0:0:0:0:
368,131,11956,5,8,0:0:0:0:
210,44,12301,5,8,0:0:0:0:
285,287,12473,1,8,0:0:0:0:
256,192,12646,12,0,13680,0:0:0:0:
434,114,14025,6,0,P|372:102|328:111,1,100,4|0,0:0|0:0,0:0:0:0:
192,198,14370,1,8,0:0:0:0:
250,23,14542,1,0,0:0:0:0:
297,299,14715,1,0,0:0:0:0:
252,42,14887,5,0,0:0:0:0:
299,276,15059,1,10,0:0:0:0:
301,251,15145,1,2,0:0:0:0:
304,226,15231,1,2,0:0:0:0:
307,201,15317,1,2,0:0:0:0:
310,176,15403,1,2,0:0:0:0:
208,14,15577,5,2,0:0:0:0:
192,23,15663,1,2,0:0:0:0:
179,34,15749,2,0,L|176:111,1,50,10|0,0:0|0:0,0:0:0:0:
172,264,15922,1,0,0:0:0:0:
361,118,16094,1,10,0:0:0:0:
322,100,16180,1,2,0:0:0:0:
281,107,16266,2,2,P|260:117|234:151,1,50,2|2,0:0|0:0,0:0:0:0:
172,264,16439,1,10,0:0:0:0:
123,267,16525,1,2,0:0:0:0:
77,246,16611,2,2,P|58:226|44:190,1,50
51,31,16784,5,8,0:0:0:0:
316,191,16956,1,0,0:0:0:0:
77,246,17128,5,8,0:0:0:0:
353,91,17300,1,0,0:0:0:0:
265,343,17473,5,8,0:0:0:0:
270,33,17645,1,0,0:0:0:0:
430,307,17818,5,2,0:0:0:0:
415,277,17904,1,2,0:0:0:0:
400,247,17990,1,2,0:0:0:0:
385,217,18076,1,2,0:0:0:0:
369,189,18163,2,0,B|335:173|308:168|308:168|267:132,1,100,4|0,0:0|0:0,0:0:0:0:
452,33,18508,1,8,0:0:0:0:
238,220,18680,2,0,B|200:223|174:232|174:232|121:221,1,100,4|0,0:0|0:0,0:0:0:0:
369,99,19025,6,2,L|389:74,4,25
405,90,19284,1,0,0:0:0:0:
437,95,19370,1,2,0:0:0:0:
466,111,19456,1,2,0:0:0:0:
311,23,19542,5,10,0:0:0:0:
201,242,19715,1,0,0:0:0:0:
92,118,19887,5,8,0:0:0:0:
305,273,20059,1,0,0:0:0:0:
405,90,20232,5,8,0:0:0:0:
229,332,20405,1,0,0:0:0:0:
91,102,20577,5,10,0:0:0:0:
91,126,20663,1,2,0:0:0:0:
92,151,20749,1,2,0:0:0:0:
92,176,20835,1,2,0:0:0:0:
93,201,20921,1,8,0:0:0:0:
163,368,21094,1,2,0:0:0:0:
187,370,21180,1,2,0:0:0:0:
211,363,21266,2,0,L|211:286,1,50,8|0,0:0|0:0,0:0:0:0:
177,58,21439,1,0,0:0:0:0:
64,280,21611,5,10,0:0:0:0:
101,284,21697,1,2,0:0:0:0:
136,275,21784,2,2,P|174:233|176:216,1,50
177,58,21956,1,10,0:0:0:0:
223,43,22042,1,2,0:0:0:0:
272,43,22128,2,2,P|318:72|341:77,1,50,2|2,0:0|0:0,0:0:0:0:
496,144,22301,5,8,0:0:0:0:
101,206,22473,1,0,0:0:0:0:
440,248,22646,5,8,0:0:0:0:
66,104,22818,1,0,0:0:0:0:
440,72,22991,5,8,0:0:0:0:
152,305,23163,1,0,0:0:0:0:
472,152,23335,5,10,0:0:0:0:
447,152,23421,1,2,0:0:0:0:
422,152,23507,1,2,0:0:0:0:
397,152,23593,1,2,0:0:0:0:
372,152,23679,1,10,0:0:0:0:
160,64,23853,5,0,0:0:0:0:
182,75,23939,1,0,0:0:0:0:
204,86,24025,1,8,0:0:0:0:
336,256,24197,5,0,0:0:0:0:
313,267,24283,1,0,0:0:0:0:
291,278,24369,1,8,0:0:0:0:
315,52,24542,1,8,0:0:0:0:
169,361,24715,1,8,0:0:0:0:
85,160,25059,6,0,B|153:127|170:195|242:159,1,150.000005722046,4|8,0:0|0:0,0:0:0:0:
207,79,25577,1,0,0:0:0:0:
2,173,25749,2,0,P|20:215|66:246,1,75.0000028610231,0|0,0:0|0:0,0:0:0:0:
291,133,26094,1,8,0:0:0:0:
85,160,26266,1,0,0:0:0:0:
173,3,26439,2,0,P|216:-2|258:13,1,75.0000028610231,4|0,0:0|0:0,0:0:0:0:
299,148,26784,5,8,0:0:0:0:
152,16,26956,1,0,0:0:0:0:
135,228,27128,2,0,B|170:249|203:257,1,75.0000028610231
306,326,27473,2,0,B|345:311|379:309,1,75.0000028610231,8|0,0:0|0:0,0:0:0:0:
476,225,27818,6,0,B|447:223|436:188|436:188|463:143|445:89,1,150.000005722046,4|8,0:0|0:0,0:0:0:0:
497,0,28335,1,0,0:0:0:0:
338,127,28508,1,0,0:0:0:0:
487,301,28680,1,2,0:0:0:0:
477,75,28853,1,8,0:0:0:0:
296,257,29025,1,0,0:0:0:0:
476,225,29197,6,0,B|437:210|403:208,1,75.0000028610231,8|0,0:0|0:0,0:0:0:0:
397,22,29542,1,0,0:0:0:0:
272,144,29715,2,0,B|241:173|208:167|208:167|163:139|112:152,1,150.000005722046,8|0,0:0|0:0,0:0:0:0:
222,77,30232,5,8,0:0:0:0:
291,222,30404,1,0,0:0:0:0:
205,357,30577,2,0,B|182:371|154:359|154:359|134:318|156:264,1,150.000005722046,4|8,0:0|0:0,0:0:0:0:
222,99,31094,1,0,0:0:0:0:
232,282,31266,2,0,B|293:263|319:306|379:289,1,150.000005722046,0|8,0:0|0:0,0:0:0:0:
49,104,31784,5,0,0:0:0:0:
49,104,31956,2,0,B|110:85|136:128|196:111,1,150.000005722046,0|8,0:0|0:0,0:0:0:0:
153,18,32473,1,0,0:0:0:0:
87,186,32646,2,0,P|96:237|119:275,1,75.0000028610231
267,91,32991,2,0,P|216:100|178:123,1,75.0000028610231,8|0,0:0|0:0,0:0:0:0:
119,274,33335,5,8,0:0:0:0:
338,186,33508,1,0,0:0:0:0:
174,18,33680,1,8,0:0:0:0:
258,300,33853,1,0,0:0:0:0:
35,125,34197,6,0,P|94:121|125:128,1,75.0000028610231,0|8,0:0|0:0,0:0:0:0:
246,19,34542,1,0,0:0:0:0:
73,207,34715,2,0,B|110:253|101:290|101:290|126:321|168:306,2,150.000005722046,4|8|0,0:0|0:0|0:0,0:0:0:0:
239,32,35577,1,0,0:0:0:0:
30,98,35749,6,0,L|162:112,1,100,8|0,0:0|0:0,0:0:0:0:
457,151,36094,6,0,B|408:174|365:148|365:148|314:155|296:193,1,150.000005722046,4|8,0:0|0:0,0:0:0:0:
412,74,36611,1,0,0:0:0:0:
250,222,36784,2,0,P|234:188|234:140,1,75.0000028610231,0|0,0:0|0:0,0:0:0:0:
418,266,37128,2,0,P|434:300|434:348,1,75.0000028610231,8|0,0:0|0:0,0:0:0:0:
144,61,37473,6,0,B|193:84|236:58|236:58|287:65|305:103,1,150.000005722046,4|8,0:0|0:0,0:0:0:0:
345,145,37991,1,0,0:0:0:0:
240,148,38163,1,0,0:0:0:0:
358,43,38335,1,0,0:0:0:0:
260,232,38508,6,0,L|175:226,1,75.0000028610231,8|0,0:0|0:0,0:0:0:0:
332,216,38853,1,4,0:0:0:0:
114,170,39025,1,0,0:0:0:0:
290,319,39197,1,8,0:0:0:0:
202,135,39370,6,0,L|276:140,1,75.0000028610231
354,218,39715,1,0,0:0:0:0:
135,194,39887,1,8,0:0:0:0:
342,91,40059,1,0,0:0:0:0:
214,355,40232,5,4,0:0:0:0:
378,220,40404,1,0,0:0:0:0:
112,313,40577,1,8,0:0:0:0:
422,290,40749,2,0,P|457:220|437:163,1,112.500004291535
416,133,41094,6,2,L|434:110,4,18.7500007152558
383,98,41353,1,2,0:0:0:0:
342,91,41439,1,2,0:0:0:0:
301,100,41525,1,2,0:0:0:0:
273,130,41611,5,2,0:0:0:0:
378,220,41784,1,0,0:0:0:0:
131,215,41956,5,8,0:0:0:0:
372,120,42128,1,0,0:0:0:0:
198,308,42301,5,0,0:0:0:0:
256,36,42474,1,0,0:0:0:0:
377,299,42646,5,10,0:0:0:0:
362,286,42732,1,2,0:0:0:0:
349,273,42818,1,2,0:0:0:0:
489,369,42991,1,4,0:0:0:0:
261,317,43163,5,2,0:0:0:0:
247,305,43249,1,2,0:0:0:0:
234,292,43335,1,10,0:0:0:0:
349,273,43508,1,4,0:0:0:0:
127,169,43680,5,2,0:0:0:0:
145,175,43766,1,2,0:0:0:0:
163,180,43852,1,2,0:0:0:0:
315,40,44025,5,10,0:0:0:0:
297,46,44111,1,2,0:0:0:0:
279,51,44197,1,2,0:0:0:0:
179,186,44370,1,4,0:0:0:0:
264,57,44542,1,0,0:0:0:0:
225,280,44715,1,8,0:0:0:0:
116,92,44887,2,0,P|167:103|209:101,1,75.0000028610231
389,21,45232,6,8,B|361:61|372:104|372:104|405:138|391:185,1,150.000005722046,0|0,0:0|0:0,0:0:0:0:
458,63,45749,1,4,0:0:0:0:
308,174,45922,1,0,0:0:0:0:
471,277,46094,2,0,B|425:276|402:288|378:289,1,75.0000028610231,8|0,0:0|0:0,0:0:0:0:
241,341,46439,1,0,0:0:0:0:
298,193,46611,1,0,0:0:0:0:
248,360,46784,2,0,B|243:357|218:364|173:355,1,75.0000028610231,8|0,0:0|0:0,0:0:0:0:
46,121,47128,6,0,P|82:111|110:111,1,50,4|0,0:0|0:0,0:0:0:0:
180,300,47646,2,0,P|177:262|166:236,1,50,4|0,0:0|0:0,0:0:0:0:
88,199,47991,1,2,0:0:0:0:
88,199,48335,5,2,0:0:0:0:
345,210,48508,2,0,P|334:166|336:144,1,50,4|0,0:0|0:0,0:0:0:0:
156,266,49025,6,0,P|132:274|107:276,1,50,4|0,0:0|0:0,0:0:0:0:
236,311,49370,1,2,0:0:0:0:
236,311,49715,5,2,0:0:0:0:
24,161,49887,2,0,P|35:117|33:95,1,50,4|0,0:0|0:0,0:0:0:0:
213,217,50404,6,0,P|236:225|261:227,1,50,4|0,0:0|0:0,0:0:0:0:
100,244,50749,1,2,0:0:0:0:
100,244,51093,5,2,0:0:0:0:
270,78,51266,2,0,P|314:67|336:69,1,50,4|0,0:0|0:0,0:0:0:0:
306,189,51783,6,0,P|297:212|295:237,1,50,4|0,0:0|0:0,0:0:0:0:
270,78,52128,1,2,0:0:0:0:
229,151,52301,1,2,0:0:0:0:
189,224,52472,1,2,0:0:0:0:
149,297,52646,6,0,B|112:278|63:289|63:289|74:228|34:191|104:135,1,250,4|0,0:0|0:0,0:0:0:0:
146,212,53680,6,0,P|177:210|204:213,1,50
239,127,54025,2,0,P|270:129|297:126,1,50
331,211,54370,2,0,P|356:209|381:212,1,50
424,126,54715,2,0,P|455:128|482:125,1,50
430,322,55059,6,0,P|436:297|446:275,1,50
345,23,55404,2,0,P|352:47|362:69,1,50,4|0,0:0|0:0,0:0:0:0:
492,11,55749,1,2,0:0:0:0:
490,16,55922,1,2,0:0:0:0:
315,154,56094,1,2,0:0:0:0:
204,263,56611,6,0,B|241:275|246:311|286:320,1,100,4|0,0:0|0:0,0:0:0:0:
224,176,57128,1,2,0:0:0:0:
224,182,57301,1,2,0:0:0:0:
48,368,57473,1,2,0:0:0:0:
112,40,58163,5,8,0:0:0:0:
168,232,58335,1,0,0:0:0:0:
168,232,58422,1,0,0:0:0:0:
168,232,58508,1,8,0:0:0:0:
256,64,58680,1,0,0:0:0:0:
252,88,58766,1,0,0:0:0:0:
248,113,58852,1,8,0:0:0:0:
244,138,58938,1,0,0:0:0:0:
240,162,59025,1,0,0:0:0:0:
352,16,59197,5,8,0:0:0:0:
240,162,59370,1,0,0:0:0:0:
236,186,59456,1,0,0:0:0:0:
232,211,59542,1,8,0:0:0:0:
96,280,59715,1,0,0:0:0:0:
100,304,59801,1,0,0:0:0:0:
104,329,59887,1,8,0:0:0:0:
318,117,60059,5,0,0:0:0:0:
291,91,60145,1,0,0:0:0:0:
257,77,60232,1,8,0:0:0:0:
220,77,60317,1,0,0:0:0:0:
185,91,60403,1,0,0:0:0:0:
408,31,60577,1,8,0:0:0:0:
238,179,60749,1,0,0:0:0:0:
238,206,60835,2,0,L|238:226,2,12.5,0|0|8,0:0|0:0|0:0,0:0:0:0:
58,47,61094,5,0,0:0:0:0:
69,71,61180,1,0,0:0:0:0:
81,94,61266,1,8,0:0:0:0:
155,216,61439,1,0,0:0:0:0:
148,240,61525,1,0,0:0:0:0:
142,264,61611,1,8,0:0:0:0:
136,288,61697,1,0,0:0:0:0:
129,312,61783,1,0,0:0:0:0:
319,117,61956,5,8,0:0:0:0:
260,303,62128,1,0,0:0:0:0:
266,327,62214,1,0,0:0:0:0:
272,351,62300,1,8,0:0:0:0:
434,113,62473,1,0,0:0:0:0:
429,138,62559,1,0,0:0:0:0:
423,162,62645,1,8,0:0:0:0:
158,384,62818,5,0,0:0:0:0:
120,387,62904,1,0,0:0:0:0:
86,374,62991,1,8,0:0:0:0:
60,347,63076,1,0,0:0:0:0:
48,312,63162,1,0,0:0:0:0:
116,28,63335,1,8,0:0:0:0:
148,253,63508,1,0,0:0:0:0:
143,276,63594,2,0,L|138:298,2,12.5,0|0|8,0:0|0:0|0:0,0:0:0:0:
319,153,63853,5,8,0:0:0:0:
241,178,64025,1,8,0:0:0:0:
372,213,64197,5,8,0:0:0:0:
189,117,64370,1,8,0:0:0:0:
394,141,64542,5,8,0:0:0:0:
163,193,64714,1,8,0:0:0:0:
390,287,64887,5,8,0:0:0:0:
112,138,65059,1,8,0:0:0:0:
394,141,65232,5,8,0:0:0:0:
35,236,65404,1,8,0:0:0:0:
411,216,65577,5,8,0:0:0:0:
35,159,65749,1,8,0:0:0:0:
469,166,65922,5,8,0:0:0:0:
109,270,66094,1,8,0:0:0:0:
405,334,66266,5,8,0:0:0:0:
128,192,66439,1,8,0:0:0:0:
131,141,66525,1,8,0:0:0:0:
113,95,66611,1,8,0:0:0:0:
74,64,66697,1,8,0:0:0:0:
27,58,66783,5,8,0:0:0:0:
46,95,66870,1,8,0:0:0:0:
90,118,66956,1,8,0:0:0:0:
140,115,67042,1,8,0:0:0:0:
182,90,67128,1,8,0:0:0:0:
222,61,67214,1,8,0:0:0:0:
271,55,67300,1,8,0:0:0:0:
317,74,67386,1,8,0:0:0:0:
348,112,67473,1,8,0:0:0:0:
88,352,67646,1,12,0:0:0:0:
474,158,69197,6,0,B|424:143|377:169|377:169|325:197|272:177,1,200,4|8,0:0|0:0,0:0:0:0:
315,68,69715,1,0,0:0:0:0:
448,292,69887,1,0,0:0:0:0:
428,49,70059,1,0,0:0:0:0:
231,291,70232,1,10,0:0:0:0:
239,314,70318,1,2,0:0:0:0:
247,338,70404,1,2,0:0:0:0:
263,103,70577,5,0,0:0:0:0:
162,200,70749,1,2,0:0:0:0:
154,223,70835,1,2,0:0:0:0:
146,247,70922,1,10,0:0:0:0:
165,0,71094,1,0,0:0:0:0:
263,103,71266,1,2,0:0:0:0:
271,126,71352,1,2,0:0:0:0:
279,150,71438,1,2,0:0:0:0:
307,18,71611,6,0,P|263:9|229:11,1,50,12|0,0:0|0:0,0:0:0:0:
76,87,71784,2,0,P|120:96|154:94,1,50,4|0,0:0|0:0,0:0:0:0:
384,56,71956,5,0,0:0:0:0:
146,247,72128,1,0,0:0:0:0:
125,97,72301,5,8,0:0:0:0:
363,288,72473,1,0,0:0:0:0:
375,162,72646,5,0,0:0:0:0:
137,353,72818,1,0,0:0:0:0:
265,73,72991,5,8,0:0:0:0:
262,97,73077,1,0,0:0:0:0:
260,122,73163,1,0,0:0:0:0:
137,353,73335,6,0,B|113:365|81:346|81:306|119:277|165:308|165:308|218:348|308:356|348:317,1,300,4|0,0:0|0:0,0:0:0:0:
464,253,74025,1,8,0:0:0:0:
401,91,74197,6,0,L|390:169,1,50
311,337,74370,1,2,0:0:0:0:
268,342,74456,1,2,0:0:0:0:
226,336,74542,1,2,0:0:0:0:
186,321,74629,1,2,0:0:0:0:
149,300,74715,1,2,0:0:0:0:
290,4,74887,1,0,0:0:0:0:
323,345,75059,5,8,0:0:0:0:
194,86,75232,1,0,0:0:0:0:
191,384,75404,5,0,0:0:0:0:
329,138,75577,1,0,0:0:0:0:
246,263,75749,1,10,0:0:0:0:
246,238,75835,1,2,0:0:0:0:
246,213,75921,1,2,0:0:0:0:
402,50,76094,5,0,0:0:0:0:
137,195,76266,1,2,0:0:0:0:
137,171,76352,1,2,0:0:0:0:
137,146,76439,1,10,0:0:0:0:
220,19,76611,5,0,0:0:0:0:
329,138,76784,1,2,0:0:0:0:
329,113,76870,1,2,0:0:0:0:
329,88,76956,1,2,0:0:0:0:
113,279,77128,6,0,P|138:282|176:276,1,50,12|0,0:0|0:0,0:0:0:0:
329,138,77301,2,0,P|304:141|267:135,1,50,4|0,0:0|0:0,0:0:0:0:
89,54,77473,5,0,0:0:0:0:
369,254,77646,1,0,0:0:0:0:
330,34,77818,5,8,0:0:0:0:
113,279,77991,1,0,0:0:0:0:
216,95,78163,5,0,0:0:0:0:
372,384,78336,1,0,0:0:0:0:
512,159,78508,6,0,L|456:182,1,50,8|0,0:0|0:0,0:0:0:0:
222,285,78681,1,0,0:0:0:0:
330,34,78853,5,0,0:0:0:0:
306,328,79025,1,0,0:0:0:0:
274,365,79111,1,0,0:0:0:0:
226,376,79197,1,8,0:0:0:0:
145,197,79370,1,0,0:0:0:0:
113,159,79456,1,0,0:0:0:0:
65,148,79542,1,8,0:0:0:0:
0,384,79715,1,0,0:0:0:0:
105,72,79887,1,8,0:0:0:0:
486,157,80232,6,0,B|449:174|408:157|408:157|372:170|372:170|319:146|271:170,1,200,4|8,0:0|0:0,0:0:0:0:
446,67,80749,1,0,0:0:0:0:
321,257,80922,1,0,0:0:0:0:
486,157,81094,1,0,0:0:0:0:
292,161,81266,2,0,B|261:158|226:175|226:175|204:177|175:164,1,100,8|0,0:0|0:0,0:0:0:0:
0,88,81611,6,0,B|37:71|78:88|78:88|114:75|114:75|167:99|215:75,1,200,4|8,0:0|0:0,0:0:0:0:
350,0,82128,1,0,0:0:0:0:
251,266,82301,1,0,0:0:0:0:
477,290,82473,1,0,0:0:0:0:
214,193,82646,1,8,0:0:0:0:
430,11,82818,1,0,0:0:0:0:
296,242,82991,6,0,B|236:282|165:271|165:271|133:240|144:191,1,200,4|8,0:0|0:0,0:0:0:0:
181,58,83508,1,0,0:0:0:0:
366,188,83680,1,0,0:0:0:0:
214,193,83853,1,0,0:0:0:0:
221,181,83939,1,0,0:0:0:0:
227,171,84025,1,8,0:0:0:0:
307,0,84197,1,0,0:0:0:0:
131,165,84370,6,0,P|132:227|263:269,1,200,4|8,0:0|0:0,0:0:0:0:
307,0,84887,1,0,0:0:0:0:
48,87,85059,1,2,0:0:0:0:
49,111,85145,1,2,0:0:0:0:
51,136,85231,1,2,0:0:0:0:
53,161,85317,1,2,0:0:0:0:
54,186,85403,1,10,0:0:0:0:
0,2,85577,1,0,0:0:0:0:
212,196,85749,6,0,B|253:200|271:195|271:195|310:211|326:231|326:231|364:216|420:226,1,200,4|8,0:0|0:0,0:0:0:0:
476,19,86266,1,0,0:0:0:0:
212,196,86439,1,0,0:0:0:0:
341,126,86611,1,0,0:0:0:0:
353,133,86697,1,0,0:0:0:0:
363,139,86783,1,8,0:0:0:0:
258,35,86956,1,0,0:0:0:0:
399,223,87128,6,0,P|455:146|413:61,1,200,4|8,0:0|0:0,0:0:0:0:
57,104,87646,1,0,0:0:0:0:
211,309,87819,1,0,0:0:0:0:
194,71,87991,1,0,0:0:0:0:
189,84,88077,1,0,0:0:0:0:
185,95,88163,1,8,0:0:0:0:
96,323,88335,1,0,0:0:0:0:
467,253,88508,6,0,B|412:240|376:265|376:265|330:248|303:282|256:270,1,200,4|8,0:0|0:0,0:0:0:0:
180,110,89025,1,0,0:0:0:0:
434,347,89197,1,0,0:0:0:0:
434,23,89370,1,0,0:0:0:0:
206,322,89542,2,0,P|188:276|197:228,1,100,8|0,0:0|0:0,0:0:0:0:
424,32,89887,5,0,0:0:0:0:
314,181,90059,1,0,0:0:0:0:
316,156,90145,1,0,0:0:0:0:
319,131,90231,1,8,0:0:0:0:
421,299,90404,1,0,0:0:0:0:
373,83,90577,1,8,0:0:0:0:
353,67,90663,1,0,0:0:0:0:
329,59,90749,1,0,0:0:0:0:
304,59,90835,1,0,0:0:0:0:
281,67,90922,2,0,P|253:79|215:82,1,50,8|0,0:0|0:0,0:0:0:0:
83,157,91094,2,0,P|111:168|149:171,1,50,0|0,0:0|0:0,0:0:0:0:
316,156,91266,5,4,0:0:0:0:
448,200,91439,2,0,P|384:208|368:200,1,50
304,288,91784,1,0,0:0:0:0:
304,280,91956,2,0,P|240:272|224:280,1,50,0|0,0:0|0:0,0:0:0:0:
217,93,92301,1,0,0:0:0:0:
160,200,92646,6,0,P|96:208|80:200,1,50,0|0,0:0|0:0,0:0:0:0:
98,85,92991,1,0,0:0:0:0:
106,85,93163,1,0,0:0:0:0:
114,85,93335,2,0,P|122:149|114:165,1,50,0|0,0:0|0:0,0:0:0:0:
39,245,93680,2,0,P|31:309|39:325,1,50
188,304,94025,5,0,0:0:0:0:
50,241,94197,1,0,0:0:0:0:
198,317,94370,1,0,0:0:0:0:
180,108,94542,1,0,0:0:0:0:
339,216,94887,5,0,0:0:0:0:
136,234,95059,1,0,0:0:0:0:
300,121,95232,1,0,0:0:0:0:
291,342,95404,1,0,0:0:0:0:
205,64,95577,1,0,0:0:0:0:
286,326,95749,5,0,0:0:0:0:
135,214,95921,1,0,0:0:0:0:
302,99,96094,1,0,0:0:0:0:
229,30,96266,1,2,0:0:0:0:
205,64,96352,1,2,0:0:0:0:
199,105,96438,1,2,0:0:0:0:
209,144,96524,1,2,0:0:0:0:
232,178,96611,1,2,0:0:0:0:
238,219,96697,1,2,0:0:0:0:
228,258,96784,5,4,0:0:0:0:
468,194,96956,1,0,0:0:0:0:
117,166,97128,5,8,0:0:0:0:
357,230,97301,1,0,0:0:0:0:
3,262,97473,5,0,0:0:0:0:
243,198,97646,1,0,0:0:0:0:
74,98,97818,5,10,0:0:0:0:
67,122,97904,1,2,0:0:0:0:
60,146,97990,1,2,0:0:0:0:
199,22,98163,1,0,0:0:0:0:
236,219,98335,5,2,0:0:0:0:
229,243,98421,1,2,0:0:0:0:
222,267,98507,1,10,0:0:0:0:
361,143,98680,1,0,0:0:0:0:
138,304,98853,5,2,0:0:0:0:
153,322,98939,1,2,0:0:0:0:
169,342,99025,1,2,0:0:0:0:
361,143,99197,1,10,0:0:0:0:
346,161,99283,1,2,0:0:0:0:
330,181,99369,1,2,0:0:0:0:
243,14,99542,6,0,B|282:67|327:65|327:65|364:53|398:59|420:85,1,200,4|8,0:0|0:0,0:0:0:0:
447,298,100059,1,0,0:0:0:0:
361,143,100232,1,0,0:0:0:0:
450,312,100404,6,0,B|401:355|337:350,1,100,0|8,0:0|0:0,0:0:0:0:
326,345,100663,1,0,0:0:0:0:
296,340,100749,1,0,0:0:0:0:
127,242,100922,1,0,0:0:0:0:
373,256,101094,1,0,0:0:0:0:
162,330,101266,1,8,0:0:0:0:
162,87,101439,2,0,B|203:99|245:85|245:85|278:99|278:99|315:81|367:91,1,200,4|0,0:0|0:0,0:0:0:0:
0,0,101956,1,8,0:0:0:0:
20,285,102301,6,0,B|60:268|60:268|97:297|154:279,1,112.500004291535,4|0,0:0|0:0,0:0:0:0:
126,279,102646,1,2,0:0:0:0:
137,142,102818,1,2,0:0:0:0:
130,159,102904,1,2,0:0:0:0:
123,176,102991,1,2,0:0:0:0:
72,74,103163,1,2,0:0:0:0:
217,234,103335,6,0,P|223:299|208:335,1,75.0000028610231,8|0,0:0|0:0,0:0:0:0:
250,136,103680,2,0,P|296:181|308:219,1,75.0000028610231,8|2,0:0|0:0,0:0:0:0:
313,268,103939,1,2,0:0:0:0:
313,268,104025,1,2,0:0:0:0:
170,145,104197,5,2,0:0:0:0:
167,108,104283,1,2,0:0:0:0:
184,74,104370,1,2,0:0:0:0:
215,54,104455,1,2,0:0:0:0:
252,52,104541,1,2,0:0:0:0:
397,181,104715,6,0,P|391:111|399:84,1,75.0000028610231,8|0,0:0|0:0,0:0:0:0:
362,271,105059,2,0,P|312:221|301:195,1,75.0000028610231,8|2,0:0|0:0,0:0:0:0:
290,136,105318,1,2,0:0:0:0:
290,136,105404,1,2,0:0:0:0:
453,263,105577,5,2,0:0:0:0:
448,299,105663,1,2,0:0:0:0:
429,330,105749,1,2,0:0:0:0:
398,352,105835,1,2,0:0:0:0:
362,359,105921,1,2,0:0:0:0:
83,345,106094,6,0,L|169:354,1,75.0000028610231,8|0,0:0|0:0,0:0:0:0:
362,271,106439,2,0,L|276:280,1,75.0000028610231,8|2,0:0|0:0,0:0:0:0:
200,264,106697,1,2,0:0:0:0:
200,264,106784,1,2,0:0:0:0:
416,208,106956,1,2,0:0:0:0:
336,368,107128,1,2,0:0:0:0:
272,200,107301,1,2,0:0:0:0:
402,73,107473,6,0,P|354:68|320:74,1,75.0000028610231,8|0,0:0|0:0,0:0:0:0:
91,140,107818,2,0,P|139:145|173:139,1,75.0000028610231,8|2,0:0|0:0,0:0:0:0:
247,106,108077,1,2,0:0:0:0:
247,106,108163,1,2,0:0:0:0:
495,211,108335,5,2,0:0:0:0:
500,247,108421,1,2,0:0:0:0:
489,283,108507,1,2,0:0:0:0:
463,309,108593,1,2,0:0:0:0:
427,320,108679,1,2,0:0:0:0:
392,166,108853,6,0,P|414:211|418:253,1,75.0000028610231,8|0,0:0|0:0,0:0:0:0:
265,88,109197,2,0,P|243:133|239:175,1,75.0000028610231,8|2,0:0|0:0,0:0:0:0:
240,249,109456,1,2,0:0:0:0:
240,249,109542,1,2,0:0:0:0:
346,57,109715,5,2,0:0:0:0:
322,28,109801,1,2,0:0:0:0:
289,10,109887,1,2,0:0:0:0:
252,5,109973,1,2,0:0:0:0:
216,15,110059,1,2,0:0:0:0:
159,173,110232,6,0,P|137:218|133:260,1,75.0000028610231,8|0,0:0|0:0,0:0:0:0:
265,88,110577,2,0,P|287:133|291:175,1,75.0000028610231,8|2,0:0|0:0,0:0:0:0:
280,236,110835,1,2,0:0:0:0:
280,236,110922,1,2,0:0:0:0:
192,96,111094,1,2,0:0:0:0:
400,144,111266,1,2,0:0:0:0:
133,242,111439,1,2,0:0:0:0:
218,29,111611,1,2,0:0:0:0:
280,236,111784,6,0,B|251:246|218:236|218:236|187:246|187:246|154:237|108:245,1,150.000005722046,8|0,0:0|0:0,0:0:0:0:
221,40,112301,1,2,0:0:0:0:
280,236,112473,1,2,0:0:0:0:
179,114,112646,2,0,B|222:134|256:117|256:117|281:127|281:127|316:117|348:128,1,150.000005722046,8|0,0:0|0:0,0:0:0:0:
475,35,113335,6,0,P|501:35|539:24,3,50,8|0|0|0,0:0|0:0|0:0|0:0,0:0:0:0:
482,129,113680,1,8,0:0:0:0:
452,169,113766,1,0,0:0:0:0:
411,197,113852,1,0,0:0:0:0:
363,210,113938,1,0,0:0:0:0:
314,207,114025,2,0,P|327:229|355:256,3,50,8|0|0|0,0:0|0:0|0:0|0:0,0:0:0:0:
244,261,114370,5,8,0:0:0:0:
197,235,114456,1,0,0:0:0:0:
148,229,114542,1,0,0:0:0:0:
100,237,114628,1,0,0:0:0:0:
58,263,114715,2,0,P|59:236|72:200,3,50,8|0|0|0,0:0|0:0|0:0|0:0,0:0:0:0:
29,135,115059,5,8,0:0:0:0:
51,91,115145,1,0,0:0:0:0:
91,62,115231,1,0,0:0:0:0:
140,53,115317,1,0,0:0:0:0:
187,67,115404,2,0,P|209:53|231:25,3,50,8|0|0|0,0:0|0:0|0:0|0:0,0:0:0:0:
282,118,115749,5,8,0:0:0:0:
309,159,115835,1,0,0:0:0:0:
352,183,115921,1,0,0:0:0:0:
401,187,116007,1,0,0:0:0:0:
447,168,116094,2,0,P|469:180|494:205,3,50,8|0|0|0,0:0|0:0|0:0|0:0,0:0:0:0:
420,275,116439,5,8,0:0:0:0:
393,316,116525,1,0,0:0:0:0:
350,340,116611,1,0,0:0:0:0:
301,344,116697,1,0,0:0:0:0:
255,325,116784,2,0,P|232:337|207:362,3,50,8|0|0|0,0:0|0:0|0:0|0:0,0:0:0:0:
186,253,117128,5,8,0:0:0:0:
145,226,117214,1,0,0:0:0:0:
121,183,117300,1,0,0:0:0:0:
117,134,117386,1,0,0:0:0:0:
136,88,117473,2,0,P|123:65|98:40,3,50,8|0|0|0,0:0|0:0|0:0|0:0,0:0:0:0:
228,41,117818,5,8,0:0:0:0:
276,36,117904,1,0,0:0:0:0:
319,61,117990,1,0,0:0:0:0:
338,107,118076,1,0,0:0:0:0:
333,156,118163,1,8,0:0:0:0:
314,203,118249,1,0,0:0:0:0:
333,249,118335,1,0,0:0:0:0:
376,274,118421,1,0,0:0:0:0:
425,270,118508,1,8,0:0:0:0:
468,245,118594,1,0,0:0:0:0:
487,199,118680,1,0,0:0:0:0:
464,154,118767,1,0,0:0:0:0:
463,104,118853,5,8,0:0:0:0:
333,249,119025,1,8,0:0:0:0:
487,199,119197,5,8,0:0:0:0:
222,187,119370,1,8,0:0:0:0:
442,112,119542,5,8,0:0:0:0:
187,258,119715,1,8,0:0:0:0:
456,287,119887,5,8,0:0:0:0:
142,150,120059,1,8,0:0:0:0:
413,123,120232,5,8,0:0:0:0:
108,270,120404,1,8,0:0:0:0:
423,215,120576,5,8,0:0:0:0:
72,196,120749,1,8,0:0:0:0:
389,138,120922,5,8,0:0:0:0:
24,262,121094,1,8,0:0:0:0:
409,310,121266,5,8,0:0:0:0:
70,122,121439,1,8,0:0:0:0:
272,360,121611,5,2,0:0:0:0:
213,65,121956,1,2,0:0:0:0:
434,269,122301,1,2,0:0:0:0:
134,250,122646,5,2,0:0:0:0:
453,78,122818,1,2,0:0:0:0:
46,146,124370,6,0,B|86:137|112:114|112:114|158:104|205:138,1,150,4|0,0:0|0:0,0:0:0:0:
144,240,124715,2,0,L|139:159,1,50,8|0,0:0|0:0,0:0:0:0:
41,356,124887,2,0,L|46:275,1,50,8|0,0:0|0:0,0:0:0:0:
226,59,125059,6,0,B|254:71|273:96|273:96|263:150|233:181,1,150,4|0,0:0|0:0,0:0:0:0:
302,248,125404,2,0,L|297:329,1,50,8|0,0:0|0:0,0:0:0:0:
372,122,125577,2,0,L|377:203,1,50,8|0,0:0|0:0,0:0:0:0:
436,37,125749,6,0,P|374:8|289:46,1,150,4|0,0:0|0:0,0:0:0:0:
195,150,126094,2,0,L|276:155,1,50,8|0,0:0|0:0,0:0:0:0:
55,72,126266,2,0,L|136:67,1,50,8|0,0:0|0:0,0:0:0:0:
364,100,126439,2,0,B|372:138|366:164|366:164|388:185|388:185|379:226|385:264,1,150,4|0,0:0|0:0,0:0:0:0:
204,348,126784,6,0,P|291:345|260:243,1,187.5,4|0,0:0|0:0,0:0:0:0:
184,126,127128,6,0,B|221:166|224:204|224:204|197:245|208:275,1,150,4|0,0:0|0:0,0:0:0:0:
341,268,127473,2,0,L|268:258,1,50,8|0,0:0|0:0,0:0:0:0:
55,157,127646,2,0,L|128:147,1,50,8|0,0:0|0:0,0:0:0:0:
444,175,127818,6,0,B|402:136|364:133|364:133|331:162|291:148,1,150,4|0,0:0|0:0,0:0:0:0:
280,14,128163,2,0,L|300:78,1,50,8|0,0:0|0:0,0:0:0:0:
359,278,128335,2,0,L|379:214,1,50,8|0,0:0|0:0,0:0:0:0:
475,83,128508,5,2,0:0:0:0:
393,117,128622,5,2,0:0:0:0:
311,152,128737,5,2,0:0:0:0:
229,187,128852,5,2,0:0:0:0:
151,45,129082,5,2,0:0:0:0:
151,45,129197,6,0,P|107:132|173:142,1,187.5,12|0,0:0|0:0,0:0:0:0:
307,104,129542,1,2,0:0:0:0:
272,113,129628,1,2,0:0:0:0:
235,125,129714,1,2,0:0:0:0:
199,136,129800,1,2,0:0:0:0:
164,147,129887,6,0,B|186:211|183:260|183:260|139:257|123:210,1,150,4|0,0:0|0:0,0:0:0:0:
27,179,130232,2,0,L|93:188,1,50,8|0,0:0|0:0,0:0:0:0:
260,266,130404,2,0,L|326:257,1,50,8|0,0:0|0:0,0:0:0:0:
473,152,130577,6,0,B|498:200|484:231|484:231|453:262|472:317,1,150,4|0,0:0|0:0,0:0:0:0:
309,182,130922,2,0,L|375:191,1,50,8|0,0:0|0:0,0:0:0:0:
154,86,131094,2,0,L|220:77,1,50,8|0,0:0|0:0,0:0:0:0:
128,73,131439,6,0,L|194:64,1,50,8|0,0:0|0:0,0:0:0:0:
364,164,131611,2,0,L|298:155,1,50,8|0,0:0|0:0,0:0:0:0:
128,255,131784,2,0,L|194:246,1,50,8|0,0:0|0:0,0:0:0:0:
397,351,131956,2,0,B|387:324|412:285|412:285|462:273|459:193,1,150,4|0,0:0|0:0,0:0:0:0:
378,54,132301,6,0,P|456:54|400:136,1,187.5,4|0,0:0|0:0,0:0:0:0:
190,126,132646,6,4,B|218:144|262:133|262:133|300:150|300:150|329:144|361:148,1,150,4|0,0:0|0:0,0:0:0:0:
214,48,132991,1,2,0:0:0:0:
214,48,133163,2,0,P|161:49|134:60,1,50,8|0,0:0|0:0,0:0:0:0:
65,160,133335,6,0,B|55:187|80:226|80:226|129:245|127:318,1,150,4|0,0:0|0:0,0:0:0:0:
0,310,133680,2,0,L|49:298,1,50,8|0,0:0|0:0,0:0:0:0:
140,170,133853,2,0,L|203:182,1,50,8|0,0:0|0:0,0:0:0:0:
491,161,134197,5,2,0:0:0:0:
480,183,134283,1,2,0:0:0:0:
470,206,134369,1,2,0:0:0:0:
240,73,134715,5,2,0:0:0:0:
251,95,134801,1,2,0:0:0:0:
261,118,134887,1,2,0:0:0:0:
491,161,135059,1,2,0:0:0:0:
480,183,135145,1,2,0:0:0:0:
470,206,135231,1,2,0:0:0:0:
61,313,135404,6,0,B|123:297|163:345|163:345|196:353|250:318,1,187.5,4|0,0:0|0:0,0:0:0:0:
470,206,135749,2,0,P|411:179|370:188,1,62.5,8|0,0:0|0:0,0:0:0:0:
245,228,135922,2,0,P|186:254|145:246,1,62.5,8|0,0:0|0:0,0:0:0:0:
1,187,136094,6,0,B|63:203|103:155|103:155|136:147|190:182,1,187.5,4|0,0:0|0:0,0:0:0:0:
376,96,136439,2,0,P|317:122|276:113,1,62.5,8|0,0:0|0:0,0:0:0:0:
134,73,136611,2,0,P|69:66|33:86,1,62.5,8|0,0:0|0:0,0:0:0:0:
133,241,136784,6,0,B|210:259|210:259|272:216|257:150,1,187.5,4|0,0:0|0:0,0:0:0:0:
213,36,137128,2,0,P|209:66|218:96,1,62.5,8|0,0:0|0:0,0:0:0:0:
337,187,137301,2,0,P|340:217|331:247,1,62.5,8|0,0:0|0:0,0:0:0:0:
213,338,137473,1,4,0:0:0:0:
213,338,137559,2,0,L|73:306,1,125,0|0,0:0|0:0,0:0:0:0:
122,167,137818,6,0,P|10:170|66:264,1,225.000008583069,4|0,0:0|0:0,0:0:0:0:
191,130,138163,6,0,B|229:142|272:127|272:127|314:153|314:153|345:138|394:150,1,187.5,4|0,0:0|0:0,0:0:0:0:
374,282,138508,2,0,L|352:214,1,62.5,8|0,0:0|0:0,0:0:0:0:
206,0,138680,2,0,L|228:68,1,62.5,8|0,0:0|0:0,0:0:0:0:
257,216,138853,6,0,B|219:228|176:213|176:213|134:239|134:239|103:224|54:236,1,187.5,4|0,0:0|0:0,0:0:0:0:
221,133,139197,2,0,P|265:136|298:145,1,62.5,8|0,0:0|0:0,0:0:0:0:
436,222,139370,2,0,P|480:219|513:210,1,62.5,8|0,0:0|0:0,0:0:0:0:
348,83,139542,5,2,0:0:0:0:
356,165,139656,5,2,0:0:0:0:
365,248,139771,5,2,0:0:0:0:
373,331,139886,5,2,0:0:0:0:
421,28,140117,5,2,0:0:0:0:
421,28,140232,6,0,P|332:-5|256:62,1,187.5,12|0,0:0|0:0,0:0:0:0:
187,217,140577,6,0,P|259:239|242:127,1,225.000008583069,4|0,0:0|0:0,0:0:0:0:
129,38,140922,6,0,B|130:83|112:112|112:112|120:152|120:152|97:182|96:224,1,187.5,4|0,0:0|0:0,0:0:0:0:
171,321,141266,2,0,P|199:333|229:341,1,62.5,8|0,0:0|0:0,0:0:0:0:
339,271,141439,2,0,P|367:258|398:252,1,62.5,8|0,0:0|0:0,0:0:0:0:
503,184,141611,6,0,B|471:137|419:131|419:131|375:162|326:140,1,187.5,4|0,0:0|0:0,0:0:0:0:
50,27,141956,2,0,P|74:41|114:45,1,62.5,8|0,0:0|0:0,0:0:0:0:
278,192,142128,2,0,P|254:206|214:210,1,62.5,8|0,0:0|0:0,0:0:0:0:
273,212,142473,6,0,P|249:226|209:230,1,62.5,8|0,0:0|0:0,0:0:0:0:
41,47,142646,2,0,P|65:61|105:65,1,62.5,8|0,0:0|0:0,0:0:0:0:
287,68,142818,2,0,P|301:92|305:132,1,62.5,8|0,0:0|0:0,0:0:0:0:
127,244,142991,2,0,B|111:296|141:349|141:349|183:307|227:329,1,187.5,4|0,0:0|0:0,0:0:0:0:
365,370,143335,6,0,P|384:265|296:285,1,225.000008583069,4|0,0:0|0:0,0:0:0:0:
214,230,143680,6,0,B|214:194|248:152|248:152|297:124|291:56,1,187.5,4|0,0:0|0:0,0:0:0:0:
116,56,144025,2,0,L|185:68,1,62.5,8|0,0:0|0:0,0:0:0:0:
350,176,144197,2,0,L|419:164,1,62.5,8|0,0:0|0:0,0:0:0:0:
132,217,144370,6,0,B|126:273|175:301|175:301|209:343|208:380,1,187.5,4|0,0:0|0:0,0:0:0:0:
64,371,144715,2,0,L|131:362,1,62.5,8|0,0:0|0:0,0:0:0:0:
313,263,144887,2,0,L|380:272,1,62.5,8|0,0:0|0:0,0:0:0:0:
480,170,145059,5,10,0:0:0:0:
444,135,145145,1,2,0:0:0:0:
397,121,145231,1,2,0:0:0:0:
348,130,145317,1,2,0:0:0:0:
310,161,145404,1,2,0:0:0:0:
272,192,145491,1,2,0:0:0:0:
223,201,145577,1,2,0:0:0:0:
176,187,145663,1,2,0:0:0:0:
141,153,145749,1,10,0:0:0:0:
253,0,145922,1,0,0:0:0:0:
282,320,146094,1,0,0:0:0:0:
480,170,146439,6,0,P|424:186|360:178,1,100,4|0,0:0|0:0,0:0:0:0:
425,56,146784,1,2,0:0:0:0:
382,184,146956,1,0,0:0:0:0:
505,34,147128,1,2,0:0:0:0:
308,201,147301,1,0,0:0:0:0:
346,33,147473,1,2,0:0:0:0:
349,57,147559,1,2,0:0:0:0:
352,82,147645,1,2,0:0:0:0:
307,279,147818,1,0,0:0:0:0:
204,108,147991,5,2,0:0:0:0:
201,132,148077,1,2,0:0:0:0:
198,155,148163,1,2,0:0:0:0:
243,354,148335,1,0,0:0:0:0:
221,27,148508,5,2,0:0:0:0:
197,30,148594,1,2,0:0:0:0:
172,33,148680,1,2,0:0:0:0:
34,126,148853,1,2,0:0:0:0:
58,129,148939,1,2,0:0:0:0:
86,132,149025,2,0,L|135:140,1,50,4|0,0:0|0:0,0:0:0:0:
348,194,149197,5,2,0:0:0:0:
180,245,149370,1,0,0:0:0:0:
320,239,149542,5,2,0:0:0:0:
148,196,149715,1,0,0:0:0:0:
273,263,149887,5,2,0:0:0:0:
135,140,150060,1,0,0:0:0:0:
309,65,150232,5,2,0:0:0:0:
306,89,150318,1,2,0:0:0:0:
304,114,150404,1,2,0:0:0:0:
273,263,150577,5,0,0:0:0:0:
79,189,151094,1,0,0:0:0:0:
252,47,151439,5,0,0:0:0:0:
214,209,151611,1,2,0:0:0:0:
172,82,151784,1,0,0:0:0:0:
268,273,151956,5,2,0:0:0:0:
99,131,152128,1,0,0:0:0:0:
336,222,152301,5,2,0:0:0:0:
48,206,152473,1,0,0:0:0:0:
316,149,152646,5,2,0:0:0:0:
28,286,152818,1,0,0:0:0:0:
250,107,152991,1,2,0:0:0:0:
268,90,153077,1,2,0:0:0:0:
288,75,153163,1,2,0:0:0:0:
48,271,153335,5,0,0:0:0:0:
268,90,153508,1,2,0:0:0:0:
288,75,153594,1,2,0:0:0:0:
306,58,153680,1,2,0:0:0:0:
68,255,153853,5,0,0:0:0:0:
288,75,154025,1,2,0:0:0:0:
306,58,154111,1,2,0:0:0:0:
326,43,154197,1,2,0:0:0:0:
68,255,154370,1,2,0:0:0:0:
48,271,154456,1,2,0:0:0:0:
28,286,154542,1,2,0:0:0:0:
201,316,154715,1,2,0:0:0:0:
138,138,154887,1,0,0:0:0:0:
195,297,155059,5,2,0:0:0:0:
77,69,155232,2,0,P|130:52|180:57,1,100,0|2,0:0|0:0,0:0:0:0:
375,147,155577,1,0,0:0:0:0:
158,223,155749,1,2,0:0:0:0:
257,37,155922,1,0,0:0:0:0:
316,219,156094,6,0,P|369:236|419:231,1,100,4|0,0:0|0:0,0:0:0:0:
508,6,156439,1,0,0:0:0:0:
257,37,156611,2,0,B|259:84|240:119|240:119|247:161|247:161|224:200|225:245,1,200,4|0,0:0|0:0,0:0:0:0:
0,384,157473,5,8,0:0:0:0:
163,171,157646,1,0,0:0:0:0:
163,171,157732,1,0,0:0:0:0:
163,171,157818,1,8,0:0:0:0:
21,5,157991,1,0,0:0:0:0:
24,42,158077,1,0,0:0:0:0:
27,79,158163,1,8,0:0:0:0:
31,117,158249,1,0,0:0:0:0:
34,154,158335,1,0,0:0:0:0:
179,333,158508,5,8,0:0:0:0:
143,85,158680,1,0,0:0:0:0:
0,384,158853,1,8,0:0:0:0:
228,235,159025,1,0,0:0:0:0:
236,211,159111,1,0,0:0:0:0:
245,188,159197,1,8,0:0:0:0:
367,291,159370,5,0,0:0:0:0:
104,136,159542,1,8,0:0:0:0:
128,128,159628,1,0,0:0:0:0:
151,119,159714,1,0,0:0:0:0:
325,50,159887,1,8,0:0:0:0:
301,42,159973,1,0,0:0:0:0:
277,34,160059,2,0,P|252:31|221:32,1,50,0|0,0:0|0:0,0:0:0:0:
104,136,160232,5,8,0:0:0:0:
158,306,160404,1,0,0:0:0:0:
152,67,160577,5,8,0:0:0:0:
114,241,160749,1,0,0:0:0:0:
228,32,160922,5,8,0:0:0:0:
108,164,161094,1,0,0:0:0:0:
347,168,161266,5,8,0:0:0:0:
358,190,161352,1,0,0:0:0:0:
369,212,161438,1,0,0:0:0:0:
199,266,161611,5,8,0:0:0:0:
369,212,161783,1,0,0:0:0:0:
130,217,161956,5,8,0:0:0:0:
303,254,162128,1,0,0:0:0:0:
82,144,162301,6,0,B|107:109|148:109|148:109|146:131|141:150,1,100,8|0,0:0|0:0,0:0:0:0:
355,56,162646,1,8,0:0:0:0:
318,46,162732,1,0,0:0:0:0:
281,45,162818,1,8,0:0:0:0:
244,52,162904,1,0,0:0:0:0:
210,68,162991,1,8,0:0:0:0:
1,218,163163,2,0,L|76:221,1,50,8|0,0:0|0:0,0:0:0:0:
307,225,163335,1,8,0:0:0:0:
210,68,163508,2,0,L|208:136,1,50,8|0,0:0|0:0,0:0:0:0:
203,374,163680,1,8,0:0:0:0:
318,46,163853,5,8,0:0:0:0:
129,317,164025,1,8,0:0:0:0:
422,196,164197,1,8,0:0:0:0:
210,134,164370,6,8,P|148:109|126:85,2,66.6666666666667,8|8|8,0:0|0:0|0:0,0:0:0:0:
69,259,164715,6,8,P|7:284|-15:308,2,66.6666666666667,8|8|8,0:0|0:0|0:0,0:0:0:0:
56,99,165059,6,8,P|81:37|105:15,2,66.6666666666667,8|8|8,0:0|0:0|0:0,0:0:0:0:
176,253,165404,6,8,P|151:315|127:337,2,66.6666666666667
256,192,165749,12,0,168163,0:0:0:0:
38,158,168508,6,0,B|89:145|124:191|124:191|157:204|200:202|234:173,1,200,4|8,0:0|0:0,0:0:0:0:
267,78,169026,1,0,0:0:0:0:
280,288,169197,1,8,0:0:0:0:
326,12,169370,1,0,0:0:0:0:
56,248,169543,1,10,0:0:0:0:
64,271,169629,1,2,0:0:0:0:
72,295,169715,1,2,0:0:0:0:
420,40,169887,5,8,0:0:0:0:
188,184,170060,1,2,0:0:0:0:
180,207,170146,1,2,0:0:0:0:
173,226,170232,1,10,0:0:0:0:
388,0,170405,1,0,0:0:0:0:
275,101,170577,1,10,0:0:0:0:
283,125,170663,1,2,0:0:0:0:
291,148,170749,1,2,0:0:0:0:
246,18,170922,6,0,P|290:9|324:11,1,50,12|0,0:0|0:0,0:0:0:0:
454,154,171095,2,0,P|410:163|376:161,1,50,4|0,0:0|0:0,0:0:0:0:
169,56,171266,5,8,0:0:0:0:
415,243,171439,1,0,0:0:0:0:
58,179,171611,5,8,0:0:0:0:
364,137,171783,1,0,0:0:0:0:
66,344,171956,5,8,0:0:0:0:
253,98,172128,1,0,0:0:0:0:
239,384,172301,1,8,0:0:0:0:
230,360,172387,1,0,0:0:0:0:
222,336,172473,1,0,0:0:0:0:
182,51,172646,1,8,0:0:0:0:
220,20,172732,1,0,0:0:0:0:
269,15,172818,1,0,0:0:0:0:
423,116,172991,1,8,0:0:0:0:
472,113,173077,1,0,0:0:0:0:
512,86,173163,1,0,0:0:0:0:
95,0,173335,5,8,0:0:0:0:
74,45,173421,1,0,0:0:0:0:
80,94,173507,1,0,0:0:0:0:
111,132,173593,1,0,0:0:0:0:
157,150,173679,1,8,0:0:0:0:
177,195,173766,1,0,0:0:0:0:
171,244,173852,1,0,0:0:0:0:
140,282,173938,1,0,0:0:0:0:
94,300,174025,6,0,P|37:293|27:286,1,50,12|0,0:0|0:0,0:0:0:0:
184,79,174197,1,0,0:0:0:0:
232,325,174370,5,8,0:0:0:0:
74,45,174542,1,0,0:0:0:0:
140,374,174715,5,8,0:0:0:0:
277,45,174887,1,0,0:0:0:0:
79,223,175059,5,10,0:0:0:0:
103,223,175145,1,2,0:0:0:0:
128,224,175231,1,2,0:0:0:0:
358,123,175404,1,8,0:0:0:0:
197,164,175577,5,2,0:0:0:0:
221,164,175663,1,2,0:0:0:0:
246,163,175749,1,10,0:0:0:0:
476,264,175922,1,0,0:0:0:0:
419,65,176094,1,10,0:0:0:0:
375,42,176180,1,2,0:0:0:0:
325,44,176266,1,2,0:0:0:0:
280,238,176439,6,0,P|317:201|322:172,1,50,12|0,0:0|0:0,0:0:0:0:
152,87,176611,2,0,P|118:123|113:152,1,50,4|0,0:0|0:0,0:0:0:0:
118,306,176784,5,8,0:0:0:0:
448,200,176956,1,0,0:0:0:0:
33,226,177128,5,8,0:0:0:0:
363,332,177300,1,0,0:0:0:0:
126,158,177473,5,8,0:0:0:0:
456,52,177645,1,0,0:0:0:0:
49,62,177818,5,8,0:0:0:0:
45,86,177904,1,0,0:0:0:0:
41,111,177990,1,0,0:0:0:0:
11,384,178163,1,8,0:0:0:0:
184,238,178335,5,0,0:0:0:0:
231,225,178421,1,0,0:0:0:0:
279,237,178508,1,8,0:0:0:0:
410,371,178680,1,0,0:0:0:0:
457,383,178766,1,0,0:0:0:0:
505,371,178853,1,8,0:0:0:0:
512,0,179025,1,0,0:0:0:0:
228,316,179197,1,8,0:0:0:0:
0,112,179542,6,0,B|37:129|78:112|78:112|114:125|114:125|167:101|215:125,1,200,4|8,0:0|0:0,0:0:0:0:
40,22,180059,1,0,0:0:0:0:
165,212,180232,1,0,0:0:0:0:
0,112,180404,1,0,0:0:0:0:
256,56,180577,2,0,P|272:112|264:152,1,100,8|0,0:0|0:0,0:0:0:0:
74,205,180922,6,0,P|58:261|170:325,1,200,4|8,0:0|0:0,0:0:0:0:
251,66,181439,1,0,0:0:0:0:
139,249,181611,1,2,0:0:0:0:
163,244,181697,1,2,0:0:0:0:
188,243,181783,1,2,0:0:0:0:
304,333,181956,1,10,0:0:0:0:
328,338,182042,1,2,0:0:0:0:
353,339,182128,1,2,0:0:0:0:
443,38,182301,5,8,0:0:0:0:
338,250,182473,1,0,0:0:0:0:
262,107,182646,5,8,0:0:0:0:
367,319,182818,1,0,0:0:0:0:
434,170,182991,5,8,0:0:0:0:
329,384,183163,1,0,0:0:0:0:
312,33,183335,5,10,0:0:0:0:
264,20,183421,1,2,0:0:0:0:
216,32,183507,1,2,0:0:0:0:
118,157,183680,1,2,0:0:0:0:
72,168,183766,1,2,0:0:0:0:
23,157,183852,1,2,0:0:0:0:
252,127,184025,5,10,0:0:0:0:
264,175,184111,1,2,0:0:0:0:
252,222,184197,1,2,0:0:0:0:
129,384,184370,1,2,0:0:0:0:
116,336,184456,1,2,0:0:0:0:
128,288,184542,1,2,0:0:0:0:
338,129,184715,1,10,0:0:0:0:
386,117,184801,1,2,0:0:0:0:
434,130,184887,1,2,0:0:0:0:
385,361,185059,6,0,B|351:343|308:352|308:352|275:335|275:335|233:354|186:332,1,200,4|8,0:0|0:0,0:0:0:0:
434,130,185577,1,0,0:0:0:0:
385,361,185749,1,0,0:0:0:0:
389,42,185922,1,0,0:0:0:0:
333,274,186094,1,10,0:0:0:0:
313,257,186180,1,2,0:0:0:0:
294,241,186266,1,2,0:0:0:0:
384,48,186439,5,4,0:0:0:0:
198,251,186611,1,2,0:0:0:0:
189,226,186697,1,2,0:0:0:0:
180,202,186783,1,10,0:0:0:0:
377,55,186956,5,0,0:0:0:0:
92,163,187129,1,2,0:0:0:0:
97,137,187215,1,2,0:0:0:0:
101,112,187301,1,2,0:0:0:0:
372,68,187473,1,10,0:0:0:0:
376,93,187559,1,2,0:0:0:0:
381,119,187645,1,2,0:0:0:0:
50,239,187818,6,0,B|105:252|141:227|141:227|187:244|216:208|261:222,1,200,4|8,0:0|0:0,0:0:0:0:
166,138,188335,1,0,0:0:0:0:
92,351,188508,1,0,0:0:0:0:
38,45,188680,1,0,0:0:0:0:
309,273,188853,2,0,P|327:227|318:179,1,100,8|0,0:0|0:0,0:0:0:0:
250,33,189197,1,0,0:0:0:0:
256,192,189284,12,0,190232,0:0:0:0:
261,46,190577,5,0,0:0:0:0:
80,228,190749,1,0,0:0:0:0:
130,99,190922,5,8,0:0:0:0:
311,281,191094,1,0,0:0:0:0:
261,152,191267,5,0,0:0:0:0:
80,334,191439,1,0,0:0:0:0:
111,75,191611,5,10,0:0:0:0:
108,99,191697,1,2,0:0:0:0:
106,124,191783,1,2,0:0:0:0:
231,21,191956,1,0,0:0:0:0:
344,190,192128,5,2,0:0:0:0:
346,214,192214,1,2,0:0:0:0:
348,239,192301,1,10,0:0:0:0:
219,148,192473,1,0,0:0:0:0:
140,200,192646,1,2,0:0:0:0:
92,213,192732,1,2,0:0:0:0:
47,194,192818,1,2,0:0:0:0:
300,111,192991,1,10,0:0:0:0:
347,97,193077,1,2,0:0:0:0:
392,116,193163,1,2,0:0:0:0:
105,122,193335,5,0,0:0:0:0:
343,184,193508,1,0,0:0:0:0:
121,246,193680,5,8,0:0:0:0:
359,184,193853,1,0,0:0:0:0:
137,122,194024,5,0,0:0:0:0:
375,184,194197,1,0,0:0:0:0:
153,246,194370,5,10,0:0:0:0:
161,269,194456,1,2,0:0:0:0:
169,293,194542,1,2,0:0:0:0:
437,111,194715,6,0,P|361:90|316:115,1,112.500004291535,4|0,0:0|0:0,0:0:0:0:
326,112,195059,1,8,0:0:0:0:
193,63,195232,2,0,P|117:84|72:59,1,112.500004291535
75,62,195577,1,2,0:0:0:0:
77,37,195663,1,2,0:0:0:0:
95,21,195749,1,2,0:0:0:0:
119,22,195835,1,2,0:0:0:0:
136,40,195921,1,2,0:0:0:0:
136,64,196008,1,2,0:0:0:0:
119,82,196094,5,6,0:0:0:0:
187,277,196266,1,0,0:0:0:0:
236,142,196439,5,8,0:0:0:0:
170,330,196611,1,0,0:0:0:0:
121,195,196784,5,0,0:0:0:0:
187,383,196956,1,0,0:0:0:0:
215,255,197128,1,10,0:0:0:0:
208,272,197214,1,2,0:0:0:0:
201,289,197300,1,2,0:0:0:0:
311,287,197473,5,0,0:0:0:0:
283,159,197646,1,2,0:0:0:0:
289,176,197731,1,2,0:0:0:0:
296,193,197817,1,10,0:0:0:0:
187,191,197991,5,0,0:0:0:0:
215,63,198163,1,2,0:0:0:0:
209,80,198249,1,2,0:0:0:0:
202,97,198335,1,2,0:0:0:0:
93,205,198508,1,10,0:0:0:0:
99,222,198594,1,2,0:0:0:0:
106,239,198680,1,2,0:0:0:0:
198,374,198853,5,8,0:0:0:0:
378,115,199197,1,8,0:0:0:0:
354,240,199370,1,8,0:0:0:0:
67,78,199715,5,8,0:0:0:0:
294,340,200059,1,8,0:0:0:0:
