osu file format v14

[General]
AudioFilename: wakusei.mp3
AudioLeadIn: 0
PreviewTime: 79471
Countdown: 0
SampleSet: Soft
StackLeniency: 0.7
Mode: 0
LetterboxInBreaks: 0
WidescreenStoryboard: 1

[Editor]
Bookmarks: 3264,24988,28437,36368,47057,58092,63609,66368,69126,91195,96713,108264,113264,118782,119471,121540,124299,144988,145420,157402,162920,168437,190506,200161
DistanceSpacing: 1.3
BeatDivisor: 2
GridSize: 16
TimelineZoom: 1.4

[Metadata]
Title:Wakusei Rabbit (feat. TORIENA)
TitleUnicode:惑星ラビット (feat. TORIENA)
Artist:Yunomi
ArtistUnicode:Yunomi
Creator:GenDoNL
Version:Hard
Source:
Tags:Elcheer ShogunMoon Shunao Kami-senpai jpop dnb
BeatmapID:1053019
BeatmapSetID:487784

[Difficulty]
HPDrainRate:5
CircleSize:3.5
OverallDifficulty:6
ApproachRate:8
SliderMultiplier:1.4
SliderTickRate:2

[Events]
//Background and Video events
0,0,"bg.png",0,0
//Break Periods
2,47328,57413
2,91466,94137
2,146639,156723
//Storyboard Layer 0 (Background)
//Storyboard Layer 1 (Fail)
//Storyboard Layer 2 (Pass)
//Storyboard Layer 3 (Foreground)
//Storyboard Sound Samples

[TimingPoints]
2991,344.827586206897,4,2,1,100,1,0
25059,-100,4,2,1,100,0,0
69197,-100,4,2,1,100,0,1
91266,-100,4,2,1,100,0,0
111439,-100,4,2,1,5,0,0
111611,-100,4,2,1,100,0,0
124370,-100,4,1,1,100,0,0
134025,-100,4,2,1,100,0,0
135404,-90.9090909090909,4,1,1,100,0,0
138077,-90.9090909090909,4,1,1,5,0,0
138163,-90.9090909090909,4,1,1,100,0,0
140491,-90.9090909090909,4,1,1,5,0,0
140577,-90.9090909090909,4,1,1,100,0,0
140835,-90.9090909090909,4,1,1,5,0,0
140922,-90.9090909090909,4,1,1,100,0,0
143249,-90.9090909090909,4,1,1,5,0,0
143335,-90.9090909090909,4,1,1,100,0,0
143594,-90.9090909090909,4,1,1,5,0,0
143680,-90.9090909090909,4,1,1,100,0,0
145059,-100,4,2,1,100,0,0
168508,-100,4,2,1,100,0,1
190577,-100,4,2,1,100,0,0

[Colours]
Combo1 : 163,129,254
Combo2 : 128,255,255
Combo3 : 198,79,82
Combo4 : 255,128,192

[HitObjects]
56,48,2991,6,0,P|93:44|126:48,1,70,4|0,0:0|0:0,0:0:0:0:
178,112,3335,2,0,P|215:116|248:112,1,70,2|0,0:0|0:0,0:0:0:0:
300,48,3680,2,0,P|337:44|370:48,1,70,2|0,0:0|0:0,0:0:0:0:
422,112,4025,2,2,L|459:116,2,35
327,251,4542,6,2,L|290:255,2,35
212,108,5059,6,2,L|175:112,2,35
78,202,5404,2,2,L|115:206,2,35
56,336,5749,6,0,P|93:340|126:336,1,70,4|0,0:0|0:0,0:0:0:0:
178,272,6094,2,0,P|215:268|248:272,1,70,2|0,0:0|0:0,0:0:0:0:
300,336,6439,2,0,P|337:340|370:336,1,70,2|0,0:0|0:0,0:0:0:0:
422,272,6784,2,0,L|459:268,2,35,2|0|0,0:0|0:0|0:0,0:0:0:0:
271,111,7991,6,2,L|282:91,6,17.5
227,124,8335,1,2,0:0:0:0:
153,54,8508,6,0,P|87:43|55:55,1,70,4|0,0:0|0:0,0:0:0:0:
98,134,8853,2,0,P|35:157|13:183,1,70,2|0,0:0|0:0,0:0:0:0:
90,230,9197,2,0,P|47:281|41:315,1,70,2|0,0:0|0:0,0:0:0:0:
131,317,9542,6,2,L|119:382,2,35
266,217,10059,6,2,L|277:151,2,35
416,325,10577,6,2,L|409:359,2,35
478,244,10922,2,2,L|489:178,2,35
395,88,11266,5,8,0:0:0:0:
270,200,11611,1,8,0:0:0:0:
236,37,11956,1,8,0:0:0:0:
353,263,12301,1,8,0:0:0:0:
353,263,12473,1,8,0:0:0:0:
256,192,12646,12,0,13680,0:0:0:0:
34,94,14025,6,0,B|93:59|127:52|127:52|151:76|140:106,1,140,4|0,0:0|0:0,0:0:0:0:
188,152,14542,1,0,0:0:0:0:
89,159,14715,1,0,0:0:0:0:
234,84,14887,1,0,0:0:0:0:
252,185,15059,2,0,P|218:181|187:166,1,70,8|0,0:0|0:0,0:0:0:0:
335,169,15404,6,0,P|321:235|263:270,1,140,4|0,0:0|0:0,0:0:0:0:
178,260,15922,1,0,0:0:0:0:
252,185,16094,1,0,0:0:0:0:
217,343,16266,1,0,0:0:0:0:
166,260,16439,2,0,B|169:262|122:250|83:262,1,70
34,189,16784,6,0,B|11:141|56:86|5:32,2,140,4|0|0,0:0|0:0|0:0,0:0:0:0:
121,132,17646,1,0,0:0:0:0:
190,210,17818,2,0,P|156:219|121:217,1,70,8|0,0:0|0:0,0:0:0:0:
89,303,18163,6,0,P|38:256|34:188,1,140,4|0,0:0|0:0,0:0:0:0:
239,140,18680,2,0,P|271:199|253:265,1,140,4|0,0:0|0:0,0:0:0:0:
164,358,19111,1,2,0:0:0:0:
147,355,19197,1,2,0:0:0:0:
130,351,19283,1,2,0:0:0:0:
113,348,19369,1,2,0:0:0:0:
96,344,19456,1,2,0:0:0:0:
79,340,19542,6,0,P|62:299|63:256,1,70,4|0,0:0|0:0,0:0:0:0:
119,213,19887,2,0,P|133:170|129:128,1,70
59,104,20232,2,0,P|44:61|48:19,1,70
143,51,20577,6,2,L|178:56,2,35,10|2|2,0:0|0:0|0:0,0:0:0:0:
263,7,20922,2,0,P|266:94|209:141,1,140,4|0,0:0|0:0,0:0:0:0:
153,156,21439,1,0,0:0:0:0:
169,73,21611,1,0,0:0:0:0:
214,213,21784,1,0,0:0:0:0:
133,246,21956,2,0,L|81:239,2,35
303,253,22301,6,0,L|391:247,1,70,8|0,0:0|0:0,0:0:0:0:
245,162,22646,2,0,L|157:156,1,70,8|0,0:0|0:0,0:0:0:0:
303,71,22991,2,0,L|391:65,1,70,8|0,0:0|0:0,0:0:0:0:
334,165,23335,2,0,L|375:159,2,35,8|0|0,0:0|0:0|0:0,0:0:0:0:
212,58,23680,5,8,0:0:0:0:
102,113,23853,2,0,L|61:107,2,35,0|0|8,0:0|0:0|0:0,0:0:0:0:
157,209,24197,2,0,L|198:203,2,35,0|0|8,0:0|0:0|0:0,0:0:0:0:
202,78,24542,1,0,0:0:0:0:
68,202,24715,1,0,0:0:0:0:
412,272,25059,6,0,B|364:257|338:260|338:260|306:279|247:263,1,140,4|0,0:0|0:0,0:0:0:0:
294,186,25577,2,0,P|335:175|385:186,1,70
438,269,25922,1,0,0:0:0:0:
361,342,26094,2,0,P|313:354|273:348,1,70,8|0,0:0|0:0,0:0:0:0:
217,314,26439,6,0,B|227:275|218:241|218:241|201:211|201:177,2,140,2|0|0,0:0|0:0|0:0,0:0:0:0:
142,274,27301,1,0,0:0:0:0:
151,112,27473,2,0,P|194:98|240:112,1,70,8|0,0:0|0:0,0:0:0:0:
304,164,27818,6,0,P|350:163|388:134,1,70
360,18,28163,2,0,P|331:52|327:100,1,70,8|0,0:0|0:0,0:0:0:0:
423,216,28508,2,0,P|446:179|450:135,1,70
317,266,28853,2,0,P|316:310|342:350,1,70,8|0,0:0|0:0,0:0:0:0:
190,325,29197,6,0,B|176:360|153:369|153:369|124:365|48:386,2,140,4|0|0,0:0|0:0|0:0,0:0:0:0:
231,251,30059,1,2,0:0:0:0:
245,167,30232,1,8,0:0:0:0:
189,103,30404,1,2,0:0:0:0:
161,182,30577,6,0,B|137:239|102:247|102:247|72:231|29:236,2,140,4|0|0,0:0|0:0|0:0,0:0:0:0:
266,121,31439,1,0,0:0:0:0:
408,177,31611,2,0,L|334:176,1,70,8|0,0:0|0:0,0:0:0:0:
446,98,31956,6,0,P|490:148|468:239,1,140,4|0,0:0|0:0,0:0:0:0:
386,272,32473,1,0,0:0:0:0:
408,177,32646,1,0,0:0:0:0:
474,283,32818,1,0,0:0:0:0:
377,359,32991,2,0,L|307:359,1,70,8|0,0:0|0:0,0:0:0:0:
239,271,33335,6,0,B|214:292|198:322|197:355|197:355|166:366|142:351,2,140,4|0|0,0:0|0:0|0:0,0:0:0:0:
306,209,34197,2,0,L|302:121,1,70,0|8,0:0|0:0,0:0:0:0:
211,131,34542,1,0,0:0:0:0:
268,61,34715,2,0,B|341:33|324:92|419:55,2,140,4|0|0,0:0|0:0|0:0,0:0:0:0:
211,131,35577,1,0,0:0:0:0:
302,139,35749,2,0,L|303:208,1,70,8|0,0:0|0:0,0:0:0:0:
244,340,36094,6,0,P|238:305|238:270,1,70,4|0,0:0|0:0,0:0:0:0:
143,251,36439,2,0,P|148:216|148:181,1,70
204,93,36784,2,0,P|198:58|198:23,1,70
296,65,37128,2,2,L|338:44,2,35,10|2|2,0:0|0:0|0:0,0:0:0:0:
403,13,37473,6,0,B|423:65|398:101|398:101|393:131|404:157,1,140,4|0,0:0|0:0,0:0:0:0:
433,234,37991,1,0,0:0:0:0:
276,281,38163,1,0,0:0:0:0:
370,347,38335,1,0,0:0:0:0:
370,347,38508,2,0,L|362:273,1,70,8|0,0:0|0:0,0:0:0:0:
319,186,38853,6,0,B|267:206|231:181|231:181|201:176|175:187,2,140,4|0|0,0:0|0:0|0:0,0:0:0:0:
276,103,39715,1,0,0:0:0:0:
104,161,39887,2,0,P|100:201|121:243,1,70,8|0,0:0|0:0,0:0:0:0:
184,269,40232,6,0,P|187:305|171:349,2,70,8|0|8,0:0|0:0|0:0,0:0:0:0:
183,183,40749,1,0,0:0:0:0:
358,74,41094,2,0,L|360:109,5,35
359,126,41611,6,0,P|324:140|279:139,1,70,4|0,0:0|0:0,0:0:0:0:
191,197,41956,2,0,P|220:220|242:259,1,70
323,306,42301,2,0,P|328:268|351:230,1,70
415,176,42646,2,2,L|470:156,2,35,10|2|2,0:0|0:0|0:0,0:0:0:0:
344,94,42991,6,0,B|297:84|262:122|262:122|228:126|184:108,1,140,4|0,0:0|0:0,0:0:0:0:
132,94,43508,1,0,0:0:0:0:
200,40,43680,1,0,0:0:0:0:
149,179,43853,1,0,0:0:0:0:
68,220,44025,2,0,L|57:151,1,70,8|0,0:0|0:0,0:0:0:0:
139,305,44370,6,0,B|163:333|199:338|199:338|241:330|265:350,2,140,4|0|0,0:0|0:0|0:0,0:0:0:0:
148,178,45232,2,0,P|211:184|205:247,1,140,8|0,0:0|0:0,0:0:0:0:
68,220,45748,1,0,0:0:0:0:
73,129,45922,1,0,0:0:0:0:
73,129,46094,2,0,L|-14:123,1,70,8|0,0:0|0:0,0:0:0:0:
220,90,46612,5,0,0:0:0:0:
220,90,46784,2,0,L|307:84,1,70,8|4,0:0|0:0,0:0:0:0:
398,76,47128,1,0,0:0:0:0:
89,254,58163,6,0,B|90:217|60:184|60:184|46:155|56:117,1,140,4|0,0:0|0:0,0:0:0:0:
112,59,58680,1,0,0:0:0:0:
139,138,58853,2,0,L|213:142,2,70,0|0|8,0:0|0:0|0:0,0:0:0:0:
231,62,59370,2,0,P|266:82|282:177,1,140,4|0,0:0|0:0,0:0:0:0:
248,268,59887,1,0,0:0:0:0:
197,184,60059,1,0,0:0:0:0:
347,217,60232,2,0,L|428:210,1,70
480,138,60577,1,8,0:0:0:0:
441,67,60749,1,0,0:0:0:0:
441,67,60922,6,0,B|398:57|363:95|363:95|325:101|290:84,1,140,4|0,0:0|0:0,0:0:0:0:
333,18,61439,1,0,0:0:0:0:
427,149,61611,2,0,P|395:171|351:173,2,70,0|0|8,0:0|0:0|0:0,0:0:0:0:
472,215,62128,2,0,B|437:271|378:235|340:278,1,140,4|0,0:0|0:0,0:0:0:0:
277,306,62646,5,0,0:0:0:0:
350,361,62818,1,0,0:0:0:0:
299,201,62991,2,0,P|246:185|203:196,1,70
81,161,63335,2,0,P|134:145|177:156,1,70,8|0,0:0|0:0,0:0:0:0:
291,90,63680,6,0,L|208:108,1,70,12|0,0:0|0:0,0:0:0:0:
129,233,64025,1,8,0:0:0:0:
180,298,64197,1,0,0:0:0:0:
258,329,64370,1,8,0:0:0:0:
341,318,64542,1,0,0:0:0:0:
404,262,64715,1,8,0:0:0:0:
438,186,64887,6,0,P|411:133|446:57,1,140,4|0,0:0|0:0,0:0:0:0:
493,125,65404,1,8,0:0:0:0:
438,186,65577,1,0,0:0:0:0:
357,208,65749,1,8,0:0:0:0:
273,193,65922,1,0,0:0:0:0:
204,144,66094,1,8,0:0:0:0:
183,62,66266,1,0,0:0:0:0:
256,192,66439,12,0,67646,0:0:0:0:
159,221,68853,5,0,0:0:0:0:
52,108,69197,6,0,B|92:130|122:132|122:132|164:116|210:136,1,140,4|8,0:0|0:0,0:0:0:0:
238,194,69715,1,0,0:0:0:0:
152,289,69887,2,0,P|150:254|159:221,1,70
217,343,70232,2,2,L|264:370,2,35,10|2|2,0:0|0:0|0:0,0:0:0:0:
286,296,70577,5,4,0:0:0:0:
354,344,70749,2,2,L|307:371,2,35,2|2|10,0:0|0:0|0:0,0:0:0:0:
409,281,71094,1,0,0:0:0:0:
375,204,71266,2,2,L|333:176,2,35,10|2|2,0:0|0:0|0:0,0:0:0:0:
435,145,71611,2,0,L|477:117,2,35,8|0|0,0:0|0:0|0:0,0:0:0:0:
286,101,71956,6,0,P|254:147|258:187,1,70,4|0,0:0|0:0,0:0:0:0:
369,91,72301,1,8,0:0:0:0:
292,235,72473,1,0,0:0:0:0:
373,226,72646,2,0,P|364:192|340:168,1,70
252,159,72991,2,0,L|246:119,2,35,8|0|0,0:0|0:0|0:0,0:0:0:0:
203,230,73335,6,0,P|149:186|142:119,1,140,4|0,0:0|0:0,0:0:0:0:
292,235,73853,2,0,P|278:302|222:341,1,140,4|0,0:0|0:0,0:0:0:0:
205,337,74284,1,2,0:0:0:0:
187,334,74370,1,2,0:0:0:0:
170,331,74456,1,2,0:0:0:0:
153,327,74542,1,2,0:0:0:0:
135,324,74628,1,2,0:0:0:0:
118,321,74715,6,0,B|93:308|31:305|31:305|12:266|36:226,1,140,4|8,0:0|0:0,0:0:0:0:
78,155,75232,1,0,0:0:0:0:
103,235,75404,1,0,0:0:0:0:
0,176,75577,1,0,0:0:0:0:
167,176,75749,2,2,P|210:190|221:193,2,35,10|2|2,0:0|0:0|0:0,0:0:0:0:
173,101,76094,6,0,B|205:85|243:98|243:98|274:130|323:121,1,140,4|8,0:0|0:0,0:0:0:0:
303,34,76611,1,0,0:0:0:0:
108,53,76784,2,0,P|93:116|99:143,1,70
200,187,77128,2,0,P|194:251|180:275,1,70,8|0,0:0|0:0,0:0:0:0:
140,347,77473,6,0,L|236:346,1,70,12|0,0:0|0:0,0:0:0:0:
97,253,77818,2,0,L|1:252,1,70,8|0,0:0|0:0,0:0:0:0:
140,159,78163,2,0,L|236:158,1,70,8|0,0:0|0:0,0:0:0:0:
227,255,78508,2,2,L|163:255,2,35
293,189,78853,6,0,P|298:160|280:103,2,70,4|0|8,0:0|0:0|0:0,0:0:0:0:
209,158,79370,2,0,L|145:158,2,35
195,79,79715,1,8,0:0:0:0:
109,215,79887,1,8,0:0:0:0:
327,253,80232,6,0,B|299:259|273:244|273:244|238:252|238:252|214:239|178:243,1,140,4|8,0:0|0:0,0:0:0:0:
324,170,80749,1,0,0:0:0:0:
399,217,80922,2,0,P|408:241|401:290,1,70
468,354,81266,2,0,L|481:286,1,70,8|0,0:0|0:0,0:0:0:0:
378,371,81611,6,0,B|351:371|326:380|326:380|280:368|220:372,1,140,4|8,0:0|0:0,0:0:0:0:
193,298,82128,1,0,0:0:0:0:
127,219,82301,2,2,L|100:188,2,35
188,136,82646,2,2,L|207:103,2,35,10|2|2,0:0|0:0|0:0,0:0:0:0:
251,32,82991,6,0,P|283:66|292:109,1,70,4|0,0:0|0:0,0:0:0:0:
380,136,83335,2,0,P|348:170|339:213,1,70,8|0,0:0|0:0,0:0:0:0:
267,242,83680,2,0,P|299:276|308:319,1,70
221,319,84025,2,2,L|228:366,2,35,2|2|10,0:0|0:0|0:0,0:0:0:0:
181,236,84370,6,0,P|203:185|294:163,2,140,4|8|0,0:0|0:0|0:0,0:0:0:0:
116,290,85232,2,2,L|109:337,2,35,2|2|10,0:0|0:0|0:0,0:0:0:0:
90,209,85577,1,0,0:0:0:0:
32,147,85749,6,0,B|76:108|131:132|131:132|181:108,1,140,4|8,0:0|0:0,0:0:0:0:
218,65,86266,1,0,0:0:0:0:
134,47,86439,1,0,0:0:0:0:
235,147,86611,1,0,0:0:0:0:
298,92,86784,2,0,L|307:22,1,70,8|0,0:0|0:0,0:0:0:0:
391,90,87128,6,0,P|349:174|281:171,1,140,4|8,0:0|0:0,0:0:0:0:
235,147,87646,1,0,0:0:0:0:
298,92,87818,1,0,0:0:0:0:
236,233,87991,1,0,0:0:0:0:
152,255,88163,2,0,P|152:220|164:188,1,70,8|0,0:0|0:0,0:0:0:0:
209,320,88508,6,0,B|180:341|164:351|164:351|110:356|52:331,1,140,4|0,0:0|0:0,0:0:0:0:
55,236,89025,2,0,B|30:228|28:200|28:200|44:153|45:82,1,140,4|0,0:0|0:0,0:0:0:0:
181,120,89542,2,0,L|159:204,1,70,8|0,0:0|0:0,0:0:0:0:
256,192,89887,12,0,91266,0:0:0:0:
256,192,94887,12,0,96439,0:0:0:0:
472,226,96784,6,0,P|435:222|402:226,1,70,4|0,0:0|0:0,0:0:0:0:
336,297,97128,2,0,P|299:301|266:297,1,70
209,227,97473,2,0,P|172:223|139:227,1,70
88,308,97818,6,2,L|51:312,2,35,10|2|2,0:0|0:0|0:0,0:0:0:0:
46,218,98163,1,0,0:0:0:0:
107,141,98335,6,2,L|144:145,2,35,10|2|2,0:0|0:0|0:0,0:0:0:0:
285,59,98853,6,2,L|248:63,2,35,10|2|2,0:0|0:0|0:0,0:0:0:0:
353,128,99197,2,2,L|387:131,2,35,10|2|2,0:0|0:0|0:0,0:0:0:0:
385,220,99542,6,0,P|384:262|391:298,1,70,4|0,0:0|0:0,0:0:0:0:
289,298,99887,2,0,P|247:299|211:292,2,70,8|0|0,0:0|0:0|0:0,0:0:0:0:
212,209,100404,2,0,P|147:246|142:330,1,140
57,367,100922,5,4,0:0:0:0:
58,283,101094,1,0,0:0:0:0:
60,199,101266,1,0,0:0:0:0:
61,114,101439,2,0,B|140:56|186:143|283:97,1,210,4|0,0:0|0:0,0:0:0:0:
414,30,102301,6,0,B|427:56|448:84|422:136|422:136|417:162|430:185,2,140,4|0|0,0:0|0:0|0:0,0:0:0:0:
348,90,103163,1,0,0:0:0:0:
343,173,103335,6,0,P|309:164|278:132,1,70,8|0,0:0|0:0,0:0:0:0:
274,57,103680,2,0,P|242:41|208:42,1,70,8|0,0:0|0:0,0:0:0:0:
139,90,104025,2,0,L|92:20,2,70
131,173,104542,1,0,0:0:0:0:
145,256,104715,6,0,P|189:248|227:256,1,70,8|0,0:0|0:0,0:0:0:0:
275,307,105059,2,0,P|309:310|343:302,1,70,8|0,0:0|0:0,0:0:0:0:
427,299,105404,2,0,L|474:369,2,70
452,217,105922,1,0,0:0:0:0:
412,143,106094,6,0,P|363:150|337:139,1,70,8|0,0:0|0:0,0:0:0:0:
281,87,106439,2,0,P|247:78|213:87,1,70,8|0,0:0|0:0,0:0:0:0:
137,123,106784,2,0,L|54:107,2,70
206,170,107301,1,0,0:0:0:0:
133,212,107473,6,0,P|131:274|141:298,1,70,8|0,0:0|0:0,0:0:0:0:
214,303,107818,2,0,P|216:365|206:389,1,70,8|0,0:0|0:0,0:0:0:0:
302,352,108163,2,0,P|336:357|370:348,2,70
333,262,108680,1,0,0:0:0:0:
426,280,108853,6,0,P|445:242|433:191,1,70,8|0,0:0|0:0,0:0:0:0:
483,147,109197,2,0,P|464:109|476:58,1,70,8|0,0:0|0:0,0:0:0:0:
370,138,109542,2,0,P|331:146|294:132,2,70
336,62,110059,1,0,0:0:0:0:
227,102,110232,6,0,P|219:145|234:186,1,70,8|0,0:0|0:0,0:0:0:0:
181,241,110577,2,0,P|189:284|180:325,1,70,8|0,0:0|0:0,0:0:0:0:
125,368,110922,1,0,0:0:0:0:
106,286,111094,1,0,0:0:0:0:
232,379,111266,2,0,L|318:378,1,70
410,383,111611,1,0,0:0:0:0:
454,306,111784,6,0,B|440:292|407:295|407:295|363:320|313:298,1,140
358,222,112301,2,0,P|404:210|439:214,2,70
58,68,113335,6,0,P|20:127|33:206,2,140,4|8|0,0:0|0:0|0:0,0:0:0:0:
143,69,114197,1,0,0:0:0:0:
107,146,114370,1,8,0:0:0:0:
145,220,114542,6,0,B|226:199|205:236|259:237|291:222,1,140,4|0,0:0|0:0,0:0:0:0:
301,102,115059,2,0,P|260:140|256:159,1,70,8|0,0:0|0:0,0:0:0:0:
336,172,115404,2,0,L|421:184,1,70
481,144,115749,1,8,0:0:0:0:
480,59,115922,1,0,0:0:0:0:
404,23,116094,6,0,B|363:37|301:2|238:29,1,140,4|8,0:0|0:0,0:0:0:0:
194,66,116611,1,0,0:0:0:0:
117,30,116784,2,0,P|60:30|36:26,2,70,0|0|8,0:0|0:0|0:0,0:0:0:0:
123,114,117301,6,0,B|133:167|97:209|130:274,1,140,4|0,0:0|0:0,0:0:0:0:
184,308,117818,2,0,P|234:307|261:319,1,70,8|0,0:0|0:0,0:0:0:0:
329,280,118163,1,0,0:0:0:0:
256,192,118853,12,0,121266,0:0:0:0:
300,264,121611,5,2,0:0:0:0:
325,83,121956,1,2,0:0:0:0:
159,159,122301,1,2,0:0:0:0:
300,264,122646,1,2,0:0:0:0:
300,264,122818,1,2,0:0:0:0:
440,96,124370,6,0,B|394:81|351:124|351:124|319:125|299:115,1,140,4|8,0:0|0:0,0:0:0:0:
320,35,124887,1,8,0:0:0:0:
419,177,125059,2,0,B|428:232|408:265|424:297|424:297|435:265,1,140,4|8,0:0|0:0,0:0:0:0:
499,230,125577,1,8,0:0:0:0:
341,206,125749,6,0,B|286:222|240:192|240:192|245:138,1,140,4|8,0:0|0:0,0:0:0:0:
205,81,126266,1,8,0:0:0:0:
164,155,126439,2,0,L|143:313,1,140,4|8,0:0|0:0,0:0:0:0:
87,355,126956,1,8,0:0:0:0:
20,304,127128,6,0,P|72:273|165:319,1,140,4|8,0:0|0:0,0:0:0:0:
194,361,127646,1,8,0:0:0:0:
229,285,127818,2,0,P|281:316|374:270,1,140,4|8,0:0|0:0,0:0:0:0:
296,234,128335,1,8,0:0:0:0:
415,348,128508,6,2,L|481:348,2,46.6666666666667
466,258,128853,2,2,L|532:258,2,46.6666666666667
459,202,129197,6,0,P|477:153|403:164,1,140,4|8,0:0|0:0,0:0:0:0:
372,224,129715,1,8,0:0:0:0:
298,183,129887,6,0,B|256:162|226:173|226:173|193:200|138:180,1,140,4|8,0:0|0:0,0:0:0:0:
172,93,130404,1,8,0:0:0:0:
260,263,130577,2,0,P|271:317|278:257,1,140,4|8,0:0|0:0,0:0:0:0:
182,103,131094,1,8,0:0:0:0:
71,229,131439,5,8,0:0:0:0:
112,302,131611,1,8,0:0:0:0:
182,347,131784,1,8,0:0:0:0:
265,339,131956,2,0,B|301:323|332:339|332:339|359:330|359:330|381:346|421:340,1,140,4|8,0:0|0:0,0:0:0:0:
401,258,132473,1,8,0:0:0:0:
476,221,132646,6,0,P|435:182|342:201,1,140,4|8,0:0|0:0,0:0:0:0:
278,155,133163,1,8,0:0:0:0:
205,113,133335,2,0,P|164:152|71:133,1,140,4|8,0:0|0:0,0:0:0:0:
130,73,133853,1,8,0:0:0:0:
356,188,134197,6,0,L|405:181,2,35,2|2|2,0:0|0:0|0:0,0:0:0:0:
204,260,134715,6,0,L|155:253,2,35,2|2|2,0:0|0:0|0:0,0:0:0:0:
230,339,135059,2,0,L|195:343,2,35,2|2|2,0:0|0:0|0:0,0:0:0:0:
87,356,135404,6,0,L|99:182,1,154.000004699707,4|8,0:0|0:0,0:0:0:0:
105,109,135922,1,8,0:0:0:0:
40,53,136094,2,0,P|124:24|185:78,1,154.000004699707,4|8,0:0|0:0,0:0:0:0:
229,127,136611,1,0,0:0:0:0:
277,48,136784,6,0,B|314:78|357:69|357:69|391:53|415:58|441:68,2,154.000004699707,4|8|8,0:0|0:0|0:0,0:0:0:0:
297,160,137646,1,8,0:0:0:0:
399,143,137818,2,0,L|381:273,1,115.50000352478,4|0,0:0|0:0,0:0:0:0:
373,302,138163,6,0,B|311:320|241:261|196:312,1,154.000004699707,4|8,0:0|0:0,0:0:0:0:
144,347,138680,1,8,0:0:0:0:
67,295,138853,2,0,L|78:114,1,154.000004699707,4|8,0:0|0:0,0:0:0:0:
84,33,139370,1,8,0:0:0:0:
174,52,139542,1,8,0:0:0:0:
268,35,139715,5,10,0:0:0:0:
237,121,139887,1,10,0:0:0:0:
289,196,140059,1,10,0:0:0:0:
217,254,140232,2,0,P|206:303|258:283,1,115.50000352478,4|0,0:0|0:0,0:0:0:0:
296,290,140577,2,0,L|445:290,1,115.50000352478,4|0,0:0|0:0,0:0:0:0:
457,285,140922,6,0,B|451:253|461:228|461:228|447:182|447:182|455:155|450:121,1,154.000004699707,4|8,0:0|0:0,0:0:0:0:
466,42,141439,1,8,0:0:0:0:
380,75,141611,2,0,B|348:81|323:71|323:71|277:85|277:85|250:77|216:82,1,154.000004699707,4|8,0:0|0:0,0:0:0:0:
112,78,142128,1,8,0:0:0:0:
88,261,142473,5,8,0:0:0:0:
143,335,142646,1,8,0:0:0:0:
231,361,142818,1,8,0:0:0:0:
323,358,142991,2,0,B|359:342|385:358|385:358|413:349|413:349|439:365|456:357,1,115.50000352478,4|0,0:0|0:0,0:0:0:0:
465,356,143335,2,0,P|508:333|458:318,1,115.50000352478,4|0,0:0|0:0,0:0:0:0:
445,268,143680,6,0,B|420:244|419:198|419:198|445:167|436:110,1,154.000004699707,4|8,0:0|0:0,0:0:0:0:
377,54,144197,1,8,0:0:0:0:
330,136,144370,2,0,P|203:137|145:137,1,154.000004699707,4|8,0:0|0:0,0:0:0:0:
45,137,144887,1,8,0:0:0:0:
101,244,145059,6,0,L|86:286,8,35
139,138,145922,1,0,0:0:0:0:
10,218,146094,1,0,0:0:0:0:
287,189,146439,5,0,0:0:0:0:
147,199,157473,6,0,P|127:159|152:68,2,140
231,231,158508,1,0,0:0:0:0:
215,137,158853,6,0,P|259:139|325:206,2,140
147,199,159887,1,0,0:0:0:0:
231,231,160232,6,0,P|206:268|114:284,2,140
324,203,161266,1,0,0:0:0:0:
296,291,161611,6,0,P|320:328|411:352,2,140
185,358,162646,2,0,L|127:365,2,35,2|2|0,0:0|0:0|0:0,0:0:0:0:
256,192,162991,12,0,165749,0:0:0:0:
71,127,168508,6,0,B|110:110|148:132|148:132|180:144|222:129,1,140,4|8,0:0|0:0,0:0:0:0:
179,54,169025,1,0,0:0:0:0:
100,209,169197,2,0,P|105:260|111:295,1,70
162,350,169542,6,2,L|194:362,2,35,10|2|2,0:0|0:0|0:0,0:0:0:0:
217,286,169887,1,0,0:0:0:0:
209,202,170059,6,2,L|176:214,2,35,2|2|10,0:0|0:0|0:0,0:0:0:0:
282,148,170404,1,0,0:0:0:0:
359,99,170577,2,2,L|391:111,2,35
290,38,170922,2,2,L|322:25,2,35,10|2|2,0:0|0:0|0:0,0:0:0:0:
199,44,171266,6,0,P|175:87|178:127,1,70
116,177,171611,2,0,P|140:220|137:260,1,70,8|0,0:0|0:0,0:0:0:0:
214,294,171956,2,0,P|190:337|193:377,1,70
268,223,172301,6,2,L|318:219,2,35,10|2|2,0:0|0:0|0:0,0:0:0:0:
223,133,172646,2,2,L|186:129,2,35
268,43,172991,2,2,L|304:39,2,35
416,68,173335,5,8,0:0:0:0:
413,85,173421,1,0,0:0:0:0:
411,102,173507,1,0,0:0:0:0:
409,120,173593,1,0,0:0:0:0:
407,138,173680,2,0,L|410:192,3,35,8|0|0|0,0:0|0:0|0:0|0:0,0:0:0:0:
370,198,174025,6,0,B|335:188|303:203|303:203|265:224|226:213,2,140,10|0|0,0:0|0:0|0:0,0:0:0:0:
470,274,174887,1,0,0:0:0:0:
341,279,175059,2,2,L|331:329,2,35,10|2|2,0:0|0:0|0:0,0:0:0:0:
251,295,175404,5,0,0:0:0:0:
161,279,175577,2,2,L|171:329,2,35,10|2|2,0:0|0:0|0:0,0:0:0:0:
144,189,175922,1,0,0:0:0:0:
83,121,176094,6,2,L|48:114,2,35,10|2|2,0:0|0:0|0:0,0:0:0:0:
122,38,176440,2,2,L|156:31,2,35,10|2|2,0:0|0:0|0:0,0:0:0:0:
236,163,176784,6,0,P|275:194|310:197,1,70,4|0,0:0|0:0,0:0:0:0:
303,110,177128,2,0,P|310:60|295:28,1,70,8|0,0:0|0:0,0:0:0:0:
223,78,177473,2,0,P|176:96|156:125,1,70
236,163,177818,2,2,L|267:194,2,35
317,260,178163,6,0,P|338:232|349:199,2,70,4|0|8,0:0|0:0|0:0,0:0:0:0:
394,130,178680,2,0,L|458:130,2,35
302,110,179025,1,8,0:0:0:0:
436,218,179197,1,8,0:0:0:0:
74,290,179542,6,0,B|74:287|101:279|144:298|144:298|181:311|210:297,1,140,4|8,0:0|0:0,0:0:0:0:
278,244,180059,1,0,0:0:0:0:
264,362,180232,1,0,0:0:0:0:
188,211,180404,1,0,0:0:0:0:
288,245,180577,2,0,L|358:244,1,70,8|0,0:0|0:0,0:0:0:0:
455,205,180922,6,0,B|463:171|432:149|432:149|392:167|341:141,1,140,4|8,0:0|0:0,0:0:0:0:
387,57,181439,1,0,0:0:0:0:
292,68,181611,2,2,L|259:82,2,35
269,159,181956,2,2,L|236:173,2,35,10|2|2,0:0|0:0|0:0,0:0:0:0:
352,272,182301,6,0,L|265:235,1,70,4|0,0:0|0:0,0:0:0:0:
229,314,182646,2,0,L|142:277,1,70,8|0,0:0|0:0,0:0:0:0:
106,356,182991,2,0,L|19:319,1,70
38,202,183335,6,2,L|26:146,2,35,10|2|2,0:0|0:0|0:0,0:0:0:0:
107,142,183680,2,2,L|114:85,2,35
192,109,184025,2,2,L|218:58,2,35,10|2|2,0:0|0:0|0:0,0:0:0:0:
283,107,184370,2,2,L|325:68,2,35
369,136,184715,2,2,L|421:113,2,35,10|2|2,0:0|0:0|0:0,0:0:0:0:
439,192,185059,6,0,B|455:229|450:257|450:257|408:305|435:351,1,140,4|8,0:0|0:0,0:0:0:0:
507,318,185577,1,0,0:0:0:0:
369,234,185749,2,0,L|283:238,1,70
255,323,186094,2,0,L|341:327,1,70,8|0,0:0|0:0,0:0:0:0:
180,263,186439,6,0,B|145:312|171:369|171:369|129:346,1,140,4|0,0:0|0:0,0:0:0:0:
79,293,186956,1,0,0:0:0:0:
116,210,187128,2,2,L|143:189,2,35
49,147,187473,2,2,L|22:126,2,35
120,90,187818,6,0,P|190:76|238:125,1,140,4|0,0:0|0:0,0:0:0:0:
277,189,188335,2,0,P|207:203|159:154,1,140,4|0,0:0|0:0,0:0:0:0:
125,20,188853,2,0,L|120:102,1,70,8|0,0:0|0:0,0:0:0:0:
256,192,189197,12,0,190232,0:0:0:0:
455,44,190577,6,0,P|400:40|375:45,1,70,4|0,0:0|0:0,0:0:0:0:
335,118,190922,2,0,P|280:122|255:117,1,70
215,44,191266,2,0,P|160:40|135:45,1,70
90,114,191611,2,2,L|54:140,2,35
172,153,191956,1,0,0:0:0:0:
158,242,192128,2,2,L|194:268,2,35
338,216,192646,6,2,L|302:242,2,35
405,257,192991,2,2,L|441:283,2,35
334,314,193335,6,0,P|284:316|246:294,1,70
203,242,193680,2,0,P|169:232|135:236,1,70
71,303,194025,2,0,P|37:312|3:308,1,70
37,223,194370,2,2,L|57:175,2,35
22,106,194715,6,0,P|65:102|139:173,2,140,4|8|0,0:0|0:0|0:0,0:0:0:0:
51,19,195577,2,2,L|109:10,5,35
125,35,196094,6,0,B|150:45|175:66|175:66|218:75|269:49,1,140,4|8,0:0|0:0,0:0:0:0:
304,0,196611,1,0,0:0:0:0:
344,70,196784,1,0,0:0:0:0:
284,132,196956,1,0,0:0:0:0:
369,163,197128,2,0,L|293:159,1,70,8|0,0:0|0:0,0:0:0:0:
220,186,197473,5,4,0:0:0:0:
313,245,197646,2,2,L|364:249,2,35
145,315,198163,6,2,L|94:319,2,35
109,230,198508,2,2,L|58:222,2,35
150,148,198853,5,0,0:0:0:0:
326,106,199197,2,0,L|238:106,1,70
417,20,199715,1,0,0:0:0:0:
347,187,200059,1,0,0:0:0:0:
