osu file format v14

[General]
AudioFilename: audio.mp3
AudioLeadIn: 0
PreviewTime: 68777
Countdown: 0
SampleSet: Soft
StackLeniency: 0.7
Mode: 3
LetterboxInBreaks: 0
SpecialStyle: 0
WidescreenStoryboard: 0

[Editor]
DistanceSpacing: 0.8
BeatDivisor: 4
GridSize: 32
TimelineZoom: 3.299998

[Metadata]
Title:Wakusei Rabbit ( ft. TORIENA )
TitleUnicode:惑星ラビット ( ft. トリエナ )
Artist:Yunomi
ArtistUnicode:ユノミ
Creator:Rukitotoka
Version:Insane
Source:
Tags:Bass Future
BeatmapID:1423155
BeatmapSetID:672954

[Difficulty]
HPDrainRate:8
CircleSize:7
OverallDifficulty:8
ApproachRate:5
SliderMultiplier:1.4
SliderTickRate:1

[Events]
//Background and Video events
0,0,"loli.jpg",0,0
//Break Periods
//Storyboard Layer 0 (Background)
//Storyboard Layer 1 (Fail)
//Storyboard Layer 2 (Pass)
//Storyboard Layer 3 (Foreground)
//Storyboard Sound Samples

[TimingPoints]
2915.88185326853,344.827586206897,4,2,0,15,1,0
12441,-66.6666666666667,4,2,0,15,0,0
12564,-40,4,2,0,15,0,0
13037,-66.6666666666667,4,2,0,15,0,0
13260,-90.9090909090909,4,2,0,15,0,0
13511,-133.333333333333,4,2,0,15,0,0
13598,-117.647058823529,4,2,0,15,0,0
13734,-111.111111111111,4,2,0,15,0,0
13942,-100,4,2,0,15,0,0
35717,-40,4,2,0,15,0,0
35827,-83.3333333333333,4,2,0,15,0,0
35870,-133.333333333333,4,2,0,15,0,0
35914,-117.647058823529,4,2,0,15,0,0
35957,-105.263157894737,4,2,0,15,0,0
36019,-100,4,2,0,15,0,0
67614,-40,4,2,0,15,0,0
68260,-66.6666666666667,4,2,0,15,0,0
68777,-125,4,2,0,15,0,0
68950,-111.111111111111,4,2,0,15,0,0
69122,-100,4,2,0,15,0,0
91198,-100,4,2,0,15,0,0
101881,-100,4,2,0,15,0,0
101924,-111.111111111111,4,2,0,15,0,0
101967,-117.647058823529,4,2,0,15,0,0
102010,-181.818181818181,4,2,0,15,0,0
102053,-133.333333333333,4,2,0,15,0,0
102096,-117.647058823529,4,2,0,15,0,0
102140,-111.111111111111,4,2,0,15,0,0
102226,-100,4,2,0,15,0,0
113254,-100,4,2,0,15,0,0
121493,-111.111111111111,4,2,0,15,0,0
121536,-117.647058823529,4,2,0,15,0,0
123519,-105.263157894737,4,2,0,15,0,0
123993,-100,4,2,0,15,0,0
135329,-100,4,2,0,15,0,0
146019,-117.647058823529,4,2,0,15,0,0
146321,-121.951219512195,4,2,0,15,0,0
156019,-107.52688172043,4,2,0,15,0,0
157398,-106.382978723404,4,2,0,15,0,0
160157,-105.263157894737,4,2,0,15,0,0
162915,-100,4,2,0,15,0,0
165674,-40,4,2,0,15,0,0
166536,-76.9230769230769,4,2,0,15,0,0
166708,-86.9565217391304,4,2,0,15,0,0
166969,-95.2380952380952,4,2,0,15,0,0
167010,-105.263157894737,4,2,0,15,0,0
167053,-100,4,2,0,15,0,0
168088,-111.111111111111,4,2,0,15,0,0
168390,-100,4,2,0,15,0,0

[HitObjects]
182,192,2915,5,0,0:0:0:0:
402,192,2915,1,0,0:0:0:0:
475,192,2915,1,0,0:0:0:0:
329,192,2915,1,0,0:0:0:0:
36,192,3088,1,0,0:0:0:0:
256,192,3088,1,0,0:0:0:0:
109,192,3088,1,0,0:0:0:0:
402,192,3260,1,0,0:0:0:0:
475,192,3260,1,0,0:0:0:0:
182,192,3260,1,0,0:0:0:0:
329,192,3260,1,0,0:0:0:0:
36,192,3433,1,0,0:0:0:0:
256,192,3433,1,0,0:0:0:0:
109,192,3605,1,0,0:0:0:0:
329,192,3605,1,0,0:0:0:0:
475,192,3605,1,0,0:0:0:0:
182,192,3777,1,0,0:0:0:0:
256,192,3777,1,0,0:0:0:0:
402,192,3777,1,0,0:0:0:0:
329,192,3950,1,0,0:0:0:0:
36,192,3950,1,0,0:0:0:0:
402,192,4036,1,0,0:0:0:0:
109,192,4036,1,0,0:0:0:0:
475,192,4122,1,0,0:0:0:0:
182,192,4122,1,0,0:0:0:0:
402,192,4295,1,0,0:0:0:0:
329,192,4295,1,0,0:0:0:0:
256,192,4295,1,0,0:0:0:0:
109,192,4295,1,0,0:0:0:0:
182,192,4467,1,0,0:0:0:0:
475,192,4467,1,0,0:0:0:0:
109,192,4553,1,0,0:0:0:0:
402,192,4553,1,0,0:0:0:0:
36,192,4640,1,0,0:0:0:0:
329,192,4640,1,0,0:0:0:0:
109,192,4812,1,0,0:0:0:0:
182,192,4812,1,0,0:0:0:0:
256,192,4812,1,0,0:0:0:0:
402,192,4812,1,0,0:0:0:0:
475,192,4984,1,0,0:0:0:0:
36,192,4984,1,0,0:0:0:0:
402,192,5071,1,0,0:0:0:0:
109,192,5071,1,0,0:0:0:0:
329,192,5157,1,0,0:0:0:0:
182,192,5157,1,0,0:0:0:0:
256,192,5157,1,0,0:0:0:0:
329,192,5329,1,0,0:0:0:0:
182,192,5329,1,0,0:0:0:0:
402,192,5415,1,0,0:0:0:0:
109,192,5415,1,0,0:0:0:0:
475,192,5502,1,0,0:0:0:0:
36,192,5502,1,0,0:0:0:0:
402,192,5674,1,0,0:0:0:0:
256,192,5674,1,0,0:0:0:0:
109,192,5674,1,0,0:0:0:0:
36,192,5674,1,0,0:0:0:0:
329,192,5846,1,0,0:0:0:0:
182,192,5846,1,0,0:0:0:0:
36,192,5846,1,0,0:0:0:0:
109,192,6019,1,0,0:0:0:0:
402,192,6019,1,0,0:0:0:0:
256,192,6019,1,0,0:0:0:0:
182,192,6191,1,0,0:0:0:0:
36,192,6191,1,0,0:0:0:0:
329,192,6191,1,0,0:0:0:0:
402,192,6191,1,0,0:0:0:0:
109,192,6364,1,0,0:0:0:0:
402,192,6364,1,0,0:0:0:0:
256,192,6364,1,0,0:0:0:0:
182,192,6536,1,0,0:0:0:0:
329,192,6536,1,0,0:0:0:0:
475,192,6536,1,0,0:0:0:0:
109,192,6536,1,0,0:0:0:0:
475,192,6708,1,0,0:0:0:0:
182,192,6708,1,0,0:0:0:0:
402,192,6795,1,0,0:0:0:0:
109,192,6795,1,0,0:0:0:0:
329,192,6881,1,0,0:0:0:0:
36,192,6881,1,0,0:0:0:0:
475,192,7053,1,0,0:0:0:0:
402,192,7053,1,0,0:0:0:0:
182,192,7053,1,0,0:0:0:0:
256,192,7226,1,0,0:0:0:0:
329,192,7226,1,0,0:0:0:0:
109,192,7226,1,0,0:0:0:0:
402,192,7398,1,0,0:0:0:0:
475,192,7398,1,0,0:0:0:0:
36,192,7398,1,0,0:0:0:0:
256,192,7571,1,0,0:0:0:0:
182,192,7571,1,0,0:0:0:0:
109,192,7571,1,0,0:0:0:0:
36,192,7743,1,0,0:0:0:0:
402,192,7743,1,0,0:0:0:0:
329,192,7743,1,0,0:0:0:0:
475,192,7915,1,0,0:0:0:0:
402,192,7958,1,0,0:0:0:0:
329,192,8002,1,0,0:0:0:0:
256,192,8045,1,0,0:0:0:0:
36,192,8088,1,0,0:0:0:0:
109,192,8131,1,0,0:0:0:0:
182,192,8174,1,0,0:0:0:0:
475,192,8174,1,0,0:0:0:0:
402,192,8217,1,0,0:0:0:0:
329,192,8260,1,0,0:0:0:0:
256,192,8303,1,0,0:0:0:0:
182,192,8346,1,0,0:0:0:0:
109,192,8390,1,0,0:0:0:0:
475,192,8433,1,0,0:0:0:0:
36,192,8433,1,0,0:0:0:0:
402,192,8433,1,0,0:0:0:0:
256,192,8605,1,0,0:0:0:0:
182,192,8605,1,0,0:0:0:0:
109,192,8605,1,0,0:0:0:0:
329,192,8691,1,0,0:0:0:0:
402,192,8777,1,0,0:0:0:0:
475,192,8777,1,0,0:0:0:0:
256,192,8950,1,0,0:0:0:0:
329,192,8950,1,0,0:0:0:0:
182,192,8950,1,0,0:0:0:0:
109,192,9036,1,0,0:0:0:0:
36,192,9122,1,0,0:0:0:0:
475,192,9122,1,0,0:0:0:0:
402,192,9208,1,0,0:0:0:0:
182,192,9295,1,0,0:0:0:0:
329,192,9295,1,0,0:0:0:0:
402,192,9467,1,0,0:0:0:0:
475,192,9467,1,0,0:0:0:0:
109,192,9467,1,0,0:0:0:0:
256,192,9467,1,0,0:0:0:0:
182,192,9640,1,0,0:0:0:0:
329,192,9640,1,0,0:0:0:0:
475,192,9812,1,0,0:0:0:0:
402,192,9812,1,0,0:0:0:0:
36,192,9812,1,0,0:0:0:0:
109,192,9984,1,0,0:0:0:0:
256,192,9984,1,0,0:0:0:0:
182,192,9984,1,0,0:0:0:0:
329,192,10071,1,0,0:0:0:0:
402,192,10157,1,0,0:0:0:0:
475,192,10157,1,0,0:0:0:0:
36,192,10157,1,0,0:0:0:0:
109,192,10243,1,0,0:0:0:0:
329,192,10329,1,0,0:0:0:0:
182,192,10329,1,0,0:0:0:0:
256,192,10329,1,0,0:0:0:0:
402,192,10415,1,0,0:0:0:0:
475,192,10502,1,0,0:0:0:0:
36,192,10502,1,0,0:0:0:0:
109,192,10588,1,0,0:0:0:0:
329,192,10674,1,0,0:0:0:0:
182,192,10674,1,0,0:0:0:0:
256,192,10846,1,0,0:0:0:0:
475,192,10846,1,0,0:0:0:0:
36,192,10846,1,0,0:0:0:0:
329,192,10933,1,0,0:0:0:0:
182,192,11019,1,0,0:0:0:0:
109,192,11019,1,0,0:0:0:0:
402,192,11019,1,0,0:0:0:0:
256,192,11191,1,0,0:0:0:0:
36,192,11191,1,0,0:0:0:0:
475,192,11191,1,0,0:0:0:0:
109,192,11364,1,0,0:0:0:0:
402,192,11364,1,0,0:0:0:0:
36,192,11536,1,0,0:0:0:0:
256,192,11536,1,0,0:0:0:0:
475,192,11536,1,0,0:0:0:0:
182,192,11708,1,0,0:0:0:0:
329,192,11708,1,0,0:0:0:0:
36,192,11881,1,0,0:0:0:0:
256,192,11881,1,0,0:0:0:0:
475,192,11881,1,0,0:0:0:0:
109,192,12053,1,0,0:0:0:0:
182,192,12053,1,0,0:0:0:0:
402,192,12053,1,0,0:0:0:0:
329,192,12053,1,0,0:0:0:0:
36,192,12226,1,0,0:0:0:0:
475,192,12226,1,0,0:0:0:0:
256,192,12226,1,0,0:0:0:0:
109,192,12398,1,0,0:0:0:0:
256,192,12398,1,0,0:0:0:0:
402,192,12398,1,0,0:0:0:0:
109,192,13605,1,0,0:0:0:0:
36,192,13605,1,0,0:0:0:0:
329,192,13605,1,0,0:0:0:0:
256,192,13605,128,0,13950:0:0:0:0:
182,192,13950,1,0,0:0:0:0:
402,192,13950,1,0,0:0:0:0:
475,192,13950,1,0,0:0:0:0:
329,192,14122,1,0,0:0:0:0:
109,192,14122,1,0,0:0:0:0:
36,192,14122,1,0,0:0:0:0:
182,192,14295,1,0,0:0:0:0:
256,192,14295,1,0,0:0:0:0:
402,192,14295,1,0,0:0:0:0:
475,192,14295,1,0,0:0:0:0:
329,192,14467,1,0,0:0:0:0:
109,192,14467,1,0,0:0:0:0:
36,192,14467,1,0,0:0:0:0:
256,192,14640,1,0,0:0:0:0:
402,192,14640,1,0,0:0:0:0:
475,192,14640,1,0,0:0:0:0:
182,192,14812,1,0,0:0:0:0:
329,192,14812,1,0,0:0:0:0:
109,192,14812,1,0,0:0:0:0:
256,192,14984,1,0,0:0:0:0:
36,192,14984,1,0,0:0:0:0:
329,192,15071,1,0,0:0:0:0:
109,192,15071,1,0,0:0:0:0:
402,192,15157,1,0,0:0:0:0:
182,192,15157,1,0,0:0:0:0:
402,192,15329,1,0,0:0:0:0:
329,192,15329,1,0,0:0:0:0:
475,192,15502,1,0,0:0:0:0:
182,192,15502,1,0,0:0:0:0:
402,192,15588,1,0,0:0:0:0:
109,192,15588,1,0,0:0:0:0:
36,192,15674,1,0,0:0:0:0:
329,192,15674,1,0,0:0:0:0:
182,192,15846,1,0,0:0:0:0:
109,192,15846,1,0,0:0:0:0:
109,192,16019,1,0,0:0:0:0:
329,192,16019,1,0,0:0:0:0:
182,192,16105,1,0,0:0:0:0:
402,192,16105,1,0,0:0:0:0:
256,192,16191,1,0,0:0:0:0:
475,192,16191,1,0,0:0:0:0:
182,192,16364,1,0,0:0:0:0:
475,192,16364,1,0,0:0:0:0:
109,192,16450,1,0,0:0:0:0:
402,192,16450,1,0,0:0:0:0:
36,192,16536,1,0,0:0:0:0:
329,192,16536,1,0,0:0:0:0:
256,192,16708,1,0,0:0:0:0:
109,192,16708,1,0,0:0:0:0:
182,192,16708,1,0,0:0:0:0:
402,192,16881,1,0,0:0:0:0:
475,192,16881,1,0,0:0:0:0:
36,192,16881,1,0,0:0:0:0:
256,192,17053,1,0,0:0:0:0:
329,192,17053,1,0,0:0:0:0:
182,192,17226,1,0,0:0:0:0:
109,192,17226,1,0,0:0:0:0:
402,192,17226,1,0,0:0:0:0:
36,192,17398,1,0,0:0:0:0:
256,192,17398,1,0,0:0:0:0:
329,192,17398,1,0,0:0:0:0:
182,192,17571,1,0,0:0:0:0:
109,192,17571,1,0,0:0:0:0:
402,192,17571,1,0,0:0:0:0:
475,192,17571,1,0,0:0:0:0:
329,192,17743,1,0,0:0:0:0:
36,192,17743,1,0,0:0:0:0:
402,192,17829,1,0,0:0:0:0:
109,192,17829,1,0,0:0:0:0:
475,192,17915,1,0,0:0:0:0:
182,192,17915,1,0,0:0:0:0:
256,192,18088,1,0,0:0:0:0:
36,192,18088,1,0,0:0:0:0:
109,192,18088,1,0,0:0:0:0:
329,192,18260,1,0,0:0:0:0:
475,192,18260,1,0,0:0:0:0:
256,192,18433,1,0,0:0:0:0:
182,192,18433,1,0,0:0:0:0:
109,192,18433,1,0,0:0:0:0:
402,192,18433,1,0,0:0:0:0:
36,192,18605,1,0,0:0:0:0:
329,192,18605,1,0,0:0:0:0:
256,192,18777,1,0,0:0:0:0:
475,192,18777,1,0,0:0:0:0:
402,192,18777,1,0,0:0:0:0:
36,192,18950,1,0,0:0:0:0:
109,192,18993,1,0,0:0:0:0:
182,192,19036,1,0,0:0:0:0:
256,192,19079,1,0,0:0:0:0:
475,192,19122,1,0,0:0:0:0:
402,192,19165,1,0,0:0:0:0:
329,192,19208,1,0,0:0:0:0:
36,192,19208,1,0,0:0:0:0:
109,192,19252,1,0,0:0:0:0:
182,192,19295,1,0,0:0:0:0:
256,192,19338,1,0,0:0:0:0:
329,192,19381,1,0,0:0:0:0:
402,192,19424,1,0,0:0:0:0:
109,192,19467,1,0,0:0:0:0:
475,192,19467,1,0,0:0:0:0:
36,192,19640,1,0,0:0:0:0:
182,192,19640,1,0,0:0:0:0:
329,192,19812,1,0,0:0:0:0:
109,192,19812,1,0,0:0:0:0:
475,192,19812,1,0,0:0:0:0:
182,192,19984,1,0,0:0:0:0:
256,192,19984,1,0,0:0:0:0:
36,192,19984,1,0,0:0:0:0:
109,192,20157,1,0,0:0:0:0:
329,192,20157,1,0,0:0:0:0:
402,192,20157,1,0,0:0:0:0:
256,192,20329,1,0,0:0:0:0:
182,192,20329,1,0,0:0:0:0:
36,192,20329,1,0,0:0:0:0:
475,192,20502,1,0,0:0:0:0:
402,192,20588,1,0,0:0:0:0:
109,192,20674,1,0,0:0:0:0:
36,192,20674,1,0,0:0:0:0:
256,192,20674,1,0,0:0:0:0:
329,192,20674,1,0,0:0:0:0:
182,192,20846,1,0,0:0:0:0:
402,192,20846,1,0,0:0:0:0:
475,192,21019,1,0,0:0:0:0:
36,192,21019,1,0,0:0:0:0:
109,192,21105,1,0,0:0:0:0:
329,192,21191,1,0,0:0:0:0:
402,192,21191,1,0,0:0:0:0:
182,192,21191,1,0,0:0:0:0:
256,192,21364,1,0,0:0:0:0:
109,192,21364,1,0,0:0:0:0:
36,192,21536,1,0,0:0:0:0:
329,192,21536,1,0,0:0:0:0:
182,192,21536,1,0,0:0:0:0:
402,192,21622,1,0,0:0:0:0:
109,192,21708,1,0,0:0:0:0:
475,192,21708,1,0,0:0:0:0:
256,192,21881,1,0,0:0:0:0:
36,192,21881,1,0,0:0:0:0:
329,192,21967,1,0,0:0:0:0:
402,192,22053,1,0,0:0:0:0:
109,192,22053,1,0,0:0:0:0:
182,192,22053,1,0,0:0:0:0:
329,192,22226,1,0,0:0:0:0:
475,192,22226,1,0,0:0:0:0:
36,192,22226,1,0,0:0:0:0:
402,192,22398,1,0,0:0:0:0:
256,192,22398,1,0,0:0:0:0:
109,192,22398,1,0,0:0:0:0:
182,192,22571,1,0,0:0:0:0:
329,192,22571,1,0,0:0:0:0:
475,192,22571,1,0,0:0:0:0:
109,192,22743,1,0,0:0:0:0:
256,192,22743,1,0,0:0:0:0:
36,192,22743,1,0,0:0:0:0:
182,192,22915,1,0,0:0:0:0:
329,192,22915,1,0,0:0:0:0:
402,192,22915,1,0,0:0:0:0:
109,192,23088,1,0,0:0:0:0:
36,192,23088,1,0,0:0:0:0:
475,192,23088,1,0,0:0:0:0:
182,192,23260,1,0,0:0:0:0:
256,192,23260,1,0,0:0:0:0:
109,192,23346,1,0,0:0:0:0:
329,192,23346,1,0,0:0:0:0:
402,192,23433,1,0,0:0:0:0:
36,192,23433,1,0,0:0:0:0:
475,192,23433,1,0,0:0:0:0:
256,192,23605,1,0,0:0:0:0:
329,192,23605,1,0,0:0:0:0:
109,192,23605,1,0,0:0:0:0:
475,192,23777,1,0,0:0:0:0:
402,192,23864,1,0,0:0:0:0:
329,192,23950,1,0,0:0:0:0:
36,192,23950,1,0,0:0:0:0:
182,192,23950,1,0,0:0:0:0:
36,192,24122,1,0,0:0:0:0:
109,192,24208,1,0,0:0:0:0:
182,192,24295,1,0,0:0:0:0:
329,192,24295,1,0,0:0:0:0:
475,192,24295,1,0,0:0:0:0:
36,192,24467,1,0,0:0:0:0:
109,192,24467,1,0,0:0:0:0:
182,192,24467,1,0,0:0:0:0:
329,192,24553,1,0,0:0:0:0:
402,192,24553,1,0,0:0:0:0:
475,192,24553,1,0,0:0:0:0:
182,192,24640,1,0,0:0:0:0:
109,192,24640,1,0,0:0:0:0:
36,192,24640,1,0,0:0:0:0:
402,192,24726,1,0,0:0:0:0:
475,192,24726,1,0,0:0:0:0:
329,192,24726,1,0,0:0:0:0:
182,192,24812,1,0,0:0:0:0:
109,192,24812,1,0,0:0:0:0:
36,192,24812,1,0,0:0:0:0:
329,192,24898,1,0,0:0:0:0:
402,192,24898,1,0,0:0:0:0:
475,192,24898,1,0,0:0:0:0:
182,192,24984,1,0,0:0:0:0:
109,192,24984,1,0,0:0:0:0:
36,192,24984,1,0,0:0:0:0:
256,192,25157,1,0,0:0:0:0:
475,192,25157,1,0,0:0:0:0:
402,192,25157,1,0,0:0:0:0:
182,192,25329,1,0,0:0:0:0:
329,192,25329,1,0,0:0:0:0:
109,192,25329,1,0,0:0:0:0:
256,192,25502,1,0,0:0:0:0:
475,192,25502,1,0,0:0:0:0:
182,192,25674,1,0,0:0:0:0:
36,192,25674,1,0,0:0:0:0:
329,192,25674,1,0,0:0:0:0:
109,192,25846,1,0,0:0:0:0:
256,192,25846,1,0,0:0:0:0:
402,192,25846,1,0,0:0:0:0:
475,192,25846,1,0,0:0:0:0:
329,192,26019,1,0,0:0:0:0:
182,192,26019,1,0,0:0:0:0:
256,192,26191,1,0,0:0:0:0:
402,192,26191,1,0,0:0:0:0:
475,192,26191,1,0,0:0:0:0:
329,192,26364,1,0,0:0:0:0:
182,192,26364,1,0,0:0:0:0:
109,192,26364,1,0,0:0:0:0:
36,192,26364,1,0,0:0:0:0:
256,192,26536,1,0,0:0:0:0:
402,192,26536,1,0,0:0:0:0:
475,192,26536,1,0,0:0:0:0:
329,192,26708,1,0,0:0:0:0:
182,192,26708,1,0,0:0:0:0:
109,192,26708,1,0,0:0:0:0:
256,192,26881,1,0,0:0:0:0:
402,192,26881,1,0,0:0:0:0:
182,192,27053,1,0,0:0:0:0:
109,192,27053,1,0,0:0:0:0:
36,192,27053,1,0,0:0:0:0:
329,192,27053,1,0,0:0:0:0:
475,192,27226,1,0,0:0:0:0:
402,192,27226,1,0,0:0:0:0:
256,192,27226,1,0,0:0:0:0:
182,192,27398,1,0,0:0:0:0:
329,192,27398,1,0,0:0:0:0:
109,192,27571,1,0,0:0:0:0:
36,192,27571,1,0,0:0:0:0:
402,192,27571,1,0,0:0:0:0:
182,192,27743,1,0,0:0:0:0:
256,192,27743,1,0,0:0:0:0:
475,192,27743,1,0,0:0:0:0:
329,192,27915,1,0,0:0:0:0:
402,192,27915,1,0,0:0:0:0:
109,192,27915,1,0,0:0:0:0:
182,192,28088,1,0,0:0:0:0:
256,192,28088,1,0,0:0:0:0:
36,192,28088,1,0,0:0:0:0:
109,192,28260,1,0,0:0:0:0:
402,192,28260,1,0,0:0:0:0:
475,192,28260,1,0,0:0:0:0:
256,192,28433,1,0,0:0:0:0:
329,192,28433,1,0,0:0:0:0:
36,192,28433,1,0,0:0:0:0:
182,192,28605,1,0,0:0:0:0:
402,192,28605,1,0,0:0:0:0:
475,192,28605,1,0,0:0:0:0:
329,192,28777,1,0,0:0:0:0:
256,192,28777,1,0,0:0:0:0:
109,192,28777,1,0,0:0:0:0:
36,192,28950,1,0,0:0:0:0:
182,192,28950,1,0,0:0:0:0:
402,192,28950,1,0,0:0:0:0:
109,192,29122,1,0,0:0:0:0:
256,192,29122,1,0,0:0:0:0:
329,192,29122,1,0,0:0:0:0:
182,192,29295,1,0,0:0:0:0:
402,192,29295,1,0,0:0:0:0:
475,192,29295,1,0,0:0:0:0:
329,192,29467,1,0,0:0:0:0:
36,192,29467,1,0,0:0:0:0:
256,192,29467,1,0,0:0:0:0:
109,192,29640,1,0,0:0:0:0:
182,192,29640,1,0,0:0:0:0:
402,192,29640,1,0,0:0:0:0:
256,192,29812,1,0,0:0:0:0:
329,192,29812,1,0,0:0:0:0:
475,192,29812,1,0,0:0:0:0:
36,192,29812,1,0,0:0:0:0:
182,192,29984,1,0,0:0:0:0:
109,192,29984,1,0,0:0:0:0:
329,192,30157,1,0,0:0:0:0:
402,192,30157,1,0,0:0:0:0:
475,192,30157,1,0,0:0:0:0:
182,192,30329,1,0,0:0:0:0:
109,192,30329,1,0,0:0:0:0:
36,192,30329,1,0,0:0:0:0:
329,192,30502,1,0,0:0:0:0:
402,192,30502,1,0,0:0:0:0:
475,192,30502,1,0,0:0:0:0:
256,192,30502,1,0,0:0:0:0:
182,192,30674,1,0,0:0:0:0:
109,192,30674,1,0,0:0:0:0:
329,192,30846,1,0,0:0:0:0:
36,192,30846,1,0,0:0:0:0:
256,192,30846,1,0,0:0:0:0:
182,192,31019,1,0,0:0:0:0:
109,192,31019,1,0,0:0:0:0:
402,192,31019,1,0,0:0:0:0:
256,192,31191,1,0,0:0:0:0:
329,192,31191,1,0,0:0:0:0:
475,192,31191,1,0,0:0:0:0:
182,192,31364,1,0,0:0:0:0:
109,192,31364,1,0,0:0:0:0:
329,192,31536,1,0,0:0:0:0:
402,192,31536,1,0,0:0:0:0:
36,192,31536,1,0,0:0:0:0:
182,192,31708,1,0,0:0:0:0:
256,192,31708,1,0,0:0:0:0:
109,192,31708,1,0,0:0:0:0:
402,192,31881,1,0,0:0:0:0:
475,192,31881,1,0,0:0:0:0:
36,192,31881,1,0,0:0:0:0:
182,192,32053,1,0,0:0:0:0:
256,192,32053,1,0,0:0:0:0:
109,192,32226,1,0,0:0:0:0:
329,192,32226,1,0,0:0:0:0:
402,192,32226,1,0,0:0:0:0:
182,192,32398,1,0,0:0:0:0:
475,192,32398,1,0,0:0:0:0:
36,192,32398,1,0,0:0:0:0:
109,192,32571,1,0,0:0:0:0:
256,192,32571,1,0,0:0:0:0:
402,192,32571,1,0,0:0:0:0:
329,192,32743,1,0,0:0:0:0:
475,192,32743,1,0,0:0:0:0:
402,192,32915,1,0,0:0:0:0:
182,192,32915,1,0,0:0:0:0:
109,192,32915,1,0,0:0:0:0:
256,192,33088,1,0,0:0:0:0:
329,192,33088,1,0,0:0:0:0:
182,192,33260,1,0,0:0:0:0:
109,192,33260,1,0,0:0:0:0:
36,192,33260,1,0,0:0:0:0:
475,192,33260,1,0,0:0:0:0:
329,192,33433,1,0,0:0:0:0:
402,192,33433,1,0,0:0:0:0:
182,192,33605,1,0,0:0:0:0:
109,192,33605,1,0,0:0:0:0:
256,192,33605,1,0,0:0:0:0:
329,192,33777,1,0,0:0:0:0:
36,192,33777,1,0,0:0:0:0:
402,192,33777,1,0,0:0:0:0:
329,192,34122,1,0,0:0:0:0:
402,192,34122,1,0,0:0:0:0:
36,192,34122,1,0,0:0:0:0:
109,192,34295,1,0,0:0:0:0:
256,192,34295,1,0,0:0:0:0:
182,192,34295,1,0,0:0:0:0:
475,192,34467,1,0,0:0:0:0:
402,192,34467,1,0,0:0:0:0:
256,192,34640,1,0,0:0:0:0:
36,192,34640,1,0,0:0:0:0:
329,192,34640,1,0,0:0:0:0:
329,192,34898,1,0,0:0:0:0:
475,192,34898,1,0,0:0:0:0:
402,192,34898,1,0,0:0:0:0:
109,192,34984,1,0,0:0:0:0:
36,192,34984,1,0,0:0:0:0:
182,192,34984,1,0,0:0:0:0:
329,192,35157,1,0,0:0:0:0:
182,192,35157,1,0,0:0:0:0:
256,192,35329,1,0,0:0:0:0:
402,192,35329,1,0,0:0:0:0:
475,192,35329,1,0,0:0:0:0:
109,192,35329,1,0,0:0:0:0:
36,192,35329,1,0,0:0:0:0:
182,192,35502,1,0,0:0:0:0:
329,192,35502,1,0,0:0:0:0:
109,192,35674,1,0,0:0:0:0:
36,192,35674,1,0,0:0:0:0:
402,192,35674,1,0,0:0:0:0:
475,192,35674,1,0,0:0:0:0:
36,192,36019,1,0,0:0:0:0:
109,192,36019,1,0,0:0:0:0:
402,192,36019,1,0,0:0:0:0:
475,192,36019,1,0,0:0:0:0:
329,192,36191,1,0,0:0:0:0:
256,192,36191,1,0,0:0:0:0:
109,192,36364,1,0,0:0:0:0:
36,192,36364,1,0,0:0:0:0:
182,192,36364,1,0,0:0:0:0:
329,192,36536,1,0,0:0:0:0:
402,192,36536,1,0,0:0:0:0:
182,192,36708,1,0,0:0:0:0:
109,192,36708,1,0,0:0:0:0:
256,192,36881,1,0,0:0:0:0:
329,192,36881,1,0,0:0:0:0:
109,192,37053,1,0,0:0:0:0:
36,192,37053,1,0,0:0:0:0:
256,192,37140,1,0,0:0:0:0:
182,192,37140,1,0,0:0:0:0:
329,192,37226,1,0,0:0:0:0:
402,192,37226,1,0,0:0:0:0:
109,192,37398,1,0,0:0:0:0:
256,192,37398,1,0,0:0:0:0:
36,192,37398,1,0,0:0:0:0:
402,192,37571,1,0,0:0:0:0:
329,192,37571,1,0,0:0:0:0:
256,192,37657,1,0,0:0:0:0:
182,192,37657,1,0,0:0:0:0:
109,192,37743,1,0,0:0:0:0:
36,192,37743,1,0,0:0:0:0:
475,192,37915,1,0,0:0:0:0:
182,192,37915,1,0,0:0:0:0:
256,192,37915,1,0,0:0:0:0:
36,192,38088,1,0,0:0:0:0:
109,192,38088,1,0,0:0:0:0:
182,192,38174,1,0,0:0:0:0:
256,192,38174,1,0,0:0:0:0:
402,192,38260,1,0,0:0:0:0:
329,192,38260,1,0,0:0:0:0:
475,192,38433,1,0,0:0:0:0:
402,192,38433,1,0,0:0:0:0:
329,192,38519,1,0,0:0:0:0:
256,192,38519,1,0,0:0:0:0:
182,192,38605,1,0,0:0:0:0:
109,192,38605,1,0,0:0:0:0:
329,192,38777,1,0,0:0:0:0:
402,192,38777,1,0,0:0:0:0:
475,192,38777,1,0,0:0:0:0:
36,192,38777,1,0,0:0:0:0:
182,192,38950,1,0,0:0:0:0:
256,192,38950,1,0,0:0:0:0:
109,192,39122,1,0,0:0:0:0:
36,192,39122,1,0,0:0:0:0:
329,192,39122,1,0,0:0:0:0:
256,192,39295,1,0,0:0:0:0:
402,192,39295,1,0,0:0:0:0:
475,192,39295,1,0,0:0:0:0:
329,192,39467,1,0,0:0:0:0:
182,192,39467,1,0,0:0:0:0:
256,192,39640,1,0,0:0:0:0:
402,192,39640,1,0,0:0:0:0:
109,192,39640,1,0,0:0:0:0:
109,192,39812,1,0,0:0:0:0:
36,192,39812,1,0,0:0:0:0:
329,192,39898,1,0,0:0:0:0:
182,192,39898,1,0,0:0:0:0:
402,192,39984,1,0,0:0:0:0:
475,192,39984,1,0,0:0:0:0:
256,192,40157,1,0,0:0:0:0:
109,192,40157,1,0,0:0:0:0:
36,192,40157,1,0,0:0:0:0:
182,192,40329,1,0,0:0:0:0:
329,192,40329,1,0,0:0:0:0:
475,192,40329,1,0,0:0:0:0:
402,192,40502,1,0,0:0:0:0:
256,192,40502,1,0,0:0:0:0:
36,192,40502,1,0,0:0:0:0:
109,192,40674,1,0,0:0:0:0:
182,192,40674,1,0,0:0:0:0:
329,192,40674,1,0,0:0:0:0:
256,192,40846,1,0,0:0:0:0:
402,192,40846,1,0,0:0:0:0:
475,192,40846,1,0,0:0:0:0:
36,192,41019,1,0,0:0:0:0:
109,192,41062,1,0,0:0:0:0:
475,192,41105,1,0,0:0:0:0:
182,192,41105,1,0,0:0:0:0:
402,192,41148,1,0,0:0:0:0:
36,192,41148,1,0,0:0:0:0:
329,192,41191,1,0,0:0:0:0:
109,192,41191,1,0,0:0:0:0:
182,192,41234,1,0,0:0:0:0:
475,192,41277,1,0,0:0:0:0:
402,192,41321,1,0,0:0:0:0:
329,192,41364,1,0,0:0:0:0:
256,192,41407,1,0,0:0:0:0:
182,192,41450,1,0,0:0:0:0:
109,192,41493,1,0,0:0:0:0:
402,192,41536,1,0,0:0:0:0:
475,192,41536,1,0,0:0:0:0:
329,192,41536,1,0,0:0:0:0:
36,192,41536,1,0,0:0:0:0:
109,192,41708,1,0,0:0:0:0:
256,192,41708,1,0,0:0:0:0:
182,192,41881,1,0,0:0:0:0:
329,192,41881,1,0,0:0:0:0:
402,192,41881,1,0,0:0:0:0:
256,192,42053,1,0,0:0:0:0:
109,192,42053,1,0,0:0:0:0:
329,192,42226,1,0,0:0:0:0:
402,192,42226,1,0,0:0:0:0:
475,192,42226,1,0,0:0:0:0:
182,192,42398,1,0,0:0:0:0:
109,192,42398,1,0,0:0:0:0:
36,192,42398,1,0,0:0:0:0:
402,192,42571,1,0,0:0:0:0:
475,192,42571,1,0,0:0:0:0:
329,192,42657,1,0,0:0:0:0:
182,192,42743,1,0,0:0:0:0:
256,192,42743,1,0,0:0:0:0:
109,192,42829,1,0,0:0:0:0:
36,192,42915,1,0,0:0:0:0:
402,192,42915,1,0,0:0:0:0:
475,192,42915,1,0,0:0:0:0:
182,192,43088,1,0,0:0:0:0:
329,192,43088,1,0,0:0:0:0:
256,192,43088,1,0,0:0:0:0:
109,192,43174,1,0,0:0:0:0:
36,192,43260,1,0,0:0:0:0:
402,192,43260,1,0,0:0:0:0:
329,192,43433,1,0,0:0:0:0:
182,192,43433,1,0,0:0:0:0:
475,192,43433,1,0,0:0:0:0:
256,192,43605,1,0,0:0:0:0:
109,192,43605,1,0,0:0:0:0:
36,192,43605,1,0,0:0:0:0:
329,192,43691,1,0,0:0:0:0:
402,192,43777,1,0,0:0:0:0:
475,192,43777,1,0,0:0:0:0:
182,192,43950,1,0,0:0:0:0:
475,192,43950,1,0,0:0:0:0:
402,192,44036,1,0,0:0:0:0:
109,192,44122,1,0,0:0:0:0:
256,192,44122,1,0,0:0:0:0:
329,192,44122,1,0,0:0:0:0:
402,192,44295,1,0,0:0:0:0:
475,192,44295,1,0,0:0:0:0:
182,192,44295,1,0,0:0:0:0:
36,192,44295,1,0,0:0:0:0:
109,192,44467,1,0,0:0:0:0:
329,192,44467,1,0,0:0:0:0:
256,192,44640,1,0,0:0:0:0:
402,192,44640,1,0,0:0:0:0:
329,192,44812,1,0,0:0:0:0:
475,192,44812,1,0,0:0:0:0:
182,192,44812,1,0,0:0:0:0:
256,192,44984,1,0,0:0:0:0:
109,192,44984,1,0,0:0:0:0:
36,192,44984,1,0,0:0:0:0:
182,192,45157,1,0,0:0:0:0:
329,192,45157,1,0,0:0:0:0:
402,192,45157,1,0,0:0:0:0:
256,192,45329,1,0,0:0:0:0:
475,192,45329,1,0,0:0:0:0:
109,192,45329,1,0,0:0:0:0:
402,192,45415,1,0,0:0:0:0:
182,192,45502,1,0,0:0:0:0:
36,192,45502,1,0,0:0:0:0:
329,192,45502,1,0,0:0:0:0:
256,192,45674,1,0,0:0:0:0:
402,192,45674,1,0,0:0:0:0:
475,192,45674,1,0,0:0:0:0:
182,192,45846,1,0,0:0:0:0:
109,192,45846,1,0,0:0:0:0:
329,192,45846,1,0,0:0:0:0:
36,192,46019,1,0,0:0:0:0:
256,192,46019,1,0,0:0:0:0:
402,192,46019,1,0,0:0:0:0:
329,192,46191,1,0,0:0:0:0:
475,192,46191,1,0,0:0:0:0:
256,192,46364,1,0,0:0:0:0:
182,192,46364,1,0,0:0:0:0:
109,192,46364,1,0,0:0:0:0:
329,192,46536,1,0,0:0:0:0:
402,192,46536,1,0,0:0:0:0:
36,192,46536,1,0,0:0:0:0:
256,192,46708,1,0,0:0:0:0:
475,192,46708,1,0,0:0:0:0:
109,192,46708,1,0,0:0:0:0:
182,192,46708,1,0,0:0:0:0:
329,192,47053,128,0,48088:0:0:0:0:
36,192,47053,128,0,47398:0:0:0:0:
109,192,47053,1,0,0:0:0:0:
182,192,47053,1,0,0:0:0:0:
182,192,47571,1,0,0:0:0:0:
256,192,47571,1,0,0:0:0:0:
109,192,47571,128,0,47915:0:0:0:0:
36,192,47915,128,0,48088:0:0:0:0:
475,192,48088,1,0,0:0:0:0:
256,192,48088,128,0,48260:0:0:0:0:
182,192,48260,128,0,48433:0:0:0:0:
402,192,48260,1,0,0:0:0:0:
329,192,48433,1,0,0:0:0:0:
109,192,48433,128,0,48605:0:0:0:0:
36,192,48433,128,0,48605:0:0:0:0:
475,192,48433,128,0,48777:0:0:0:0:
256,192,48605,128,0,48691:0:0:0:0:
402,192,48777,1,0,0:0:0:0:
329,192,48777,128,0,48950:0:0:0:0:
36,192,48950,128,0,49122:0:0:0:0:
109,192,48950,128,0,49122:0:0:0:0:
475,192,48950,128,0,49122:0:0:0:0:
182,192,48950,1,0,0:0:0:0:
402,192,49122,1,0,0:0:0:0:
256,192,49122,128,0,49295:0:0:0:0:
109,192,49295,1,0,0:0:0:0:
36,192,49295,1,0,0:0:0:0:
329,192,49295,1,0,0:0:0:0:
182,192,49295,128,0,49467:0:0:0:0:
402,192,49467,1,0,0:0:0:0:
475,192,49467,1,0,0:0:0:0:
256,192,49467,1,0,0:0:0:0:
109,192,49640,1,0,0:0:0:0:
36,192,49640,1,0,0:0:0:0:
329,192,49640,1,0,0:0:0:0:
182,192,49812,1,0,0:0:0:0:
256,192,49812,1,0,0:0:0:0:
329,192,49898,1,0,0:0:0:0:
402,192,49898,1,0,0:0:0:0:
109,192,49984,1,0,0:0:0:0:
36,192,49984,1,0,0:0:0:0:
182,192,50071,1,0,0:0:0:0:
256,192,50071,1,0,0:0:0:0:
475,192,50157,1,0,0:0:0:0:
402,192,50157,1,0,0:0:0:0:
109,192,50157,1,0,0:0:0:0:
182,192,50329,128,0,50502:0:0:0:0:
329,192,50329,128,0,50502:0:0:0:0:
256,192,50502,128,0,50846:0:0:0:0:
475,192,50674,128,0,50846:0:0:0:0:
36,192,50674,128,0,50846:0:0:0:0:
329,192,51019,1,0,0:0:0:0:
402,192,51019,1,0,0:0:0:0:
182,192,51105,1,0,0:0:0:0:
109,192,51105,1,0,0:0:0:0:
36,192,51191,1,0,0:0:0:0:
329,192,51191,128,0,51364:0:0:0:0:
256,192,51191,1,0,0:0:0:0:
182,192,51277,1,0,0:0:0:0:
402,192,51364,1,0,0:0:0:0:
475,192,51364,1,0,0:0:0:0:
109,192,51364,128,0,51536:0:0:0:0:
402,192,51536,1,0,0:0:0:0:
329,192,51536,1,0,0:0:0:0:
36,192,51536,128,0,51708:0:0:0:0:
256,192,51536,1,0,0:0:0:0:
329,192,51708,128,0,51881:0:0:0:0:
256,192,51708,1,0,0:0:0:0:
182,192,51708,1,0,0:0:0:0:
109,192,51708,1,0,0:0:0:0:
36,192,51881,1,0,0:0:0:0:
182,192,51881,1,0,0:0:0:0:
109,192,51881,1,0,0:0:0:0:
329,192,52053,1,0,0:0:0:0:
256,192,52053,1,0,0:0:0:0:
475,192,52053,128,0,52226:0:0:0:0:
182,192,52226,1,0,0:0:0:0:
36,192,52226,1,0,0:0:0:0:
402,192,52226,128,0,52398:0:0:0:0:
109,192,52398,1,0,0:0:0:0:
329,192,52398,128,0,52571:0:0:0:0:
182,192,52571,128,0,53605:0:0:0:0:
475,192,52571,128,0,52915:0:0:0:0:
402,192,52571,1,0,0:0:0:0:
36,192,52571,1,0,0:0:0:0:
329,192,53088,1,0,0:0:0:0:
256,192,53088,1,0,0:0:0:0:
402,192,53088,128,0,53433:0:0:0:0:
475,192,53433,128,0,53605:0:0:0:0:
36,192,53605,1,0,0:0:0:0:
256,192,53605,128,0,53777:0:0:0:0:
329,192,53777,128,0,53950:0:0:0:0:
109,192,53777,1,0,0:0:0:0:
109,192,53950,1,0,0:0:0:0:
182,192,53950,1,0,0:0:0:0:
402,192,53950,128,0,54122:0:0:0:0:
475,192,53950,128,0,54122:0:0:0:0:
36,192,53950,128,0,54295:0:0:0:0:
256,192,54122,128,0,54208:0:0:0:0:
109,192,54295,1,0,0:0:0:0:
182,192,54295,128,0,54467:0:0:0:0:
109,192,54467,128,0,54640:0:0:0:0:
402,192,54467,128,0,54640:0:0:0:0:
329,192,54467,1,0,0:0:0:0:
475,192,54467,128,0,54640:0:0:0:0:
36,192,54640,1,0,0:0:0:0:
256,192,54640,128,0,54812:0:0:0:0:
109,192,54812,1,0,0:0:0:0:
402,192,54812,1,0,0:0:0:0:
329,192,54812,128,0,54984:0:0:0:0:
182,192,54812,128,0,55157:0:0:0:0:
36,192,54984,1,0,0:0:0:0:
475,192,54984,128,0,55157:0:0:0:0:
109,192,54984,1,0,0:0:0:0:
109,192,55157,128,0,55329:0:0:0:0:
402,192,55157,1,0,0:0:0:0:
36,192,55329,1,0,0:0:0:0:
256,192,55329,1,0,0:0:0:0:
329,192,55329,1,0,0:0:0:0:
402,192,55415,1,0,0:0:0:0:
475,192,55415,1,0,0:0:0:0:
182,192,55502,1,0,0:0:0:0:
109,192,55502,1,0,0:0:0:0:
256,192,55588,1,0,0:0:0:0:
329,192,55588,1,0,0:0:0:0:
36,192,55674,1,0,0:0:0:0:
475,192,55674,1,0,0:0:0:0:
182,192,55674,1,0,0:0:0:0:
402,192,55846,128,0,56019:0:0:0:0:
256,192,55846,128,0,56019:0:0:0:0:
109,192,55846,128,0,56019:0:0:0:0:
329,192,56019,128,0,56364:0:0:0:0:
182,192,56019,128,0,56364:0:0:0:0:
475,192,56191,128,0,56364:0:0:0:0:
36,192,56191,128,0,56364:0:0:0:0:
475,192,56536,1,0,0:0:0:0:
182,192,56536,1,0,0:0:0:0:
109,192,56622,1,0,0:0:0:0:
36,192,56708,1,0,0:0:0:0:
402,192,56708,1,0,0:0:0:0:
256,192,56795,1,0,0:0:0:0:
182,192,56795,1,0,0:0:0:0:
36,192,56881,1,0,0:0:0:0:
329,192,56881,1,0,0:0:0:0:
109,192,56967,1,0,0:0:0:0:
475,192,57053,1,0,0:0:0:0:
182,192,57053,1,0,0:0:0:0:
329,192,57140,1,0,0:0:0:0:
475,192,57226,1,0,0:0:0:0:
182,192,57226,1,0,0:0:0:0:
109,192,57312,1,0,0:0:0:0:
36,192,57398,1,0,0:0:0:0:
475,192,57398,1,0,0:0:0:0:
256,192,57398,1,0,0:0:0:0:
182,192,57484,1,0,0:0:0:0:
402,192,57484,1,0,0:0:0:0:
329,192,57571,1,0,0:0:0:0:
109,192,57571,1,0,0:0:0:0:
36,192,57657,1,0,0:0:0:0:
256,192,57657,1,0,0:0:0:0:
475,192,57657,1,0,0:0:0:0:
182,192,57743,1,0,0:0:0:0:
402,192,57743,1,0,0:0:0:0:
109,192,57829,1,0,0:0:0:0:
329,192,57829,1,0,0:0:0:0:
36,192,57915,1,0,0:0:0:0:
256,192,57915,1,0,0:0:0:0:
475,192,57958,1,0,0:0:0:0:
402,192,58002,1,0,0:0:0:0:
329,192,58045,1,0,0:0:0:0:
256,192,58088,1,0,0:0:0:0:
109,192,58088,1,0,0:0:0:0:
36,192,58088,1,0,0:0:0:0:
329,192,58260,1,0,0:0:0:0:
402,192,58346,1,0,0:0:0:0:
475,192,58433,1,0,0:0:0:0:
109,192,58433,1,0,0:0:0:0:
402,192,58519,1,0,0:0:0:0:
329,192,58605,1,0,0:0:0:0:
256,192,58691,1,0,0:0:0:0:
182,192,58777,1,0,0:0:0:0:
402,192,58777,1,0,0:0:0:0:
109,192,58864,1,0,0:0:0:0:
182,192,58950,1,0,0:0:0:0:
256,192,59036,1,0,0:0:0:0:
109,192,59122,1,0,0:0:0:0:
329,192,59122,1,0,0:0:0:0:
36,192,59122,1,0,0:0:0:0:
402,192,59208,1,0,0:0:0:0:
475,192,59295,1,0,0:0:0:0:
402,192,59381,1,0,0:0:0:0:
329,192,59467,1,0,0:0:0:0:
109,192,59467,1,0,0:0:0:0:
36,192,59467,1,0,0:0:0:0:
256,192,59553,1,0,0:0:0:0:
182,192,59640,1,0,0:0:0:0:
109,192,59726,1,0,0:0:0:0:
475,192,59812,1,0,0:0:0:0:
402,192,59812,1,0,0:0:0:0:
36,192,59812,1,0,0:0:0:0:
109,192,59898,1,0,0:0:0:0:
182,192,59984,1,0,0:0:0:0:
256,192,60071,1,0,0:0:0:0:
329,192,60157,1,0,0:0:0:0:
36,192,60157,1,0,0:0:0:0:
109,192,60157,1,0,0:0:0:0:
402,192,60243,1,0,0:0:0:0:
329,192,60329,1,0,0:0:0:0:
256,192,60415,1,0,0:0:0:0:
182,192,60502,1,0,0:0:0:0:
475,192,60502,1,0,0:0:0:0:
402,192,60502,1,0,0:0:0:0:
109,192,60588,1,0,0:0:0:0:
36,192,60674,1,0,0:0:0:0:
109,192,60717,1,0,0:0:0:0:
182,192,60760,1,0,0:0:0:0:
256,192,60803,1,0,0:0:0:0:
329,192,60846,1,0,0:0:0:0:
402,192,60846,1,0,0:0:0:0:
475,192,60846,1,0,0:0:0:0:
36,192,60933,1,0,0:0:0:0:
109,192,61019,1,0,0:0:0:0:
182,192,61105,1,0,0:0:0:0:
256,192,61191,1,0,0:0:0:0:
329,192,61277,1,0,0:0:0:0:
402,192,61364,1,0,0:0:0:0:
475,192,61364,1,0,0:0:0:0:
329,192,61450,1,0,0:0:0:0:
256,192,61536,1,0,0:0:0:0:
36,192,61536,1,0,0:0:0:0:
182,192,61622,1,0,0:0:0:0:
109,192,61708,1,0,0:0:0:0:
182,192,61795,1,0,0:0:0:0:
475,192,61881,1,0,0:0:0:0:
256,192,61881,1,0,0:0:0:0:
329,192,61967,1,0,0:0:0:0:
256,192,62053,1,0,0:0:0:0:
182,192,62140,1,0,0:0:0:0:
109,192,62226,1,0,0:0:0:0:
36,192,62226,1,0,0:0:0:0:
182,192,62312,1,0,0:0:0:0:
256,192,62398,1,0,0:0:0:0:
329,192,62484,1,0,0:0:0:0:
182,192,62571,1,0,0:0:0:0:
256,192,62657,1,0,0:0:0:0:
329,192,62743,1,0,0:0:0:0:
475,192,62743,1,0,0:0:0:0:
256,192,62829,1,0,0:0:0:0:
182,192,62915,1,0,0:0:0:0:
109,192,63002,1,0,0:0:0:0:
475,192,63088,1,0,0:0:0:0:
402,192,63088,1,0,0:0:0:0:
36,192,63088,1,0,0:0:0:0:
109,192,63174,1,0,0:0:0:0:
256,192,63260,1,0,0:0:0:0:
329,192,63260,1,0,0:0:0:0:
182,192,63260,1,0,0:0:0:0:
402,192,63346,1,0,0:0:0:0:
475,192,63433,1,0,0:0:0:0:
402,192,63476,1,0,0:0:0:0:
329,192,63519,1,0,0:0:0:0:
256,192,63562,1,0,0:0:0:0:
182,192,63605,1,0,0:0:0:0:
109,192,63605,1,0,0:0:0:0:
36,192,63605,1,0,0:0:0:0:
402,192,63777,1,0,0:0:0:0:
475,192,63777,1,0,0:0:0:0:
109,192,63950,1,0,0:0:0:0:
36,192,63950,1,0,0:0:0:0:
402,192,64122,1,0,0:0:0:0:
475,192,64122,1,0,0:0:0:0:
36,192,64295,1,0,0:0:0:0:
109,192,64295,1,0,0:0:0:0:
402,192,64467,1,0,0:0:0:0:
475,192,64467,1,0,0:0:0:0:
109,192,64640,1,0,0:0:0:0:
36,192,64640,1,0,0:0:0:0:
402,192,64812,1,0,0:0:0:0:
475,192,64812,1,0,0:0:0:0:
36,192,64984,1,0,0:0:0:0:
109,192,64984,1,0,0:0:0:0:
182,192,64984,1,0,0:0:0:0:
329,192,65157,1,0,0:0:0:0:
402,192,65157,1,0,0:0:0:0:
475,192,65157,1,0,0:0:0:0:
182,192,65329,1,0,0:0:0:0:
109,192,65329,1,0,0:0:0:0:
36,192,65329,1,0,0:0:0:0:
329,192,65502,1,0,0:0:0:0:
402,192,65502,1,0,0:0:0:0:
475,192,65502,1,0,0:0:0:0:
182,192,65674,1,0,0:0:0:0:
109,192,65674,1,0,0:0:0:0:
36,192,65674,1,0,0:0:0:0:
329,192,65846,1,0,0:0:0:0:
402,192,65846,1,0,0:0:0:0:
475,192,65846,1,0,0:0:0:0:
182,192,66019,1,0,0:0:0:0:
109,192,66019,1,0,0:0:0:0:
36,192,66019,1,0,0:0:0:0:
475,192,66191,1,0,0:0:0:0:
402,192,66191,1,0,0:0:0:0:
329,192,66191,1,0,0:0:0:0:
109,192,66364,1,0,0:0:0:0:
36,192,66364,1,0,0:0:0:0:
182,192,66364,1,0,0:0:0:0:
329,192,66450,1,0,0:0:0:0:
402,192,66450,1,0,0:0:0:0:
475,192,66450,1,0,0:0:0:0:
182,192,66536,1,0,0:0:0:0:
109,192,66536,1,0,0:0:0:0:
36,192,66536,1,0,0:0:0:0:
329,192,66622,1,0,0:0:0:0:
402,192,66622,1,0,0:0:0:0:
475,192,66622,1,0,0:0:0:0:
182,192,66708,1,0,0:0:0:0:
109,192,66708,1,0,0:0:0:0:
36,192,66708,1,0,0:0:0:0:
329,192,66795,1,0,0:0:0:0:
402,192,66795,1,0,0:0:0:0:
475,192,66795,1,0,0:0:0:0:
182,192,66881,1,0,0:0:0:0:
109,192,66881,1,0,0:0:0:0:
36,192,66881,1,0,0:0:0:0:
329,192,66967,1,0,0:0:0:0:
402,192,66967,1,0,0:0:0:0:
475,192,66967,1,0,0:0:0:0:
182,192,67053,1,0,0:0:0:0:
109,192,67053,1,0,0:0:0:0:
36,192,67053,1,0,0:0:0:0:
329,192,67140,1,0,0:0:0:0:
402,192,67140,1,0,0:0:0:0:
475,192,67140,1,0,0:0:0:0:
256,192,67183,1,0,0:0:0:0:
182,192,67226,1,0,0:0:0:0:
36,192,67269,1,0,0:0:0:0:
109,192,67269,1,0,0:0:0:0:
329,192,67355,1,0,0:0:0:0:
402,192,67355,1,0,0:0:0:0:
475,192,67355,1,0,0:0:0:0:
182,192,67441,1,0,0:0:0:0:
109,192,67441,1,0,0:0:0:0:
36,192,67441,1,0,0:0:0:0:
329,192,67527,1,0,0:0:0:0:
402,192,67527,1,0,0:0:0:0:
475,192,67527,1,0,0:0:0:0:
182,192,67614,1,0,0:0:0:0:
36,192,67614,1,0,0:0:0:0:
109,192,67614,1,0,0:0:0:0:
36,192,68777,1,0,0:0:0:0:
109,192,68777,1,0,0:0:0:0:
182,192,68777,1,0,0:0:0:0:
402,192,69122,1,0,0:0:0:0:
329,192,69122,1,0,0:0:0:0:
475,192,69122,1,0,0:0:0:0:
256,192,69295,1,0,0:0:0:0:
329,192,69467,1,0,0:0:0:0:
475,192,69467,1,0,0:0:0:0:
182,192,69467,1,0,0:0:0:0:
109,192,69467,1,0,0:0:0:0:
256,192,69640,1,0,0:0:0:0:
256,192,69812,1,0,0:0:0:0:
182,192,69984,1,0,0:0:0:0:
402,192,69984,1,0,0:0:0:0:
36,192,69984,1,0,0:0:0:0:
475,192,70157,1,0,0:0:0:0:
329,192,70157,1,0,0:0:0:0:
256,192,70157,1,0,0:0:0:0:
109,192,70157,1,0,0:0:0:0:
182,192,70329,1,0,0:0:0:0:
329,192,70502,1,0,0:0:0:0:
402,192,70502,1,0,0:0:0:0:
475,192,70502,1,0,0:0:0:0:
256,192,70674,1,0,0:0:0:0:
36,192,70846,1,0,0:0:0:0:
182,192,70846,1,0,0:0:0:0:
329,192,70846,1,0,0:0:0:0:
402,192,70846,1,0,0:0:0:0:
256,192,71062,1,0,0:0:0:0:
256,192,71191,1,0,0:0:0:0:
329,192,71364,1,0,0:0:0:0:
109,192,71364,1,0,0:0:0:0:
475,192,71364,1,0,0:0:0:0:
329,192,71536,1,0,0:0:0:0:
402,192,71536,1,0,0:0:0:0:
182,192,71536,1,0,0:0:0:0:
36,192,71536,1,0,0:0:0:0:
256,192,71708,1,0,0:0:0:0:
109,192,71881,1,0,0:0:0:0:
182,192,71881,1,0,0:0:0:0:
329,192,71881,1,0,0:0:0:0:
402,192,71881,1,0,0:0:0:0:
109,192,72053,1,0,0:0:0:0:
36,192,72053,1,0,0:0:0:0:
329,192,72226,1,0,0:0:0:0:
256,192,72226,1,0,0:0:0:0:
475,192,72226,1,0,0:0:0:0:
109,192,72398,1,0,0:0:0:0:
182,192,72398,1,0,0:0:0:0:
402,192,72571,1,0,0:0:0:0:
475,192,72571,1,0,0:0:0:0:
109,192,72743,1,0,0:0:0:0:
182,192,72743,1,0,0:0:0:0:
329,192,72743,1,0,0:0:0:0:
402,192,72743,1,0,0:0:0:0:
256,192,72915,1,0,0:0:0:0:
182,192,72915,1,0,0:0:0:0:
36,192,72915,1,0,0:0:0:0:
329,192,73088,1,0,0:0:0:0:
256,192,73088,1,0,0:0:0:0:
36,192,73260,1,0,0:0:0:0:
402,192,73260,1,0,0:0:0:0:
475,192,73260,1,0,0:0:0:0:
182,192,73260,1,0,0:0:0:0:
256,192,73605,1,0,0:0:0:0:
329,192,73605,1,0,0:0:0:0:
109,192,73605,1,0,0:0:0:0:
182,192,73777,1,0,0:0:0:0:
402,192,73777,1,0,0:0:0:0:
475,192,73777,1,0,0:0:0:0:
36,192,73950,1,0,0:0:0:0:
109,192,73950,1,0,0:0:0:0:
182,192,73950,1,0,0:0:0:0:
329,192,73950,1,0,0:0:0:0:
475,192,74122,1,0,0:0:0:0:
402,192,74122,1,0,0:0:0:0:
329,192,74208,1,0,0:0:0:0:
256,192,74208,1,0,0:0:0:0:
182,192,74295,1,0,0:0:0:0:
109,192,74295,1,0,0:0:0:0:
402,192,74381,1,0,0:0:0:0:
329,192,74381,1,0,0:0:0:0:
256,192,74467,1,0,0:0:0:0:
182,192,74467,1,0,0:0:0:0:
109,192,74553,1,0,0:0:0:0:
36,192,74553,1,0,0:0:0:0:
329,192,74640,1,0,0:0:0:0:
402,192,74640,1,0,0:0:0:0:
475,192,74640,1,0,0:0:0:0:
256,192,74812,1,0,0:0:0:0:
182,192,74812,1,0,0:0:0:0:
109,192,74812,1,0,0:0:0:0:
402,192,74984,1,0,0:0:0:0:
475,192,74984,1,0,0:0:0:0:
182,192,75157,1,0,0:0:0:0:
109,192,75157,1,0,0:0:0:0:
36,192,75157,1,0,0:0:0:0:
329,192,75157,1,0,0:0:0:0:
256,192,75329,1,0,0:0:0:0:
475,192,75329,1,0,0:0:0:0:
402,192,75329,1,0,0:0:0:0:
329,192,75502,1,0,0:0:0:0:
182,192,75502,1,0,0:0:0:0:
36,192,75502,1,0,0:0:0:0:
402,192,75674,1,0,0:0:0:0:
475,192,75674,1,0,0:0:0:0:
329,192,75760,1,0,0:0:0:0:
256,192,75846,1,0,0:0:0:0:
109,192,75846,1,0,0:0:0:0:
182,192,76019,1,0,0:0:0:0:
329,192,76019,1,0,0:0:0:0:
475,192,76019,1,0,0:0:0:0:
109,192,76191,1,0,0:0:0:0:
36,192,76191,1,0,0:0:0:0:
182,192,76277,1,0,0:0:0:0:
402,192,76364,1,0,0:0:0:0:
256,192,76364,1,0,0:0:0:0:
329,192,76536,1,0,0:0:0:0:
182,192,76536,1,0,0:0:0:0:
36,192,76536,1,0,0:0:0:0:
475,192,76708,1,0,0:0:0:0:
256,192,76708,1,0,0:0:0:0:
402,192,76795,1,0,0:0:0:0:
329,192,76881,1,0,0:0:0:0:
182,192,76881,1,0,0:0:0:0:
36,192,77053,1,0,0:0:0:0:
256,192,77053,1,0,0:0:0:0:
109,192,77140,1,0,0:0:0:0:
182,192,77226,1,0,0:0:0:0:
329,192,77226,1,0,0:0:0:0:
475,192,77398,128,0,77571:0:0:0:0:
256,192,77398,128,0,77571:0:0:0:0:
109,192,77398,128,0,77571:0:0:0:0:
402,192,77571,128,0,77743:0:0:0:0:
329,192,77571,128,0,77743:0:0:0:0:
182,192,77571,128,0,77743:0:0:0:0:
109,192,77743,128,0,77915:0:0:0:0:
256,192,77743,128,0,77915:0:0:0:0:
475,192,77743,128,0,77915:0:0:0:0:
36,192,77915,128,0,78088:0:0:0:0:
402,192,77915,128,0,78088:0:0:0:0:
182,192,77915,128,0,78088:0:0:0:0:
329,192,78088,128,0,78260:0:0:0:0:
402,192,78260,128,0,78433:0:0:0:0:
475,192,78260,128,0,78433:0:0:0:0:
109,192,78433,128,0,78777:0:0:0:0:
36,192,78433,128,0,78777:0:0:0:0:
182,192,78519,128,0,78777:0:0:0:0:
256,192,78519,128,0,78777:0:0:0:0:
329,192,78605,128,0,78777:0:0:0:0:
402,192,78605,128,0,78777:0:0:0:0:
475,192,78777,1,0,0:0:0:0:
36,192,79036,1,0,0:0:0:0:
109,192,79036,1,0,0:0:0:0:
402,192,79122,1,0,0:0:0:0:
475,192,79122,1,0,0:0:0:0:
182,192,79208,1,0,0:0:0:0:
329,192,79208,1,0,0:0:0:0:
256,192,79295,1,0,0:0:0:0:
402,192,79295,1,0,0:0:0:0:
329,192,79381,1,0,0:0:0:0:
475,192,79381,1,0,0:0:0:0:
36,192,79467,1,0,0:0:0:0:
182,192,79467,1,0,0:0:0:0:
329,192,79640,1,0,0:0:0:0:
475,192,79640,1,0,0:0:0:0:
402,192,79640,1,0,0:0:0:0:
109,192,79726,1,0,0:0:0:0:
182,192,79726,1,0,0:0:0:0:
36,192,79726,1,0,0:0:0:0:
329,192,79812,1,0,0:0:0:0:
402,192,79812,1,0,0:0:0:0:
475,192,79812,1,0,0:0:0:0:
182,192,79898,1,0,0:0:0:0:
109,192,79898,1,0,0:0:0:0:
36,192,79898,1,0,0:0:0:0:
475,192,79984,1,0,0:0:0:0:
402,192,79984,1,0,0:0:0:0:
329,192,79984,1,0,0:0:0:0:
36,192,80071,1,0,0:0:0:0:
109,192,80071,1,0,0:0:0:0:
182,192,80071,1,0,0:0:0:0:
329,192,80157,1,0,0:0:0:0:
402,192,80157,1,0,0:0:0:0:
475,192,80157,1,0,0:0:0:0:
256,192,80329,1,0,0:0:0:0:
109,192,80329,1,0,0:0:0:0:
182,192,80502,1,0,0:0:0:0:
36,192,80502,1,0,0:0:0:0:
329,192,80502,1,0,0:0:0:0:
402,192,80502,1,0,0:0:0:0:
256,192,80674,1,0,0:0:0:0:
109,192,80674,1,0,0:0:0:0:
256,192,80846,1,0,0:0:0:0:
109,192,80846,1,0,0:0:0:0:
475,192,81019,1,0,0:0:0:0:
402,192,81019,1,0,0:0:0:0:
329,192,81019,1,0,0:0:0:0:
36,192,81191,1,0,0:0:0:0:
182,192,81191,1,0,0:0:0:0:
109,192,81364,1,0,0:0:0:0:
402,192,81364,1,0,0:0:0:0:
475,192,81364,1,0,0:0:0:0:
256,192,81364,1,0,0:0:0:0:
182,192,81536,1,0,0:0:0:0:
36,192,81536,1,0,0:0:0:0:
109,192,81536,1,0,0:0:0:0:
256,192,81708,1,0,0:0:0:0:
402,192,81708,1,0,0:0:0:0:
329,192,81881,1,0,0:0:0:0:
475,192,81881,1,0,0:0:0:0:
182,192,81881,1,0,0:0:0:0:
109,192,81881,1,0,0:0:0:0:
402,192,82053,1,0,0:0:0:0:
256,192,82053,1,0,0:0:0:0:
402,192,82226,1,0,0:0:0:0:
256,192,82226,1,0,0:0:0:0:
182,192,82398,1,0,0:0:0:0:
109,192,82398,1,0,0:0:0:0:
36,192,82398,1,0,0:0:0:0:
402,192,82571,1,0,0:0:0:0:
475,192,82571,1,0,0:0:0:0:
256,192,82571,1,0,0:0:0:0:
329,192,82743,1,0,0:0:0:0:
182,192,82743,1,0,0:0:0:0:
109,192,82915,1,0,0:0:0:0:
36,192,82915,1,0,0:0:0:0:
256,192,82915,1,0,0:0:0:0:
182,192,83088,1,0,0:0:0:0:
329,192,83088,1,0,0:0:0:0:
109,192,83260,1,0,0:0:0:0:
256,192,83260,1,0,0:0:0:0:
402,192,83260,1,0,0:0:0:0:
475,192,83260,1,0,0:0:0:0:
182,192,83433,1,0,0:0:0:0:
329,192,83433,1,0,0:0:0:0:
182,192,83605,1,0,0:0:0:0:
329,192,83605,1,0,0:0:0:0:
475,192,83777,1,0,0:0:0:0:
402,192,83777,1,0,0:0:0:0:
256,192,83777,1,0,0:0:0:0:
182,192,83950,1,0,0:0:0:0:
329,192,83950,1,0,0:0:0:0:
256,192,84122,1,0,0:0:0:0:
109,192,84122,1,0,0:0:0:0:
36,192,84122,1,0,0:0:0:0:
182,192,84295,1,0,0:0:0:0:
329,192,84295,1,0,0:0:0:0:
402,192,84467,1,0,0:0:0:0:
475,192,84467,1,0,0:0:0:0:
256,192,84467,1,0,0:0:0:0:
109,192,84640,1,0,0:0:0:0:
36,192,84640,1,0,0:0:0:0:
256,192,84640,1,0,0:0:0:0:
329,192,84812,1,0,0:0:0:0:
475,192,84812,1,0,0:0:0:0:
402,192,84812,1,0,0:0:0:0:
36,192,84984,1,0,0:0:0:0:
109,192,85027,1,0,0:0:0:0:
182,192,85071,1,0,0:0:0:0:
256,192,85114,1,0,0:0:0:0:
402,192,85157,1,0,0:0:0:0:
475,192,85157,1,0,0:0:0:0:
329,192,85157,1,0,0:0:0:0:
109,192,85329,1,0,0:0:0:0:
36,192,85329,1,0,0:0:0:0:
182,192,85329,1,0,0:0:0:0:
329,192,85502,1,0,0:0:0:0:
402,192,85502,1,0,0:0:0:0:
475,192,85502,1,0,0:0:0:0:
182,192,85674,1,0,0:0:0:0:
109,192,85674,1,0,0:0:0:0:
36,192,85674,1,0,0:0:0:0:
475,192,85846,1,0,0:0:0:0:
402,192,85846,1,0,0:0:0:0:
329,192,85933,1,0,0:0:0:0:
256,192,85933,1,0,0:0:0:0:
182,192,86019,1,0,0:0:0:0:
109,192,86019,1,0,0:0:0:0:
475,192,86191,1,0,0:0:0:0:
402,192,86191,1,0,0:0:0:0:
329,192,86191,1,0,0:0:0:0:
182,192,86364,1,0,0:0:0:0:
256,192,86364,1,0,0:0:0:0:
36,192,86536,1,0,0:0:0:0:
109,192,86536,1,0,0:0:0:0:
182,192,86622,1,0,0:0:0:0:
256,192,86622,1,0,0:0:0:0:
329,192,86708,1,0,0:0:0:0:
402,192,86708,1,0,0:0:0:0:
36,192,86881,1,0,0:0:0:0:
109,192,86881,1,0,0:0:0:0:
182,192,86881,1,0,0:0:0:0:
329,192,87053,1,0,0:0:0:0:
256,192,87053,1,0,0:0:0:0:
402,192,87226,1,0,0:0:0:0:
475,192,87226,1,0,0:0:0:0:
329,192,87312,1,0,0:0:0:0:
182,192,87312,1,0,0:0:0:0:
109,192,87398,1,0,0:0:0:0:
36,192,87398,1,0,0:0:0:0:
256,192,87571,1,0,0:0:0:0:
36,192,87743,1,0,0:0:0:0:
109,192,87743,1,0,0:0:0:0:
329,192,87829,1,0,0:0:0:0:
182,192,87829,1,0,0:0:0:0:
402,192,87915,1,0,0:0:0:0:
475,192,87915,1,0,0:0:0:0:
402,192,88088,1,0,0:0:0:0:
475,192,88088,1,0,0:0:0:0:
329,192,88174,1,0,0:0:0:0:
182,192,88174,1,0,0:0:0:0:
256,192,88174,1,0,0:0:0:0:
109,192,88260,1,0,0:0:0:0:
36,192,88260,1,0,0:0:0:0:
256,192,88433,1,0,0:0:0:0:
402,192,88433,1,0,0:0:0:0:
182,192,88605,1,0,0:0:0:0:
329,192,88777,1,0,0:0:0:0:
109,192,88777,1,0,0:0:0:0:
256,192,88777,1,0,0:0:0:0:
475,192,88777,1,0,0:0:0:0:
182,192,88950,1,0,0:0:0:0:
36,192,88950,1,0,0:0:0:0:
402,192,88950,1,0,0:0:0:0:
402,192,89295,1,0,0:0:0:0:
182,192,89295,1,0,0:0:0:0:
36,192,89295,1,0,0:0:0:0:
109,192,89467,1,0,0:0:0:0:
256,192,89467,1,0,0:0:0:0:
329,192,89467,1,0,0:0:0:0:
475,192,89467,1,0,0:0:0:0:
182,192,89640,1,0,0:0:0:0:
256,192,89812,1,0,0:0:0:0:
402,192,89812,1,0,0:0:0:0:
109,192,89984,1,0,0:0:0:0:
36,192,89984,1,0,0:0:0:0:
182,192,90071,1,0,0:0:0:0:
402,192,90157,1,0,0:0:0:0:
475,192,90157,1,0,0:0:0:0:
256,192,90157,1,0,0:0:0:0:
329,192,90329,1,0,0:0:0:0:
182,192,90329,1,0,0:0:0:0:
109,192,90502,1,0,0:0:0:0:
36,192,90502,1,0,0:0:0:0:
182,192,90588,1,0,0:0:0:0:
256,192,90674,1,0,0:0:0:0:
402,192,90674,1,0,0:0:0:0:
475,192,90674,1,0,0:0:0:0:
329,192,90760,1,0,0:0:0:0:
256,192,90846,1,0,0:0:0:0:
109,192,90846,1,0,0:0:0:0:
36,192,90846,1,0,0:0:0:0:
182,192,90933,1,0,0:0:0:0:
256,192,91019,1,0,0:0:0:0:
402,192,91019,1,0,0:0:0:0:
475,192,91019,1,0,0:0:0:0:
329,192,91105,1,0,0:0:0:0:
109,192,91191,128,0,91364:0:0:0:0:
256,192,91191,128,0,91364:0:0:0:0:
36,192,91364,1,0,0:0:0:0:
475,192,91364,128,0,91536:0:0:0:0:
402,192,91364,1,0,0:0:0:0:
329,192,91536,128,0,91708:0:0:0:0:
182,192,91536,1,0,0:0:0:0:
475,192,91708,1,0,0:0:0:0:
256,192,91708,128,0,91881:0:0:0:0:
36,192,91708,128,0,91881:0:0:0:0:
329,192,91881,1,0,0:0:0:0:
36,192,92053,1,0,0:0:0:0:
475,192,92053,128,0,92226:0:0:0:0:
402,192,92053,128,0,92226:0:0:0:0:
109,192,92226,1,0,0:0:0:0:
256,192,92226,128,0,92398:0:0:0:0:
329,192,92226,1,0,0:0:0:0:
475,192,92398,1,0,0:0:0:0:
182,192,92398,128,0,92571:0:0:0:0:
329,192,92571,128,0,92743:0:0:0:0:
36,192,92571,128,0,92743:0:0:0:0:
402,192,92743,128,0,92915:0:0:0:0:
256,192,92743,1,0,0:0:0:0:
329,192,92915,128,0,93088:0:0:0:0:
475,192,92915,1,0,0:0:0:0:
109,192,92915,1,0,0:0:0:0:
256,192,93088,128,0,93260:0:0:0:0:
36,192,93088,128,0,93260:0:0:0:0:
182,192,93260,128,0,93433:0:0:0:0:
402,192,93346,128,0,93433:0:0:0:0:
109,192,93433,128,0,93605:0:0:0:0:
329,192,93433,128,0,93605:0:0:0:0:
36,192,93605,1,0,0:0:0:0:
256,192,93605,1,0,0:0:0:0:
475,192,93605,128,0,93950:0:0:0:0:
109,192,93777,1,0,0:0:0:0:
402,192,93777,128,0,93950:0:0:0:0:
182,192,93950,128,0,94122:0:0:0:0:
256,192,93950,1,0,0:0:0:0:
109,192,94122,1,0,0:0:0:0:
36,192,94122,128,0,94295:0:0:0:0:
329,192,94122,1,0,0:0:0:0:
402,192,94295,1,0,0:0:0:0:
475,192,94295,1,0,0:0:0:0:
182,192,94295,128,0,94467:0:0:0:0:
109,192,94467,1,0,0:0:0:0:
256,192,94467,128,0,94640:0:0:0:0:
329,192,94640,1,0,0:0:0:0:
475,192,94640,1,0,0:0:0:0:
36,192,94640,128,0,94812:0:0:0:0:
182,192,94812,1,0,0:0:0:0:
402,192,94812,128,0,94984:0:0:0:0:
329,192,94984,128,0,95157:0:0:0:0:
475,192,95157,1,0,0:0:0:0:
256,192,95157,128,0,95329:0:0:0:0:
36,192,95157,128,0,95674:0:0:0:0:
109,192,95243,128,0,95674:0:0:0:0:
329,192,95329,1,0,0:0:0:0:
402,192,95329,1,0,0:0:0:0:
182,192,95329,128,0,95674:0:0:0:0:
329,192,95674,1,0,0:0:0:0:
475,192,95674,1,0,0:0:0:0:
329,192,95846,1,0,0:0:0:0:
475,192,95846,1,0,0:0:0:0:
256,192,96019,1,0,0:0:0:0:
402,192,96019,1,0,0:0:0:0:
36,192,96191,128,0,96277:0:0:0:0:
475,192,96277,128,0,96364:0:0:0:0:
109,192,96277,128,0,96364:0:0:0:0:
402,192,96364,128,0,96450:0:0:0:0:
182,192,96364,128,0,96450:0:0:0:0:
256,192,96364,128,0,96708:0:0:0:0:
329,192,96450,128,0,96536:0:0:0:0:
36,192,96450,128,0,96536:0:0:0:0:
109,192,96536,128,0,96622:0:0:0:0:
182,192,96622,128,0,96708:0:0:0:0:
402,192,96708,1,0,0:0:0:0:
475,192,96708,1,0,0:0:0:0:
329,192,96708,1,0,0:0:0:0:
36,192,96881,128,0,96967:0:0:0:0:
329,192,96881,1,0,0:0:0:0:
182,192,97053,128,0,97140:0:0:0:0:
402,192,97053,1,0,0:0:0:0:
36,192,97226,128,0,97312:0:0:0:0:
475,192,97226,1,0,0:0:0:0:
109,192,97398,128,0,97484:0:0:0:0:
402,192,97398,1,0,0:0:0:0:
182,192,97571,1,0,0:0:0:0:
329,192,97571,1,0,0:0:0:0:
256,192,97571,1,0,0:0:0:0:
36,192,97743,1,0,0:0:0:0:
109,192,97743,1,0,0:0:0:0:
402,192,97743,1,0,0:0:0:0:
475,192,97743,1,0,0:0:0:0:
329,192,97829,1,0,0:0:0:0:
182,192,97829,1,0,0:0:0:0:
109,192,97915,1,0,0:0:0:0:
36,192,97915,1,0,0:0:0:0:
402,192,97915,1,0,0:0:0:0:
475,192,97915,1,0,0:0:0:0:
256,192,98088,1,0,0:0:0:0:
182,192,98260,1,0,0:0:0:0:
329,192,98260,1,0,0:0:0:0:
36,192,98346,1,0,0:0:0:0:
109,192,98346,1,0,0:0:0:0:
402,192,98346,1,0,0:0:0:0:
475,192,98346,1,0,0:0:0:0:
329,192,98433,1,0,0:0:0:0:
256,192,98433,1,0,0:0:0:0:
182,192,98433,1,0,0:0:0:0:
402,192,98777,1,0,0:0:0:0:
475,192,98777,1,0,0:0:0:0:
109,192,98777,1,0,0:0:0:0:
36,192,98777,1,0,0:0:0:0:
256,192,98864,1,0,0:0:0:0:
402,192,98950,1,0,0:0:0:0:
109,192,98950,1,0,0:0:0:0:
36,192,99122,1,0,0:0:0:0:
475,192,99122,1,0,0:0:0:0:
256,192,99208,1,0,0:0:0:0:
329,192,99252,1,0,0:0:0:0:
182,192,99252,1,0,0:0:0:0:
402,192,99295,1,0,0:0:0:0:
109,192,99295,1,0,0:0:0:0:
182,192,99467,1,0,0:0:0:0:
256,192,99467,1,0,0:0:0:0:
329,192,99467,1,0,0:0:0:0:
402,192,99640,1,0,0:0:0:0:
475,192,99640,1,0,0:0:0:0:
109,192,99812,1,0,0:0:0:0:
329,192,99812,1,0,0:0:0:0:
256,192,99812,1,0,0:0:0:0:
36,192,99812,1,0,0:0:0:0:
402,192,99984,1,0,0:0:0:0:
475,192,99984,1,0,0:0:0:0:
109,192,100157,1,0,0:0:0:0:
182,192,100157,1,0,0:0:0:0:
256,192,100329,1,0,0:0:0:0:
329,192,100329,1,0,0:0:0:0:
36,192,100329,1,0,0:0:0:0:
109,192,100502,1,0,0:0:0:0:
182,192,100502,1,0,0:0:0:0:
402,192,100502,1,0,0:0:0:0:
329,192,100588,1,0,0:0:0:0:
256,192,100674,1,0,0:0:0:0:
36,192,100674,1,0,0:0:0:0:
475,192,100846,1,0,0:0:0:0:
402,192,100846,1,0,0:0:0:0:
182,192,100846,1,0,0:0:0:0:
329,192,100933,1,0,0:0:0:0:
109,192,100933,1,0,0:0:0:0:
256,192,101019,1,0,0:0:0:0:
36,192,101019,1,0,0:0:0:0:
475,192,101105,1,0,0:0:0:0:
182,192,101105,1,0,0:0:0:0:
402,192,101191,1,0,0:0:0:0:
109,192,101191,1,0,0:0:0:0:
36,192,101277,1,0,0:0:0:0:
329,192,101277,1,0,0:0:0:0:
402,192,101364,1,0,0:0:0:0:
109,192,101364,1,0,0:0:0:0:
329,192,101708,1,0,0:0:0:0:
402,192,101708,1,0,0:0:0:0:
182,192,101881,1,0,0:0:0:0:
109,192,101881,1,0,0:0:0:0:
36,192,101881,1,0,0:0:0:0:
256,192,101881,128,0,102226:0:0:0:0:
402,192,102053,1,0,0:0:0:0:
475,192,102053,1,0,0:0:0:0:
182,192,102226,1,0,0:0:0:0:
109,192,102226,1,0,0:0:0:0:
36,192,102398,1,0,0:0:0:0:
329,192,102398,128,0,102484:0:0:0:0:
402,192,102484,128,0,102527:0:0:0:0:
109,192,102484,1,0,0:0:0:0:
475,192,102527,128,0,102571:0:0:0:0:
182,192,102571,1,0,0:0:0:0:
256,192,102743,1,0,0:0:0:0:
329,192,102743,1,0,0:0:0:0:
182,192,102743,1,0,0:0:0:0:
36,192,102915,1,0,0:0:0:0:
475,192,102915,128,0,103002:0:0:0:0:
402,192,103002,128,0,103045:0:0:0:0:
109,192,103002,1,0,0:0:0:0:
329,192,103045,128,0,103088:0:0:0:0:
182,192,103088,1,0,0:0:0:0:
402,192,103260,1,0,0:0:0:0:
475,192,103260,1,0,0:0:0:0:
329,192,103260,1,0,0:0:0:0:
36,192,103433,1,0,0:0:0:0:
109,192,103433,1,0,0:0:0:0:
182,192,103433,1,0,0:0:0:0:
256,192,103605,1,0,0:0:0:0:
329,192,103605,1,0,0:0:0:0:
475,192,103777,1,0,0:0:0:0:
36,192,103777,128,0,103864:0:0:0:0:
109,192,103864,128,0,103907:0:0:0:0:
402,192,103864,1,0,0:0:0:0:
182,192,103907,128,0,103950:0:0:0:0:
329,192,103950,1,0,0:0:0:0:
256,192,104122,1,0,0:0:0:0:
109,192,104122,1,0,0:0:0:0:
475,192,104295,1,0,0:0:0:0:
182,192,104295,128,0,104381:0:0:0:0:
109,192,104381,128,0,104424:0:0:0:0:
402,192,104381,1,0,0:0:0:0:
36,192,104424,128,0,104467:0:0:0:0:
329,192,104467,1,0,0:0:0:0:
36,192,104640,1,0,0:0:0:0:
109,192,104640,1,0,0:0:0:0:
182,192,104640,1,0,0:0:0:0:
329,192,104812,1,0,0:0:0:0:
402,192,104812,1,0,0:0:0:0:
475,192,104812,1,0,0:0:0:0:
256,192,104984,1,0,0:0:0:0:
182,192,104984,1,0,0:0:0:0:
109,192,105157,1,0,0:0:0:0:
329,192,105157,128,0,105243:0:0:0:0:
402,192,105243,128,0,105286:0:0:0:0:
182,192,105243,1,0,0:0:0:0:
475,192,105286,128,0,105329:0:0:0:0:
256,192,105329,1,0,0:0:0:0:
109,192,105502,1,0,0:0:0:0:
36,192,105502,1,0,0:0:0:0:
256,192,105674,1,0,0:0:0:0:
475,192,105674,128,0,105760:0:0:0:0:
402,192,105760,128,0,105803:0:0:0:0:
182,192,105760,1,0,0:0:0:0:
329,192,105803,128,0,105846:0:0:0:0:
109,192,105846,1,0,0:0:0:0:
256,192,105933,1,0,0:0:0:0:
36,192,106019,1,0,0:0:0:0:
329,192,106019,128,0,106105:0:0:0:0:
402,192,106105,128,0,106148:0:0:0:0:
109,192,106105,1,0,0:0:0:0:
475,192,106148,128,0,106191:0:0:0:0:
182,192,106191,1,0,0:0:0:0:
109,192,106364,1,0,0:0:0:0:
256,192,106364,1,0,0:0:0:0:
329,192,106536,1,0,0:0:0:0:
182,192,106536,128,0,106622:0:0:0:0:
109,192,106622,128,0,106665:0:0:0:0:
402,192,106622,1,0,0:0:0:0:
36,192,106665,128,0,106708:0:0:0:0:
475,192,106708,1,0,0:0:0:0:
329,192,106881,1,0,0:0:0:0:
256,192,106881,1,0,0:0:0:0:
182,192,107053,1,0,0:0:0:0:
329,192,107053,128,0,107140:0:0:0:0:
402,192,107140,128,0,107183:0:0:0:0:
109,192,107140,1,0,0:0:0:0:
475,192,107183,128,0,107226:0:0:0:0:
36,192,107226,1,0,0:0:0:0:
109,192,107398,1,0,0:0:0:0:
182,192,107398,1,0,0:0:0:0:
329,192,107484,1,0,0:0:0:0:
256,192,107484,1,0,0:0:0:0:
402,192,107571,1,0,0:0:0:0:
475,192,107571,1,0,0:0:0:0:
329,192,107657,1,0,0:0:0:0:
256,192,107685,1,0,0:0:0:0:
182,192,107714,1,0,0:0:0:0:
36,192,107743,1,0,0:0:0:0:
109,192,107743,1,0,0:0:0:0:
402,192,107915,1,0,0:0:0:0:
329,192,107915,1,0,0:0:0:0:
256,192,108002,1,0,0:0:0:0:
182,192,108002,1,0,0:0:0:0:
109,192,108088,1,0,0:0:0:0:
36,192,108088,1,0,0:0:0:0:
475,192,108260,1,0,0:0:0:0:
256,192,108260,1,0,0:0:0:0:
402,192,108346,1,0,0:0:0:0:
329,192,108433,1,0,0:0:0:0:
36,192,108433,1,0,0:0:0:0:
109,192,108519,1,0,0:0:0:0:
182,192,108605,1,0,0:0:0:0:
256,192,108605,1,0,0:0:0:0:
329,192,108691,1,0,0:0:0:0:
475,192,108777,1,0,0:0:0:0:
402,192,108777,1,0,0:0:0:0:
109,192,108777,1,0,0:0:0:0:
329,192,108950,1,0,0:0:0:0:
256,192,108950,1,0,0:0:0:0:
182,192,108950,1,0,0:0:0:0:
36,192,109122,1,0,0:0:0:0:
109,192,109122,1,0,0:0:0:0:
402,192,109122,1,0,0:0:0:0:
329,192,109295,1,0,0:0:0:0:
256,192,109295,1,0,0:0:0:0:
182,192,109381,1,0,0:0:0:0:
109,192,109467,1,0,0:0:0:0:
36,192,109467,1,0,0:0:0:0:
475,192,109640,1,0,0:0:0:0:
402,192,109640,1,0,0:0:0:0:
329,192,109726,1,0,0:0:0:0:
256,192,109812,1,0,0:0:0:0:
109,192,109812,1,0,0:0:0:0:
36,192,109812,1,0,0:0:0:0:
182,192,109898,1,0,0:0:0:0:
256,192,109984,1,0,0:0:0:0:
402,192,109984,1,0,0:0:0:0:
475,192,109984,1,0,0:0:0:0:
182,192,110157,1,0,0:0:0:0:
36,192,110157,1,0,0:0:0:0:
109,192,110157,1,0,0:0:0:0:
402,192,110329,1,0,0:0:0:0:
475,192,110329,1,0,0:0:0:0:
329,192,110502,1,0,0:0:0:0:
256,192,110502,1,0,0:0:0:0:
182,192,110502,1,0,0:0:0:0:
36,192,110674,1,0,0:0:0:0:
475,192,110674,1,0,0:0:0:0:
109,192,110760,1,0,0:0:0:0:
402,192,110760,1,0,0:0:0:0:
182,192,110846,1,0,0:0:0:0:
329,192,110846,1,0,0:0:0:0:
402,192,111019,1,0,0:0:0:0:
475,192,111019,1,0,0:0:0:0:
182,192,111105,1,0,0:0:0:0:
329,192,111191,1,0,0:0:0:0:
256,192,111191,1,0,0:0:0:0:
36,192,111191,1,0,0:0:0:0:
109,192,111277,1,0,0:0:0:0:
402,192,111364,1,0,0:0:0:0:
475,192,111364,1,0,0:0:0:0:
182,192,111364,1,0,0:0:0:0:
36,192,111536,1,0,0:0:0:0:
109,192,111536,1,0,0:0:0:0:
475,192,111622,1,0,0:0:0:0:
256,192,111622,1,0,0:0:0:0:
402,192,111708,1,0,0:0:0:0:
329,192,111795,1,0,0:0:0:0:
36,192,111881,1,0,0:0:0:0:
182,192,111881,1,0,0:0:0:0:
402,192,111881,1,0,0:0:0:0:
109,192,111881,1,0,0:0:0:0:
475,192,111967,1,0,0:0:0:0:
402,192,112053,1,0,0:0:0:0:
329,192,112140,1,0,0:0:0:0:
36,192,112226,1,0,0:0:0:0:
256,192,112226,1,0,0:0:0:0:
109,192,112312,1,0,0:0:0:0:
182,192,112398,1,0,0:0:0:0:
256,192,112484,1,0,0:0:0:0:
329,192,112571,1,0,0:0:0:0:
475,192,112571,1,0,0:0:0:0:
256,192,112657,1,0,0:0:0:0:
182,192,112743,1,0,0:0:0:0:
109,192,112829,1,0,0:0:0:0:
36,192,112829,1,0,0:0:0:0:
402,192,112915,1,0,0:0:0:0:
475,192,112915,1,0,0:0:0:0:
329,192,113002,1,0,0:0:0:0:
256,192,113088,1,0,0:0:0:0:
182,192,113088,1,0,0:0:0:0:
109,192,113174,1,0,0:0:0:0:
36,192,113260,1,0,0:0:0:0:
475,192,113260,1,0,0:0:0:0:
402,192,113260,1,0,0:0:0:0:
329,192,113260,1,0,0:0:0:0:
256,192,113346,1,0,0:0:0:0:
182,192,113433,1,0,0:0:0:0:
109,192,113519,1,0,0:0:0:0:
36,192,113605,1,0,0:0:0:0:
329,192,113605,1,0,0:0:0:0:
109,192,113691,1,0,0:0:0:0:
182,192,113777,1,0,0:0:0:0:
256,192,113864,1,0,0:0:0:0:
329,192,113950,1,0,0:0:0:0:
36,192,113950,1,0,0:0:0:0:
402,192,114036,1,0,0:0:0:0:
329,192,114122,1,0,0:0:0:0:
256,192,114208,1,0,0:0:0:0:
402,192,114295,1,0,0:0:0:0:
182,192,114295,1,0,0:0:0:0:
475,192,114295,1,0,0:0:0:0:
109,192,114381,1,0,0:0:0:0:
36,192,114467,1,0,0:0:0:0:
109,192,114553,1,0,0:0:0:0:
182,192,114640,1,0,0:0:0:0:
402,192,114640,1,0,0:0:0:0:
475,192,114640,1,0,0:0:0:0:
256,192,114726,1,0,0:0:0:0:
329,192,114812,1,0,0:0:0:0:
402,192,114898,1,0,0:0:0:0:
36,192,114984,1,0,0:0:0:0:
109,192,114984,1,0,0:0:0:0:
475,192,114984,1,0,0:0:0:0:
402,192,115071,1,0,0:0:0:0:
329,192,115157,1,0,0:0:0:0:
256,192,115243,1,0,0:0:0:0:
182,192,115329,1,0,0:0:0:0:
475,192,115329,1,0,0:0:0:0:
402,192,115329,1,0,0:0:0:0:
109,192,115415,1,0,0:0:0:0:
182,192,115502,1,0,0:0:0:0:
256,192,115588,1,0,0:0:0:0:
329,192,115674,1,0,0:0:0:0:
36,192,115674,1,0,0:0:0:0:
109,192,115674,1,0,0:0:0:0:
402,192,115760,1,0,0:0:0:0:
475,192,115846,1,0,0:0:0:0:
402,192,115890,1,0,0:0:0:0:
329,192,115933,1,0,0:0:0:0:
256,192,115976,1,0,0:0:0:0:
182,192,116019,1,0,0:0:0:0:
109,192,116019,1,0,0:0:0:0:
36,192,116019,1,0,0:0:0:0:
475,192,116105,1,0,0:0:0:0:
402,192,116191,1,0,0:0:0:0:
329,192,116277,1,0,0:0:0:0:
256,192,116364,1,0,0:0:0:0:
182,192,116450,1,0,0:0:0:0:
109,192,116536,1,0,0:0:0:0:
36,192,116536,1,0,0:0:0:0:
182,192,116622,1,0,0:0:0:0:
475,192,116708,1,0,0:0:0:0:
256,192,116708,1,0,0:0:0:0:
329,192,116795,1,0,0:0:0:0:
402,192,116881,1,0,0:0:0:0:
329,192,116967,1,0,0:0:0:0:
36,192,117053,1,0,0:0:0:0:
256,192,117053,1,0,0:0:0:0:
182,192,117140,1,0,0:0:0:0:
256,192,117226,1,0,0:0:0:0:
329,192,117312,1,0,0:0:0:0:
402,192,117398,1,0,0:0:0:0:
475,192,117398,1,0,0:0:0:0:
329,192,117484,1,0,0:0:0:0:
256,192,117571,1,0,0:0:0:0:
182,192,117657,1,0,0:0:0:0:
329,192,117743,1,0,0:0:0:0:
256,192,117829,1,0,0:0:0:0:
182,192,117915,1,0,0:0:0:0:
36,192,117915,1,0,0:0:0:0:
256,192,118002,1,0,0:0:0:0:
329,192,118088,1,0,0:0:0:0:
402,192,118174,1,0,0:0:0:0:
36,192,118260,1,0,0:0:0:0:
109,192,118260,1,0,0:0:0:0:
475,192,118260,1,0,0:0:0:0:
402,192,118346,1,0,0:0:0:0:
256,192,118433,1,0,0:0:0:0:
182,192,118433,1,0,0:0:0:0:
329,192,118433,1,0,0:0:0:0:
109,192,118519,1,0,0:0:0:0:
36,192,118605,1,0,0:0:0:0:
109,192,118648,1,0,0:0:0:0:
182,192,118691,1,0,0:0:0:0:
256,192,118734,1,0,0:0:0:0:
329,192,118777,1,0,0:0:0:0:
402,192,118777,1,0,0:0:0:0:
475,192,118777,1,0,0:0:0:0:
36,192,118950,1,0,0:0:0:0:
109,192,118950,1,0,0:0:0:0:
182,192,118950,1,0,0:0:0:0:
329,192,119122,1,0,0:0:0:0:
475,192,119122,1,0,0:0:0:0:
402,192,119122,1,0,0:0:0:0:
182,192,119295,1,0,0:0:0:0:
36,192,119295,1,0,0:0:0:0:
109,192,119295,1,0,0:0:0:0:
402,192,119467,1,0,0:0:0:0:
475,192,119467,1,0,0:0:0:0:
329,192,119467,1,0,0:0:0:0:
109,192,119640,1,0,0:0:0:0:
36,192,119640,1,0,0:0:0:0:
182,192,119640,1,0,0:0:0:0:
329,192,119812,1,0,0:0:0:0:
475,192,119812,1,0,0:0:0:0:
402,192,119812,1,0,0:0:0:0:
182,192,119984,1,0,0:0:0:0:
36,192,119984,1,0,0:0:0:0:
109,192,119984,1,0,0:0:0:0:
329,192,120157,1,0,0:0:0:0:
402,192,120157,1,0,0:0:0:0:
475,192,120157,1,0,0:0:0:0:
256,192,120157,1,0,0:0:0:0:
256,192,120329,1,0,0:0:0:0:
329,192,120329,1,0,0:0:0:0:
402,192,120329,1,0,0:0:0:0:
475,192,120329,1,0,0:0:0:0:
256,192,120502,1,0,0:0:0:0:
182,192,120502,1,0,0:0:0:0:
109,192,120502,1,0,0:0:0:0:
36,192,120502,1,0,0:0:0:0:
36,192,120674,1,0,0:0:0:0:
109,192,120674,1,0,0:0:0:0:
182,192,120674,1,0,0:0:0:0:
256,192,120674,1,0,0:0:0:0:
475,192,120846,1,0,0:0:0:0:
402,192,120846,1,0,0:0:0:0:
329,192,120846,1,0,0:0:0:0:
256,192,120846,1,0,0:0:0:0:
256,192,121019,1,0,0:0:0:0:
329,192,121019,1,0,0:0:0:0:
402,192,121019,1,0,0:0:0:0:
475,192,121019,1,0,0:0:0:0:
109,192,121191,1,0,0:0:0:0:
256,192,121191,1,0,0:0:0:0:
182,192,121191,1,0,0:0:0:0:
36,192,121191,1,0,0:0:0:0:
182,192,121364,1,0,0:0:0:0:
36,192,121364,1,0,0:0:0:0:
109,192,121364,1,0,0:0:0:0:
256,192,121364,1,0,0:0:0:0:
475,192,121536,1,0,0:0:0:0:
329,192,121536,1,0,0:0:0:0:
256,192,121881,1,0,0:0:0:0:
402,192,121881,1,0,0:0:0:0:
109,192,121881,1,0,0:0:0:0:
256,192,122226,1,0,0:0:0:0:
36,192,122226,1,0,0:0:0:0:
475,192,122226,1,0,0:0:0:0:
109,192,122571,1,0,0:0:0:0:
182,192,122571,1,0,0:0:0:0:
329,192,122571,1,0,0:0:0:0:
36,192,122743,1,0,0:0:0:0:
256,192,122743,1,0,0:0:0:0:
475,192,122743,1,0,0:0:0:0:
402,192,122743,1,0,0:0:0:0:
475,192,123605,1,0,0:0:0:0:
402,192,123648,1,0,0:0:0:0:
329,192,123691,1,0,0:0:0:0:
256,192,123734,1,0,0:0:0:0:
36,192,123777,1,0,0:0:0:0:
109,192,123821,1,0,0:0:0:0:
182,192,123864,1,0,0:0:0:0:
256,192,123907,1,0,0:0:0:0:
402,192,123950,128,0,124122:0:0:0:0:
475,192,123950,128,0,124122:0:0:0:0:
329,192,123950,1,0,0:0:0:0:
182,192,124122,128,0,124295:0:0:0:0:
36,192,124295,1,0,0:0:0:0:
109,192,124295,1,0,0:0:0:0:
329,192,124295,128,0,127053:0:0:0:0:
109,192,124553,128,0,124984:0:0:0:0:
402,192,124640,128,0,124812:0:0:0:0:
475,192,124812,128,0,124984:0:0:0:0:
256,192,124984,128,0,125329:0:0:0:0:
182,192,124984,1,0,0:0:0:0:
36,192,124984,1,0,0:0:0:0:
402,192,125243,128,0,125329:0:0:0:0:
475,192,125329,128,0,125588:0:0:0:0:
109,192,125329,1,0,0:0:0:0:
36,192,125329,1,0,0:0:0:0:
182,192,125502,128,0,125674:0:0:0:0:
36,192,125674,128,0,126019:0:0:0:0:
402,192,125846,1,0,0:0:0:0:
475,192,125846,1,0,0:0:0:0:
109,192,125890,128,0,126019:0:0:0:0:
402,192,126019,1,0,0:0:0:0:
182,192,126019,128,0,126364:0:0:0:0:
475,192,126019,1,0,0:0:0:0:
109,192,126191,128,0,126364:0:0:0:0:
475,192,126364,128,0,126708:0:0:0:0:
256,192,126364,1,0,0:0:0:0:
109,192,126708,1,0,0:0:0:0:
36,192,126708,1,0,0:0:0:0:
256,192,126708,128,0,127053:0:0:0:0:
402,192,127053,1,0,0:0:0:0:
475,192,127053,1,0,0:0:0:0:
182,192,127053,128,0,129812:0:0:0:0:
109,192,127269,128,0,127398:0:0:0:0:
402,192,127269,128,0,127398:0:0:0:0:
36,192,127398,128,0,127614:0:0:0:0:
329,192,127398,128,0,127614:0:0:0:0:
109,192,127614,128,0,127743:0:0:0:0:
256,192,127614,128,0,127743:0:0:0:0:
475,192,127743,128,0,128088:0:0:0:0:
402,192,127743,1,0,0:0:0:0:
329,192,127743,1,0,0:0:0:0:
36,192,127958,128,0,128088:0:0:0:0:
109,192,128088,128,0,128260:0:0:0:0:
402,192,128088,1,0,0:0:0:0:
256,192,128260,128,0,128433:0:0:0:0:
329,192,128433,1,0,0:0:0:0:
402,192,128433,1,0,0:0:0:0:
329,192,128519,1,0,0:0:0:0:
402,192,128519,1,0,0:0:0:0:
329,192,128605,1,0,0:0:0:0:
36,192,128605,1,0,0:0:0:0:
402,192,128605,1,0,0:0:0:0:
109,192,128777,1,0,0:0:0:0:
475,192,128777,128,0,128950:0:0:0:0:
402,192,128950,128,0,129122:0:0:0:0:
36,192,129122,128,0,129381:0:0:0:0:
256,192,129122,128,0,129295:0:0:0:0:
329,192,129295,128,0,129467:0:0:0:0:
109,192,129467,128,0,129812:0:0:0:0:
402,192,129467,1,0,0:0:0:0:
475,192,129467,1,0,0:0:0:0:
329,192,129812,1,0,0:0:0:0:
402,192,129812,1,0,0:0:0:0:
475,192,129812,128,0,132571:0:0:0:0:
256,192,130071,128,0,130157:0:0:0:0:
329,192,130157,128,0,130502:0:0:0:0:
402,192,130329,128,0,130502:0:0:0:0:
256,192,130502,128,0,130760:0:0:0:0:
36,192,130502,1,0,0:0:0:0:
182,192,130502,1,0,0:0:0:0:
182,192,130760,128,0,130846:0:0:0:0:
109,192,130846,1,0,0:0:0:0:
36,192,130846,1,0,0:0:0:0:
329,192,130890,128,0,131019:0:0:0:0:
402,192,131019,128,0,131191:0:0:0:0:
36,192,131364,1,0,0:0:0:0:
109,192,131364,1,0,0:0:0:0:
256,192,131364,128,0,131493:0:0:0:0:
109,192,131536,1,0,0:0:0:0:
36,192,131536,1,0,0:0:0:0:
256,192,131536,128,0,131622:0:0:0:0:
329,192,131622,128,0,131708:0:0:0:0:
402,192,131708,128,0,131795:0:0:0:0:
329,192,131795,128,0,131881:0:0:0:0:
109,192,131881,1,0,0:0:0:0:
256,192,131881,128,0,132226:0:0:0:0:
329,192,132226,128,0,132571:0:0:0:0:
36,192,132226,1,0,0:0:0:0:
109,192,132226,1,0,0:0:0:0:
182,192,132571,128,0,133950:0:0:0:0:
36,192,132571,1,0,0:0:0:0:
109,192,132571,1,0,0:0:0:0:
256,192,132829,128,0,132915:0:0:0:0:
329,192,132915,128,0,133088:0:0:0:0:
475,192,133088,128,0,133260:0:0:0:0:
402,192,133260,1,0,0:0:0:0:
329,192,133260,1,0,0:0:0:0:
256,192,133260,128,0,133433:0:0:0:0:
36,192,133433,128,0,133605:0:0:0:0:
109,192,133519,128,0,133605:0:0:0:0:
329,192,133605,1,0,0:0:0:0:
402,192,133605,1,0,0:0:0:0:
475,192,133605,1,0,0:0:0:0:
256,192,133777,128,0,133950:0:0:0:0:
329,192,133950,1,0,0:0:0:0:
109,192,133950,1,0,0:0:0:0:
475,192,134122,1,0,0:0:0:0:
256,192,134122,128,0,134295:0:0:0:0:
36,192,134122,1,0,0:0:0:0:
402,192,134208,1,0,0:0:0:0:
109,192,134208,1,0,0:0:0:0:
329,192,134295,1,0,0:0:0:0:
182,192,134295,1,0,0:0:0:0:
256,192,134467,1,0,0:0:0:0:
182,192,134467,1,0,0:0:0:0:
329,192,134467,1,0,0:0:0:0:
36,192,134640,1,0,0:0:0:0:
475,192,134640,128,0,134812:0:0:0:0:
109,192,134726,1,0,0:0:0:0:
182,192,134812,1,0,0:0:0:0:
475,192,134984,1,0,0:0:0:0:
36,192,134984,128,0,135157:0:0:0:0:
402,192,135071,1,0,0:0:0:0:
329,192,135157,1,0,0:0:0:0:
475,192,135329,128,0,135588:0:0:0:0:
256,192,135329,1,0,0:0:0:0:
182,192,135329,1,0,0:0:0:0:
36,192,135329,1,0,0:0:0:0:
329,192,135502,1,0,0:0:0:0:
402,192,135588,128,0,135846:0:0:0:0:
36,192,135674,1,0,0:0:0:0:
109,192,135674,1,0,0:0:0:0:
256,192,135674,1,0,0:0:0:0:
182,192,135674,128,0,135846:0:0:0:0:
329,192,135846,128,0,136277:0:0:0:0:
256,192,136019,1,0,0:0:0:0:
475,192,136019,128,0,136277:0:0:0:0:
109,192,136019,1,0,0:0:0:0:
36,192,136019,1,0,0:0:0:0:
182,192,136191,128,0,136364:0:0:0:0:
402,192,136364,128,0,136536:0:0:0:0:
36,192,136364,1,0,0:0:0:0:
475,192,136536,1,0,0:0:0:0:
109,192,136536,128,0,136708:0:0:0:0:
329,192,136536,1,0,0:0:0:0:
182,192,136708,1,0,0:0:0:0:
256,192,136708,1,0,0:0:0:0:
329,192,136708,128,0,136881:0:0:0:0:
475,192,136881,128,0,136967:0:0:0:0:
402,192,136967,128,0,137226:0:0:0:0:
36,192,137053,128,0,137226:0:0:0:0:
256,192,137053,1,0,0:0:0:0:
329,192,137226,128,0,137398:0:0:0:0:
182,192,137226,1,0,0:0:0:0:
256,192,137398,128,0,137743:0:0:0:0:
109,192,137398,1,0,0:0:0:0:
36,192,137398,128,0,137743:0:0:0:0:
475,192,137398,128,0,137743:0:0:0:0:
182,192,137743,128,0,138088:0:0:0:0:
329,192,137743,128,0,138088:0:0:0:0:
109,192,138088,1,0,0:0:0:0:
402,192,138088,1,0,0:0:0:0:
475,192,138260,1,0,0:0:0:0:
36,192,138260,128,0,138433:0:0:0:0:
402,192,138346,1,0,0:0:0:0:
109,192,138346,128,0,138433:0:0:0:0:
256,192,138433,1,0,0:0:0:0:
329,192,138433,1,0,0:0:0:0:
182,192,138433,128,0,138605:0:0:0:0:
402,192,138605,1,0,0:0:0:0:
109,192,138605,128,0,138777:0:0:0:0:
329,192,138691,1,0,0:0:0:0:
256,192,138777,1,0,0:0:0:0:
182,192,138777,1,0,0:0:0:0:
475,192,138777,128,0,138950:0:0:0:0:
36,192,138950,1,0,0:0:0:0:
402,192,138950,128,0,139122:0:0:0:0:
109,192,139036,1,0,0:0:0:0:
182,192,139122,1,0,0:0:0:0:
36,192,139122,128,0,139295:0:0:0:0:
475,192,139295,1,0,0:0:0:0:
109,192,139295,1,0,0:0:0:0:
256,192,139295,128,0,139338:0:0:0:0:
329,192,139295,128,0,139338:0:0:0:0:
182,192,139467,1,0,0:0:0:0:
402,192,139467,1,0,0:0:0:0:
182,192,139596,1,0,0:0:0:0:
402,192,139596,1,0,0:0:0:0:
402,192,139726,1,0,0:0:0:0:
182,192,139726,1,0,0:0:0:0:
329,192,139812,128,0,139984:0:0:0:0:
109,192,139812,128,0,139984:0:0:0:0:
256,192,139812,128,0,139984:0:0:0:0:
402,192,139984,128,0,140157:0:0:0:0:
475,192,139984,128,0,140157:0:0:0:0:
36,192,140157,1,0,0:0:0:0:
109,192,140200,1,0,0:0:0:0:
182,192,140243,1,0,0:0:0:0:
256,192,140286,1,0,0:0:0:0:
329,192,140329,1,0,0:0:0:0:
402,192,140372,1,0,0:0:0:0:
36,192,140415,1,0,0:0:0:0:
475,192,140415,1,0,0:0:0:0:
109,192,140458,1,0,0:0:0:0:
182,192,140502,1,0,0:0:0:0:
256,192,140545,128,0,140846:0:0:0:0:
182,192,140846,1,0,0:0:0:0:
329,192,140846,1,0,0:0:0:0:
475,192,140846,128,0,141191:0:0:0:0:
109,192,140933,1,0,0:0:0:0:
36,192,141019,1,0,0:0:0:0:
256,192,141191,1,0,0:0:0:0:
402,192,141191,128,0,141364:0:0:0:0:
329,192,141191,1,0,0:0:0:0:
182,192,141277,1,0,0:0:0:0:
36,192,141364,128,0,141881:0:0:0:0:
109,192,141364,1,0,0:0:0:0:
402,192,141536,128,0,141708:0:0:0:0:
182,192,141536,1,0,0:0:0:0:
109,192,141536,1,0,0:0:0:0:
329,192,141708,1,0,0:0:0:0:
256,192,141795,1,0,0:0:0:0:
475,192,141881,128,0,142226:0:0:0:0:
182,192,141881,1,0,0:0:0:0:
329,192,141967,1,0,0:0:0:0:
402,192,142053,128,0,142226:0:0:0:0:
256,192,142053,1,0,0:0:0:0:
182,192,142140,1,0,0:0:0:0:
36,192,142226,128,0,142571:0:0:0:0:
329,192,142226,128,0,142398:0:0:0:0:
256,192,142571,128,0,143260:0:0:0:0:
475,192,142571,1,0,0:0:0:0:
109,192,142571,1,0,0:0:0:0:
182,192,142571,1,0,0:0:0:0:
402,192,142571,1,0,0:0:0:0:
475,192,142700,1,0,0:0:0:0:
402,192,142700,1,0,0:0:0:0:
402,192,142829,1,0,0:0:0:0:
475,192,142829,1,0,0:0:0:0:
182,192,142915,1,0,0:0:0:0:
36,192,142915,1,0,0:0:0:0:
402,192,142958,128,0,143260:0:0:0:0:
475,192,142958,128,0,143260:0:0:0:0:
182,192,143260,128,0,143605:0:0:0:0:
36,192,143260,128,0,143605:0:0:0:0:
475,192,143605,128,0,144295:0:0:0:0:
402,192,143777,1,0,0:0:0:0:
329,192,143864,1,0,0:0:0:0:
256,192,143950,1,0,0:0:0:0:
182,192,143950,1,0,0:0:0:0:
36,192,143950,128,0,144122:0:0:0:0:
402,192,144122,1,0,0:0:0:0:
109,192,144122,128,0,144295:0:0:0:0:
329,192,144295,128,0,144984:0:0:0:0:
182,192,144553,128,0,144596:0:0:0:0:
109,192,144596,128,0,144640:0:0:0:0:
36,192,144640,128,0,144984:0:0:0:0:
109,192,144812,128,0,144984:0:0:0:0:
182,192,144898,128,0,144984:0:0:0:0:
256,192,144984,1,0,0:0:0:0:
475,192,145027,1,0,0:0:0:0:
402,192,145071,1,0,0:0:0:0:
329,192,145114,1,0,0:0:0:0:
256,192,145157,1,0,0:0:0:0:
182,192,145200,1,0,0:0:0:0:
109,192,145243,1,0,0:0:0:0:
36,192,145286,1,0,0:0:0:0:
256,192,145329,1,0,0:0:0:0:
329,192,145372,1,0,0:0:0:0:
402,192,145415,1,0,0:0:0:0:
475,192,145458,1,0,0:0:0:0:
36,192,145502,1,0,0:0:0:0:
109,192,145545,1,0,0:0:0:0:
182,192,145588,1,0,0:0:0:0:
256,192,145631,1,0,0:0:0:0:
475,192,145674,1,0,0:0:0:0:
329,192,145674,1,0,0:0:0:0:
256,192,146019,5,0,0:0:0:0:
109,192,146019,1,0,0:0:0:0:
36,192,146019,1,0,0:0:0:0:
182,192,146364,5,0,0:0:0:0:
402,192,146364,1,0,0:0:0:0:
329,192,146364,1,0,0:0:0:0:
475,192,146364,1,0,0:0:0:0:
36,192,146536,1,0,0:0:0:0:
256,192,146536,1,0,0:0:0:0:
109,192,146708,1,0,0:0:0:0:
329,192,146708,1,0,0:0:0:0:
182,192,146881,1,0,0:0:0:0:
256,192,146881,128,0,146967:0:0:0:0:
109,192,147053,1,0,0:0:0:0:
329,192,147053,1,0,0:0:0:0:
475,192,147053,1,0,0:0:0:0:
402,192,147226,1,0,0:0:0:0:
256,192,147226,128,0,147312:0:0:0:0:
475,192,147398,1,0,0:0:0:0:
402,192,147484,1,0,0:0:0:0:
36,192,147571,128,0,147743:0:0:0:0:
475,192,147571,1,0,0:0:0:0:
402,192,147743,1,0,0:0:0:0:
256,192,147743,128,0,147829:0:0:0:0:
36,192,147915,1,0,0:0:0:0:
182,192,148002,1,0,0:0:0:0:
36,192,148088,128,0,148260:0:0:0:0:
329,192,148088,1,0,0:0:0:0:
475,192,148260,1,0,0:0:0:0:
182,192,148260,1,0,0:0:0:0:
402,192,148260,1,0,0:0:0:0:
256,192,148260,128,0,148346:0:0:0:0:
109,192,148433,1,0,0:0:0:0:
182,192,148519,1,0,0:0:0:0:
36,192,148605,128,0,148777:0:0:0:0:
256,192,148605,128,0,148691:0:0:0:0:
402,192,148605,1,0,0:0:0:0:
475,192,148605,1,0,0:0:0:0:
109,192,148777,1,0,0:0:0:0:
475,192,148777,128,0,148950:0:0:0:0:
182,192,148864,1,0,0:0:0:0:
402,192,148950,128,0,149122:0:0:0:0:
256,192,148950,1,0,0:0:0:0:
182,192,149122,1,0,0:0:0:0:
36,192,149122,1,0,0:0:0:0:
256,192,149122,128,0,149208:0:0:0:0:
329,192,149295,1,0,0:0:0:0:
475,192,149295,1,0,0:0:0:0:
402,192,149467,1,0,0:0:0:0:
109,192,149467,1,0,0:0:0:0:
256,192,149640,128,0,149726:0:0:0:0:
36,192,149640,1,0,0:0:0:0:
475,192,149640,1,0,0:0:0:0:
182,192,149812,1,0,0:0:0:0:
329,192,149812,1,0,0:0:0:0:
256,192,149984,128,0,150071:0:0:0:0:
402,192,149984,1,0,0:0:0:0:
475,192,150157,1,0,0:0:0:0:
182,192,150157,1,0,0:0:0:0:
402,192,150243,1,0,0:0:0:0:
109,192,150243,1,0,0:0:0:0:
329,192,150329,128,0,150502:0:0:0:0:
36,192,150329,128,0,150502:0:0:0:0:
475,192,150502,1,0,0:0:0:0:
402,192,150502,1,0,0:0:0:0:
182,192,150502,128,0,150588:0:0:0:0:
182,192,150846,128,0,150933:0:0:0:0:
256,192,151019,128,0,151105:0:0:0:0:
402,192,151364,1,0,0:0:0:0:
475,192,151364,1,0,0:0:0:0:
329,192,151536,5,0,0:0:0:0:
256,192,151536,1,0,0:0:0:0:
109,192,151708,1,0,0:0:0:0:
182,192,151708,1,0,0:0:0:0:
475,192,151881,1,0,0:0:0:0:
36,192,151881,1,0,0:0:0:0:
256,192,151881,128,0,151924:0:0:0:0:
329,192,151881,1,0,0:0:0:0:
402,192,152053,1,0,0:0:0:0:
182,192,152053,1,0,0:0:0:0:
329,192,152226,1,0,0:0:0:0:
256,192,152226,1,0,0:0:0:0:
402,192,152398,1,0,0:0:0:0:
256,192,152398,128,0,152441:0:0:0:0:
36,192,152398,1,0,0:0:0:0:
182,192,152398,1,0,0:0:0:0:
109,192,152571,1,0,0:0:0:0:
329,192,152571,1,0,0:0:0:0:
256,192,152743,128,0,152786:0:0:0:0:
36,192,152743,1,0,0:0:0:0:
182,192,152743,1,0,0:0:0:0:
329,192,152915,1,0,0:0:0:0:
402,192,153002,1,0,0:0:0:0:
475,192,153088,128,0,153260:0:0:0:0:
109,192,153260,1,0,0:0:0:0:
256,192,153260,128,0,153303:0:0:0:0:
182,192,153260,1,0,0:0:0:0:
475,192,153433,1,0,0:0:0:0:
329,192,153519,1,0,0:0:0:0:
475,192,153605,128,0,153777:0:0:0:0:
329,192,153777,1,0,0:0:0:0:
182,192,153777,1,0,0:0:0:0:
256,192,153777,128,0,153821:0:0:0:0:
109,192,153777,1,0,0:0:0:0:
402,192,153950,1,0,0:0:0:0:
329,192,154036,1,0,0:0:0:0:
36,192,154122,1,0,0:0:0:0:
475,192,154122,128,0,154295:0:0:0:0:
256,192,154122,128,0,154165:0:0:0:0:
109,192,154122,1,0,0:0:0:0:
36,192,154295,128,0,154467:0:0:0:0:
402,192,154295,1,0,0:0:0:0:
329,192,154381,1,0,0:0:0:0:
109,192,154467,128,0,154640:0:0:0:0:
256,192,154467,1,0,0:0:0:0:
402,192,154640,128,0,154683:0:0:0:0:
329,192,154640,128,0,154683:0:0:0:0:
256,192,154812,1,0,0:0:0:0:
182,192,154812,1,0,0:0:0:0:
36,192,154984,1,0,0:0:0:0:
109,192,154984,1,0,0:0:0:0:
402,192,155157,128,0,155200:0:0:0:0:
475,192,155157,128,0,155200:0:0:0:0:
329,192,155329,1,0,0:0:0:0:
256,192,155329,1,0,0:0:0:0:
109,192,155502,128,0,155545:0:0:0:0:
36,192,155502,128,0,155545:0:0:0:0:
256,192,155674,1,0,0:0:0:0:
182,192,155674,1,0,0:0:0:0:
36,192,155846,1,0,0:0:0:0:
109,192,155846,1,0,0:0:0:0:
329,192,155846,1,0,0:0:0:0:
256,192,156019,1,0,0:0:0:0:
475,192,156019,128,0,156062:0:0:0:0:
402,192,156019,128,0,156062:0:0:0:0:
329,192,156191,1,0,0:0:0:0:
36,192,156191,128,0,156795:0:0:0:0:
402,192,156277,1,0,0:0:0:0:
475,192,156364,1,0,0:0:0:0:
402,192,156450,1,0,0:0:0:0:
329,192,156536,1,0,0:0:0:0:
256,192,156622,1,0,0:0:0:0:
329,192,156708,1,0,0:0:0:0:
402,192,156795,1,0,0:0:0:0:
475,192,156795,128,0,157398:0:0:0:0:
36,192,156881,1,0,0:0:0:0:
109,192,156967,1,0,0:0:0:0:
182,192,157053,1,0,0:0:0:0:
256,192,157140,1,0,0:0:0:0:
329,192,157226,1,0,0:0:0:0:
256,192,157312,1,0,0:0:0:0:
182,192,157398,1,0,0:0:0:0:
109,192,157398,1,0,0:0:0:0:
36,192,157398,1,0,0:0:0:0:
329,192,157571,1,0,0:0:0:0:
402,192,157571,1,0,0:0:0:0:
475,192,157571,1,0,0:0:0:0:
256,192,157657,1,0,0:0:0:0:
329,192,157743,1,0,0:0:0:0:
402,192,157743,1,0,0:0:0:0:
475,192,157743,1,0,0:0:0:0:
36,192,157915,1,0,0:0:0:0:
109,192,157915,1,0,0:0:0:0:
182,192,157915,1,0,0:0:0:0:
475,192,157915,1,0,0:0:0:0:
402,192,158002,1,0,0:0:0:0:
36,192,158088,1,0,0:0:0:0:
109,192,158088,1,0,0:0:0:0:
182,192,158088,1,0,0:0:0:0:
329,192,158088,1,0,0:0:0:0:
256,192,158174,1,0,0:0:0:0:
402,192,158260,1,0,0:0:0:0:
475,192,158260,1,0,0:0:0:0:
329,192,158260,1,0,0:0:0:0:
182,192,158346,1,0,0:0:0:0:
36,192,158346,1,0,0:0:0:0:
329,192,158433,1,0,0:0:0:0:
402,192,158433,1,0,0:0:0:0:
475,192,158433,1,0,0:0:0:0:
109,192,158519,1,0,0:0:0:0:
182,192,158605,1,0,0:0:0:0:
256,192,158691,1,0,0:0:0:0:
475,192,158777,1,0,0:0:0:0:
402,192,158777,1,0,0:0:0:0:
36,192,158950,1,0,0:0:0:0:
182,192,158950,1,0,0:0:0:0:
256,192,159036,1,0,0:0:0:0:
109,192,159036,1,0,0:0:0:0:
182,192,159122,1,0,0:0:0:0:
329,192,159122,1,0,0:0:0:0:
402,192,159295,1,0,0:0:0:0:
475,192,159295,1,0,0:0:0:0:
36,192,159295,1,0,0:0:0:0:
256,192,159295,1,0,0:0:0:0:
109,192,159381,1,0,0:0:0:0:
475,192,159467,1,0,0:0:0:0:
329,192,159467,1,0,0:0:0:0:
182,192,159467,1,0,0:0:0:0:
256,192,159553,1,0,0:0:0:0:
36,192,159640,1,0,0:0:0:0:
109,192,159640,1,0,0:0:0:0:
182,192,159640,1,0,0:0:0:0:
329,192,159726,1,0,0:0:0:0:
402,192,159726,1,0,0:0:0:0:
182,192,159812,1,0,0:0:0:0:
109,192,159812,1,0,0:0:0:0:
36,192,159812,1,0,0:0:0:0:
256,192,159812,128,0,159898:0:0:0:0:
402,192,159984,1,0,0:0:0:0:
475,192,159984,1,0,0:0:0:0:
329,192,160157,1,0,0:0:0:0:
256,192,160157,1,0,0:0:0:0:
109,192,160329,1,0,0:0:0:0:
36,192,160329,1,0,0:0:0:0:
182,192,160329,1,0,0:0:0:0:
256,192,160415,1,0,0:0:0:0:
402,192,160502,1,0,0:0:0:0:
475,192,160502,1,0,0:0:0:0:
329,192,160502,1,0,0:0:0:0:
109,192,160674,1,0,0:0:0:0:
36,192,160674,1,0,0:0:0:0:
329,192,160674,1,0,0:0:0:0:
256,192,160760,1,0,0:0:0:0:
475,192,160846,1,0,0:0:0:0:
402,192,160846,1,0,0:0:0:0:
182,192,160846,1,0,0:0:0:0:
109,192,160933,1,0,0:0:0:0:
182,192,161019,1,0,0:0:0:0:
256,192,161019,1,0,0:0:0:0:
475,192,161191,1,0,0:0:0:0:
402,192,161277,1,0,0:0:0:0:
329,192,161364,1,0,0:0:0:0:
256,192,161364,1,0,0:0:0:0:
182,192,161450,1,0,0:0:0:0:
475,192,161536,1,0,0:0:0:0:
36,192,161536,1,0,0:0:0:0:
109,192,161536,1,0,0:0:0:0:
402,192,161536,1,0,0:0:0:0:
329,192,161708,1,0,0:0:0:0:
36,192,161708,1,0,0:0:0:0:
109,192,161795,1,0,0:0:0:0:
402,192,161881,1,0,0:0:0:0:
475,192,161881,1,0,0:0:0:0:
256,192,161881,1,0,0:0:0:0:
182,192,161881,1,0,0:0:0:0:
109,192,162053,1,0,0:0:0:0:
329,192,162053,1,0,0:0:0:0:
256,192,162226,1,0,0:0:0:0:
36,192,162226,1,0,0:0:0:0:
182,192,162226,1,0,0:0:0:0:
109,192,162398,1,0,0:0:0:0:
256,192,162398,1,0,0:0:0:0:
329,192,162398,1,0,0:0:0:0:
475,192,162571,1,0,0:0:0:0:
402,192,162614,1,0,0:0:0:0:
329,192,162657,1,0,0:0:0:0:
475,192,162700,1,0,0:0:0:0:
402,192,162743,1,0,0:0:0:0:
329,192,162786,1,0,0:0:0:0:
256,192,162915,1,0,0:0:0:0:
36,192,162915,1,0,0:0:0:0:
109,192,162915,1,0,0:0:0:0:
402,192,163088,1,0,0:0:0:0:
475,192,163088,1,0,0:0:0:0:
329,192,163088,1,0,0:0:0:0:
182,192,163088,1,0,0:0:0:0:
256,192,163174,1,0,0:0:0:0:
36,192,163260,1,0,0:0:0:0:
329,192,163260,1,0,0:0:0:0:
402,192,163433,1,0,0:0:0:0:
256,192,163433,1,0,0:0:0:0:
109,192,163433,1,0,0:0:0:0:
182,192,163605,1,0,0:0:0:0:
475,192,163605,1,0,0:0:0:0:
36,192,163605,1,0,0:0:0:0:
329,192,163605,1,0,0:0:0:0:
109,192,163777,1,0,0:0:0:0:
402,192,163777,1,0,0:0:0:0:
256,192,163777,1,0,0:0:0:0:
182,192,163950,1,0,0:0:0:0:
36,192,163950,1,0,0:0:0:0:
329,192,163950,1,0,0:0:0:0:
475,192,164122,1,0,0:0:0:0:
256,192,164122,1,0,0:0:0:0:
182,192,164208,1,0,0:0:0:0:
36,192,164295,1,0,0:0:0:0:
109,192,164295,1,0,0:0:0:0:
402,192,164424,1,0,0:0:0:0:
475,192,164424,1,0,0:0:0:0:
329,192,164424,1,0,0:0:0:0:
182,192,164553,1,0,0:0:0:0:
109,192,164553,1,0,0:0:0:0:
36,192,164553,1,0,0:0:0:0:
475,192,164683,1,0,0:0:0:0:
402,192,164683,1,0,0:0:0:0:
329,192,164683,1,0,0:0:0:0:
36,192,164812,1,0,0:0:0:0:
182,192,164812,1,0,0:0:0:0:
109,192,164812,1,0,0:0:0:0:
475,192,164941,1,0,0:0:0:0:
402,192,164941,1,0,0:0:0:0:
329,192,164941,1,0,0:0:0:0:
182,192,165071,1,0,0:0:0:0:
109,192,165071,1,0,0:0:0:0:
36,192,165071,1,0,0:0:0:0:
329,192,165157,1,0,0:0:0:0:
402,192,165157,1,0,0:0:0:0:
475,192,165157,1,0,0:0:0:0:
182,192,165243,1,0,0:0:0:0:
109,192,165243,1,0,0:0:0:0:
36,192,165243,1,0,0:0:0:0:
329,192,165329,1,0,0:0:0:0:
402,192,165329,1,0,0:0:0:0:
475,192,165329,1,0,0:0:0:0:
182,192,165415,1,0,0:0:0:0:
109,192,165415,1,0,0:0:0:0:
36,192,165415,1,0,0:0:0:0:
329,192,165502,1,0,0:0:0:0:
402,192,165502,1,0,0:0:0:0:
475,192,165502,1,0,0:0:0:0:
36,192,165674,1,0,0:0:0:0:
109,192,165674,1,0,0:0:0:0:
256,192,165674,1,0,0:0:0:0:
182,192,165674,1,0,0:0:0:0:
36,192,167053,128,0,168088:0:0:0:0:
329,192,167226,1,0,0:0:0:0:
402,192,167269,1,0,0:0:0:0:
109,192,167312,1,0,0:0:0:0:
182,192,167355,1,0,0:0:0:0:
256,192,167398,1,0,0:0:0:0:
402,192,167484,1,0,0:0:0:0:
475,192,167527,1,0,0:0:0:0:
182,192,167571,1,0,0:0:0:0:
256,192,167614,1,0,0:0:0:0:
329,192,167657,1,0,0:0:0:0:
402,192,167743,128,0,167915:0:0:0:0:
329,192,167915,128,0,168088:0:0:0:0:
182,192,168088,5,0,0:0:0:0:
256,192,168088,1,0,0:0:0:0:
475,192,168088,1,0,0:0:0:0:
329,192,168433,5,0,0:0:0:0:
402,192,168433,1,0,0:0:0:0:
36,192,168433,1,0,0:0:0:0:
109,192,168433,1,0,0:0:0:0:
182,192,168605,1,0,0:0:0:0:
475,192,168605,1,0,0:0:0:0:
402,192,168777,1,0,0:0:0:0:
36,192,168777,1,0,0:0:0:0:
109,192,168777,1,0,0:0:0:0:
256,192,168950,1,0,0:0:0:0:
329,192,168950,1,0,0:0:0:0:
36,192,169122,1,0,0:0:0:0:
182,192,169122,1,0,0:0:0:0:
402,192,169122,1,0,0:0:0:0:
109,192,169295,1,0,0:0:0:0:
256,192,169295,1,0,0:0:0:0:
329,192,169295,1,0,0:0:0:0:
475,192,169467,1,0,0:0:0:0:
182,192,169467,1,0,0:0:0:0:
402,192,169553,1,0,0:0:0:0:
109,192,169553,1,0,0:0:0:0:
329,192,169640,1,0,0:0:0:0:
36,192,169640,1,0,0:0:0:0:
256,192,169812,1,0,0:0:0:0:
182,192,169812,1,0,0:0:0:0:
109,192,169812,1,0,0:0:0:0:
36,192,169984,1,0,0:0:0:0:
329,192,169984,1,0,0:0:0:0:
109,192,170071,1,0,0:0:0:0:
402,192,170071,1,0,0:0:0:0:
182,192,170157,1,0,0:0:0:0:
475,192,170157,1,0,0:0:0:0:
256,192,170329,1,0,0:0:0:0:
329,192,170502,1,0,0:0:0:0:
182,192,170502,1,0,0:0:0:0:
402,192,170588,1,0,0:0:0:0:
109,192,170588,1,0,0:0:0:0:
475,192,170674,1,0,0:0:0:0:
36,192,170674,1,0,0:0:0:0:
475,192,170846,1,0,0:0:0:0:
36,192,170846,1,0,0:0:0:0:
402,192,170933,1,0,0:0:0:0:
109,192,170933,1,0,0:0:0:0:
256,192,171019,1,0,0:0:0:0:
329,192,171019,1,0,0:0:0:0:
182,192,171019,1,0,0:0:0:0:
402,192,171191,1,0,0:0:0:0:
109,192,171191,1,0,0:0:0:0:
475,192,171364,1,0,0:0:0:0:
329,192,171364,1,0,0:0:0:0:
182,192,171364,1,0,0:0:0:0:
402,192,171536,1,0,0:0:0:0:
109,192,171536,1,0,0:0:0:0:
36,192,171536,1,0,0:0:0:0:
256,192,171536,1,0,0:0:0:0:
182,192,171708,1,0,0:0:0:0:
475,192,171708,1,0,0:0:0:0:
329,192,171708,1,0,0:0:0:0:
109,192,171881,1,0,0:0:0:0:
256,192,171881,1,0,0:0:0:0:
402,192,171881,1,0,0:0:0:0:
36,192,172053,1,0,0:0:0:0:
182,192,172053,1,0,0:0:0:0:
329,192,172053,1,0,0:0:0:0:
329,192,172226,1,0,0:0:0:0:
36,192,172226,1,0,0:0:0:0:
402,192,172312,1,0,0:0:0:0:
109,192,172312,1,0,0:0:0:0:
475,192,172398,1,0,0:0:0:0:
182,192,172398,1,0,0:0:0:0:
475,192,172571,1,0,0:0:0:0:
402,192,172657,1,0,0:0:0:0:
329,192,172743,1,0,0:0:0:0:
36,192,172743,1,0,0:0:0:0:
109,192,172829,1,0,0:0:0:0:
402,192,172915,1,0,0:0:0:0:
182,192,172915,1,0,0:0:0:0:
329,192,173002,1,0,0:0:0:0:
256,192,173088,1,0,0:0:0:0:
475,192,173131,1,0,0:0:0:0:
402,192,173174,1,0,0:0:0:0:
329,192,173217,1,0,0:0:0:0:
256,192,173260,1,0,0:0:0:0:
36,192,173303,1,0,0:0:0:0:
109,192,173346,1,0,0:0:0:0:
182,192,173390,1,0,0:0:0:0:
256,192,173433,1,0,0:0:0:0:
475,192,173476,1,0,0:0:0:0:
402,192,173519,1,0,0:0:0:0:
329,192,173562,1,0,0:0:0:0:
256,192,173605,1,0,0:0:0:0:
182,192,173648,1,0,0:0:0:0:
475,192,173691,1,0,0:0:0:0:
402,192,173734,1,0,0:0:0:0:
36,192,173777,1,0,0:0:0:0:
329,192,173777,1,0,0:0:0:0:
109,192,173821,1,0,0:0:0:0:
182,192,173864,1,0,0:0:0:0:
256,192,173907,1,0,0:0:0:0:
329,192,173950,1,0,0:0:0:0:
475,192,173950,1,0,0:0:0:0:
402,192,173950,1,0,0:0:0:0:
182,192,174122,1,0,0:0:0:0:
329,192,174122,1,0,0:0:0:0:
256,192,174122,1,0,0:0:0:0:
36,192,174295,1,0,0:0:0:0:
109,192,174295,1,0,0:0:0:0:
475,192,174467,1,0,0:0:0:0:
182,192,174467,1,0,0:0:0:0:
329,192,174467,1,0,0:0:0:0:
402,192,174467,1,0,0:0:0:0:
109,192,174640,1,0,0:0:0:0:
36,192,174640,1,0,0:0:0:0:
256,192,174640,1,0,0:0:0:0:
475,192,174812,1,0,0:0:0:0:
329,192,174812,1,0,0:0:0:0:
182,192,174812,1,0,0:0:0:0:
36,192,174984,1,0,0:0:0:0:
109,192,174984,1,0,0:0:0:0:
182,192,175071,1,0,0:0:0:0:
402,192,175157,1,0,0:0:0:0:
256,192,175157,1,0,0:0:0:0:
36,192,175329,1,0,0:0:0:0:
182,192,175329,1,0,0:0:0:0:
329,192,175329,1,0,0:0:0:0:
475,192,175502,1,0,0:0:0:0:
402,192,175502,1,0,0:0:0:0:
329,192,175588,1,0,0:0:0:0:
256,192,175674,1,0,0:0:0:0:
109,192,175674,1,0,0:0:0:0:
475,192,175846,1,0,0:0:0:0:
329,192,175846,1,0,0:0:0:0:
182,192,175846,1,0,0:0:0:0:
256,192,176019,1,0,0:0:0:0:
36,192,176019,1,0,0:0:0:0:
109,192,176105,1,0,0:0:0:0:
329,192,176191,1,0,0:0:0:0:
182,192,176191,1,0,0:0:0:0:
256,192,176364,1,0,0:0:0:0:
475,192,176364,1,0,0:0:0:0:
402,192,176450,1,0,0:0:0:0:
182,192,176536,1,0,0:0:0:0:
329,192,176536,1,0,0:0:0:0:
402,192,176708,128,0,176881:0:0:0:0:
256,192,176708,128,0,176881:0:0:0:0:
36,192,176708,128,0,176881:0:0:0:0:
329,192,176881,128,0,177053:0:0:0:0:
182,192,176881,128,0,177053:0:0:0:0:
109,192,176881,128,0,177053:0:0:0:0:
36,192,177053,128,0,177226:0:0:0:0:
256,192,177053,128,0,177226:0:0:0:0:
402,192,177053,128,0,177226:0:0:0:0:
329,192,177226,128,0,177398:0:0:0:0:
182,192,177226,128,0,177398:0:0:0:0:
475,192,177226,128,0,177398:0:0:0:0:
109,192,177398,128,0,177571:0:0:0:0:
402,192,177398,128,0,177571:0:0:0:0:
36,192,177571,128,0,177743:0:0:0:0:
475,192,177571,128,0,177743:0:0:0:0:
256,192,177743,128,0,178088:0:0:0:0:
329,192,177743,128,0,178088:0:0:0:0:
182,192,177829,128,0,178088:0:0:0:0:
109,192,177829,128,0,178088:0:0:0:0:
402,192,177915,128,0,178088:0:0:0:0:
475,192,177915,128,0,178088:0:0:0:0:
36,192,178088,1,0,0:0:0:0:
109,192,178346,1,0,0:0:0:0:
36,192,178346,1,0,0:0:0:0:
402,192,178433,1,0,0:0:0:0:
475,192,178433,1,0,0:0:0:0:
36,192,178519,1,0,0:0:0:0:
109,192,178519,1,0,0:0:0:0:
182,192,178605,1,0,0:0:0:0:
256,192,178691,1,0,0:0:0:0:
329,192,178777,1,0,0:0:0:0:
402,192,178777,1,0,0:0:0:0:
475,192,178777,1,0,0:0:0:0:
182,192,178950,1,0,0:0:0:0:
109,192,178950,1,0,0:0:0:0:
36,192,178950,1,0,0:0:0:0:
329,192,179036,1,0,0:0:0:0:
402,192,179036,1,0,0:0:0:0:
475,192,179036,1,0,0:0:0:0:
182,192,179122,1,0,0:0:0:0:
109,192,179122,1,0,0:0:0:0:
36,192,179122,1,0,0:0:0:0:
329,192,179208,1,0,0:0:0:0:
402,192,179208,1,0,0:0:0:0:
475,192,179208,1,0,0:0:0:0:
182,192,179295,1,0,0:0:0:0:
109,192,179295,1,0,0:0:0:0:
36,192,179295,1,0,0:0:0:0:
329,192,179381,1,0,0:0:0:0:
402,192,179381,1,0,0:0:0:0:
475,192,179381,1,0,0:0:0:0:
182,192,179467,1,0,0:0:0:0:
109,192,179467,1,0,0:0:0:0:
36,192,179467,1,0,0:0:0:0:
329,192,179640,1,0,0:0:0:0:
475,192,179640,1,0,0:0:0:0:
36,192,179812,1,0,0:0:0:0:
256,192,179812,1,0,0:0:0:0:
402,192,179812,1,0,0:0:0:0:
109,192,179984,1,0,0:0:0:0:
475,192,179984,1,0,0:0:0:0:
329,192,180157,1,0,0:0:0:0:
402,192,180157,1,0,0:0:0:0:
182,192,180157,1,0,0:0:0:0:
256,192,180329,1,0,0:0:0:0:
36,192,180329,1,0,0:0:0:0:
109,192,180329,1,0,0:0:0:0:
182,192,180502,1,0,0:0:0:0:
329,192,180502,1,0,0:0:0:0:
475,192,180502,1,0,0:0:0:0:
402,192,180674,1,0,0:0:0:0:
109,192,180674,1,0,0:0:0:0:
36,192,180674,1,0,0:0:0:0:
329,192,180846,1,0,0:0:0:0:
475,192,180846,1,0,0:0:0:0:
256,192,180846,1,0,0:0:0:0:
109,192,181019,1,0,0:0:0:0:
36,192,181019,1,0,0:0:0:0:
182,192,181191,1,0,0:0:0:0:
329,192,181191,1,0,0:0:0:0:
402,192,181191,1,0,0:0:0:0:
475,192,181191,1,0,0:0:0:0:
256,192,181364,1,0,0:0:0:0:
109,192,181364,1,0,0:0:0:0:
36,192,181536,1,0,0:0:0:0:
329,192,181536,1,0,0:0:0:0:
475,192,181536,1,0,0:0:0:0:
182,192,181708,1,0,0:0:0:0:
256,192,181881,1,0,0:0:0:0:
402,192,181881,1,0,0:0:0:0:
109,192,181881,1,0,0:0:0:0:
329,192,182053,1,0,0:0:0:0:
475,192,182226,1,0,0:0:0:0:
402,192,182226,1,0,0:0:0:0:
182,192,182226,1,0,0:0:0:0:
36,192,182226,1,0,0:0:0:0:
109,192,182398,1,0,0:0:0:0:
329,192,182398,1,0,0:0:0:0:
256,192,182571,1,0,0:0:0:0:
182,192,182571,1,0,0:0:0:0:
475,192,182571,1,0,0:0:0:0:
329,192,182743,1,0,0:0:0:0:
109,192,182743,1,0,0:0:0:0:
36,192,182915,1,0,0:0:0:0:
182,192,182915,1,0,0:0:0:0:
256,192,182915,1,0,0:0:0:0:
475,192,182915,1,0,0:0:0:0:
329,192,183088,1,0,0:0:0:0:
402,192,183088,1,0,0:0:0:0:
256,192,183174,1,0,0:0:0:0:
109,192,183260,1,0,0:0:0:0:
182,192,183260,1,0,0:0:0:0:
475,192,183433,1,0,0:0:0:0:
329,192,183433,1,0,0:0:0:0:
182,192,183433,1,0,0:0:0:0:
36,192,183605,1,0,0:0:0:0:
402,192,183605,1,0,0:0:0:0:
109,192,183605,1,0,0:0:0:0:
182,192,183691,1,0,0:0:0:0:
475,192,183691,1,0,0:0:0:0:
256,192,183777,1,0,0:0:0:0:
329,192,183864,1,0,0:0:0:0:
182,192,183950,1,0,0:0:0:0:
109,192,183950,1,0,0:0:0:0:
402,192,183950,1,0,0:0:0:0:
475,192,184036,1,0,0:0:0:0:
256,192,184122,1,0,0:0:0:0:
329,192,184122,1,0,0:0:0:0:
36,192,184122,1,0,0:0:0:0:
109,192,184208,1,0,0:0:0:0:
475,192,184295,1,0,0:0:0:0:
182,192,184295,1,0,0:0:0:0:
256,192,184381,1,0,0:0:0:0:
36,192,184467,1,0,0:0:0:0:
329,192,184467,1,0,0:0:0:0:
256,192,184553,1,0,0:0:0:0:
329,192,184640,1,0,0:0:0:0:
182,192,184640,1,0,0:0:0:0:
402,192,184726,1,0,0:0:0:0:
109,192,184726,1,0,0:0:0:0:
475,192,184812,1,0,0:0:0:0:
182,192,184812,1,0,0:0:0:0:
256,192,184898,1,0,0:0:0:0:
182,192,184984,1,0,0:0:0:0:
36,192,184984,1,0,0:0:0:0:
329,192,184984,1,0,0:0:0:0:
109,192,185157,1,0,0:0:0:0:
256,192,185157,1,0,0:0:0:0:
329,192,185329,1,0,0:0:0:0:
402,192,185329,1,0,0:0:0:0:
182,192,185329,1,0,0:0:0:0:
256,192,185502,1,0,0:0:0:0:
475,192,185502,1,0,0:0:0:0:
182,192,185674,1,0,0:0:0:0:
402,192,185674,1,0,0:0:0:0:
109,192,185846,1,0,0:0:0:0:
36,192,185846,1,0,0:0:0:0:
256,192,185846,1,0,0:0:0:0:
329,192,186019,1,0,0:0:0:0:
402,192,186019,1,0,0:0:0:0:
475,192,186019,1,0,0:0:0:0:
182,192,186019,1,0,0:0:0:0:
109,192,186105,1,0,0:0:0:0:
36,192,186191,1,0,0:0:0:0:
256,192,186191,1,0,0:0:0:0:
182,192,186364,1,0,0:0:0:0:
475,192,186364,1,0,0:0:0:0:
109,192,186364,1,0,0:0:0:0:
256,192,186536,1,0,0:0:0:0:
182,192,186622,1,0,0:0:0:0:
109,192,186708,1,0,0:0:0:0:
402,192,186708,1,0,0:0:0:0:
475,192,186708,1,0,0:0:0:0:
256,192,186881,1,0,0:0:0:0:
182,192,187053,1,0,0:0:0:0:
475,192,187053,1,0,0:0:0:0:
109,192,187053,1,0,0:0:0:0:
256,192,187140,1,0,0:0:0:0:
329,192,187226,1,0,0:0:0:0:
402,192,187226,1,0,0:0:0:0:
36,192,187226,1,0,0:0:0:0:
402,192,187398,1,0,0:0:0:0:
109,192,187398,1,0,0:0:0:0:
182,192,187398,1,0,0:0:0:0:
329,192,187484,1,0,0:0:0:0:
256,192,187571,1,0,0:0:0:0:
402,192,187743,1,0,0:0:0:0:
182,192,187743,1,0,0:0:0:0:
109,192,187743,1,0,0:0:0:0:
36,192,187915,1,0,0:0:0:0:
256,192,187915,1,0,0:0:0:0:
475,192,187915,1,0,0:0:0:0:
182,192,188088,1,0,0:0:0:0:
329,192,188088,1,0,0:0:0:0:
402,192,188088,1,0,0:0:0:0:
256,192,188260,1,0,0:0:0:0:
109,192,188260,1,0,0:0:0:0:
475,192,188260,1,0,0:0:0:0:
329,192,188433,1,0,0:0:0:0:
402,192,188433,1,0,0:0:0:0:
182,192,188433,1,0,0:0:0:0:
475,192,188605,1,0,0:0:0:0:
109,192,188605,1,0,0:0:0:0:
256,192,188605,1,0,0:0:0:0:
36,192,188777,1,0,0:0:0:0:
402,192,188777,1,0,0:0:0:0:
329,192,188777,1,0,0:0:0:0:
256,192,188950,1,0,0:0:0:0:
182,192,188950,1,0,0:0:0:0:
329,192,189122,1,0,0:0:0:0:
402,192,189122,1,0,0:0:0:0:
109,192,189122,1,0,0:0:0:0:
36,192,189122,1,0,0:0:0:0:
475,192,189295,128,0,189984:0:0:0:0:
402,192,189467,128,0,189984:0:0:0:0:
329,192,189640,128,0,189984:0:0:0:0:
36,192,189769,128,0,190157:0:0:0:0:
109,192,189898,128,0,190157:0:0:0:0:
182,192,189984,128,0,190157:0:0:0:0:
256,192,190157,128,0,190502:0:0:0:0:
329,192,190157,1,0,0:0:0:0:
402,192,190157,1,0,0:0:0:0:
475,192,190157,1,0,0:0:0:0:
36,192,190502,1,0,0:0:0:0:
475,192,190502,1,0,0:0:0:0:
109,192,190674,1,0,0:0:0:0:
182,192,190674,1,0,0:0:0:0:
402,192,190674,1,0,0:0:0:0:
256,192,190846,1,0,0:0:0:0:
329,192,190846,1,0,0:0:0:0:
36,192,190846,1,0,0:0:0:0:
109,192,191019,1,0,0:0:0:0:
402,192,191019,1,0,0:0:0:0:
182,192,191019,1,0,0:0:0:0:
256,192,191191,1,0,0:0:0:0:
475,192,191191,1,0,0:0:0:0:
329,192,191191,1,0,0:0:0:0:
36,192,191191,1,0,0:0:0:0:
402,192,191364,1,0,0:0:0:0:
109,192,191364,1,0,0:0:0:0:
182,192,191364,1,0,0:0:0:0:
36,192,191536,1,0,0:0:0:0:
256,192,191536,1,0,0:0:0:0:
475,192,191536,1,0,0:0:0:0:
402,192,191622,1,0,0:0:0:0:
109,192,191622,1,0,0:0:0:0:
182,192,191708,1,0,0:0:0:0:
329,192,191708,1,0,0:0:0:0:
109,192,191881,1,0,0:0:0:0:
402,192,191881,1,0,0:0:0:0:
256,192,191881,1,0,0:0:0:0:
329,192,192053,1,0,0:0:0:0:
182,192,192053,1,0,0:0:0:0:
402,192,192140,1,0,0:0:0:0:
109,192,192140,1,0,0:0:0:0:
475,192,192226,1,0,0:0:0:0:
36,192,192226,1,0,0:0:0:0:
256,192,192226,1,0,0:0:0:0:
182,192,192398,1,0,0:0:0:0:
109,192,192398,1,0,0:0:0:0:
329,192,192398,1,0,0:0:0:0:
402,192,192398,1,0,0:0:0:0:
36,192,192571,1,0,0:0:0:0:
109,192,192571,1,0,0:0:0:0:
182,192,192657,1,0,0:0:0:0:
256,192,192743,1,0,0:0:0:0:
329,192,192743,1,0,0:0:0:0:
402,192,192743,1,0,0:0:0:0:
402,192,192915,1,0,0:0:0:0:
475,192,192915,1,0,0:0:0:0:
329,192,193002,1,0,0:0:0:0:
182,192,193088,1,0,0:0:0:0:
109,192,193088,128,0,193260:0:0:0:0:
36,192,193260,1,0,0:0:0:0:
256,192,193260,1,0,0:0:0:0:
329,192,193260,1,0,0:0:0:0:
402,192,193433,1,0,0:0:0:0:
475,192,193433,1,0,0:0:0:0:
182,192,193433,128,0,193605:0:0:0:0:
256,192,193605,1,0,0:0:0:0:
329,192,193605,1,0,0:0:0:0:
36,192,193605,1,0,0:0:0:0:
109,192,193777,1,0,0:0:0:0:
475,192,193777,128,0,193950:0:0:0:0:
402,192,193777,1,0,0:0:0:0:
182,192,193950,1,0,0:0:0:0:
36,192,193950,128,0,194122:0:0:0:0:
329,192,194122,1,0,0:0:0:0:
109,192,194122,1,0,0:0:0:0:
256,192,194122,128,0,194295:0:0:0:0:
182,192,194295,1,0,0:0:0:0:
402,192,194295,1,0,0:0:0:0:
109,192,194381,1,0,0:0:0:0:
36,192,194467,1,0,0:0:0:0:
256,192,194467,128,0,194640:0:0:0:0:
475,192,194467,1,0,0:0:0:0:
182,192,194553,128,0,194640:0:0:0:0:
402,192,194553,1,0,0:0:0:0:
109,192,194596,128,0,194640:0:0:0:0:
329,192,194640,1,0,0:0:0:0:
182,192,194812,1,0,0:0:0:0:
36,192,194812,1,0,0:0:0:0:
256,192,194984,1,0,0:0:0:0:
109,192,194984,1,0,0:0:0:0:
329,192,194984,1,0,0:0:0:0:
182,192,195157,1,0,0:0:0:0:
402,192,195157,1,0,0:0:0:0:
475,192,195157,1,0,0:0:0:0:
329,192,195329,1,0,0:0:0:0:
256,192,195329,1,0,0:0:0:0:
109,192,195329,1,0,0:0:0:0:
402,192,195502,1,0,0:0:0:0:
36,192,195502,1,0,0:0:0:0:
109,192,195588,1,0,0:0:0:0:
182,192,195674,1,0,0:0:0:0:
256,192,195674,1,0,0:0:0:0:
329,192,195674,1,0,0:0:0:0:
475,192,195760,1,0,0:0:0:0:
402,192,195846,1,0,0:0:0:0:
329,192,195933,1,0,0:0:0:0:
256,192,196019,1,0,0:0:0:0:
109,192,196019,1,0,0:0:0:0:
36,192,196019,1,0,0:0:0:0:
329,192,196191,1,0,0:0:0:0:
182,192,196191,1,0,0:0:0:0:
475,192,196191,1,0,0:0:0:0:
109,192,196364,1,0,0:0:0:0:
402,192,196364,1,0,0:0:0:0:
36,192,196364,1,0,0:0:0:0:
329,192,196536,1,0,0:0:0:0:
182,192,196536,1,0,0:0:0:0:
475,192,196708,1,0,0:0:0:0:
256,192,196708,1,0,0:0:0:0:
402,192,196881,1,0,0:0:0:0:
329,192,196881,1,0,0:0:0:0:
182,192,197053,1,0,0:0:0:0:
256,192,197053,1,0,0:0:0:0:
475,192,197053,1,0,0:0:0:0:
109,192,197140,1,0,0:0:0:0:
36,192,197226,1,0,0:0:0:0:
256,192,197398,1,0,0:0:0:0:
182,192,197398,1,0,0:0:0:0:
109,192,197398,1,0,0:0:0:0:
329,192,197571,1,0,0:0:0:0:
402,192,197657,1,0,0:0:0:0:
475,192,197743,1,0,0:0:0:0:
36,192,197743,1,0,0:0:0:0:
109,192,197743,1,0,0:0:0:0:
182,192,197743,1,0,0:0:0:0:
329,192,197915,1,0,0:0:0:0:
402,192,197915,1,0,0:0:0:0:
256,192,198088,1,0,0:0:0:0:
182,192,198174,1,0,0:0:0:0:
109,192,198260,1,0,0:0:0:0:
402,192,198260,1,0,0:0:0:0:
475,192,198260,1,0,0:0:0:0:
36,192,198433,1,0,0:0:0:0:
109,192,198433,1,0,0:0:0:0:
182,192,198433,1,0,0:0:0:0:
256,192,198519,1,0,0:0:0:0:
329,192,198605,1,0,0:0:0:0:
402,192,198777,1,0,0:0:0:0:
475,192,198777,1,0,0:0:0:0:
36,192,198777,128,0,198950:0:0:0:0:
182,192,198950,128,0,199122:0:0:0:0:
329,192,199122,1,0,0:0:0:0:
402,192,199122,1,0,0:0:0:0:
475,192,199122,1,0,0:0:0:0:
36,192,199122,128,0,199295:0:0:0:0:
182,192,199295,128,0,199467:0:0:0:0:
402,192,199295,1,0,0:0:0:0:
329,192,199295,1,0,0:0:0:0:
109,192,199467,128,0,199640:0:0:0:0:
256,192,199467,128,0,199640:0:0:0:0:
182,192,199640,128,0,199812:0:0:0:0:
475,192,199640,1,0,0:0:0:0:
329,192,199640,1,0,0:0:0:0:
256,192,199812,128,0,199898:0:0:0:0:
402,192,199812,128,0,199898:0:0:0:0:
36,192,199812,1,0,0:0:0:0:
109,192,199812,1,0,0:0:0:0:
329,192,199898,128,0,199984:0:0:0:0:
475,192,199898,128,0,199984:0:0:0:0:
182,192,199984,1,0,0:0:0:0:
109,192,199984,1,0,0:0:0:0:
36,192,199984,1,0,0:0:0:0:
