osu file format v14

[General]
AudioFilename: audio.mp3
AudioLeadIn: 0
PreviewTime: 29
Countdown: 0
SampleSet: Soft
StackLeniency: 0.3
Mode: 0
LetterboxInBreaks: 0
WidescreenStoryboard: 1

[Editor]
Bookmarks: 13100,37100,61100,79100,91100,103100,109094,113600,139100,163100
DistanceSpacing: 3
BeatDivisor: 4
GridSize: 16
TimelineZoom: 3.199999

[Metadata]
Title:Tokyo Snorkel (feat. nicamoq)
TitleUnicode:東京シュノーケル (feat. nicamoq)
Artist:Yunomi
ArtistUnicode:Yunomi
Creator:MatthewRobo
Version:actual lower sv
Source:Lanota
Tags:
BeatmapID:1319422
BeatmapSetID:624036

[Difficulty]
HPDrainRate:6
CircleSize:4
OverallDifficulty:7
ApproachRate:9
SliderMultiplier:1.4
SliderTickRate:1

[Events]
//Background and Video events
//Break Periods
//Storyboard Layer 0 (Background)
//Storyboard Layer 1 (Fail)
//Storyboard Layer 2 (Pass)
//Storyboard Layer 3 (Foreground)
//Storyboard Sound Samples

[TimingPoints]
1100,375,4,2,0,50,1,0
13100,-90.9090909090909,4,2,0,50,0,0
22287,-142.857142857143,4,2,0,50,0,0
23781,-90.9090909090909,4,2,0,50,0,0
43100,-90.9090909090909,4,1,0,50,0,0
46100,-90.9090909090909,4,2,0,50,0,0
47600,-90.9090909090909,4,2,0,5,0,0
49100,-125,4,2,0,50,0,1
61100,-83.3333333333333,4,2,0,50,0,1
73100,-100,4,2,0,50,0,0
113600,-166.666666666667,4,2,0,50,0,0
115100,-76.9230769230769,4,2,0,50,0,1
151100,-142.857142857143,4,2,0,50,0,0
163100,-200,4,2,0,50,0,0

[HitObjects]
297,163,1100,6,0,P|253:130|244:97,1,70
353,147,1475,2,0,P|360:93|383:67,1,70
359,190,1850,2,0,P|356:263|285:298,1,140,2|0,0:0|0:0,0:0:0:0:
254,198,2412,1,0,0:0:0:0:
219,132,2600,6,0,P|197:83|204:47,1,70
217,280,2975,2,0,P|270:286|292:309,1,70
176,276,3350,2,0,P|125:226|146:147,1,140,2|0,0:0|0:0,0:0:0:0:
297,174,3912,1,0,0:0:0:0:
300,288,4100,6,0,P|349:251|361:215,1,70
232,241,4475,2,0,P|292:227|319:199,1,70
215,232,4850,2,0,P|195:195|195:154,1,70,2|0,0:0|0:0,0:0:0:0:
170,249,5225,2,0,P|148:213|148:171,1,70
144,112,5600,5,2,0:0:0:0:
251,135,5787,1,0,0:0:0:0:
361,157,5975,1,0,0:0:0:0:
407,322,6162,2,0,P|349:266|362:189,1,140,2|0,0:0|0:0,0:0:0:0:
233,269,6725,2,0,L|156:323,1,70,2|0,0:0|0:0,0:0:0:0:
236,94,7100,6,0,P|185:72|155:79,1,70,4|0,0:0|0:0,0:0:0:0:
57,117,7475,2,0,P|41:63|50:23,1,70
79,154,7850,2,0,P|99:225|54:276,1,140,2|0,0:0|0:0,0:0:0:0:
164,267,8412,1,0,0:0:0:0:
252,121,8600,6,0,P|213:107|174:114,1,70
304,110,8975,2,0,P|297:69|310:31,1,70
319,154,9350,2,0,P|326:232|274:272,1,140,2|0,0:0|0:0,0:0:0:0:
319,154,9912,1,0,0:0:0:0:
228,114,10100,6,0,P|227:173|207:202,1,70,4|0,0:0|0:0,0:0:0:0:
117,119,10475,2,0,P|117:59|135:34,1,70
137,164,10850,2,0,P|152:240|101:294,1,140,2|0,0:0|0:0,0:0:0:0:
253,336,11412,1,0,0:0:0:0:
280,229,11600,5,2,0:0:0:0:
418,166,11787,1,0,0:0:0:0:
296,80,11975,1,0,0:0:0:0:
246,151,12162,2,0,P|217:192|202:206,1,70,2|8,0:0|0:0,0:0:0:0:
335,226,12537,5,0,0:0:0:0:
186,236,12725,1,2,0:0:0:0:
186,236,13100,6,0,P|153:265|113:288,1,77.0000023498536,2|0,0:0|0:0,0:0:0:0:
10,283,13475,2,0,P|38:256|75:235,1,77.0000023498536,2|0,0:0|0:0,0:0:0:0:
329,116,13850,1,0,0:0:0:0:
150,181,14037,2,0,P|128:224|144:256,1,77.0000023498536
186,310,14412,1,0,0:0:0:0:
284,100,14600,5,2,0:0:0:0:
396,143,14787,1,0,0:0:0:0:
276,161,14975,1,0,0:0:0:0:
385,211,15162,1,0,0:0:0:0:
292,39,15350,1,2,0:0:0:0:
299,238,15537,2,0,P|288:272|245:314,1,77.0000023498536
203,318,15912,5,0,0:0:0:0:
87,347,16100,1,2,0:0:0:0:
119,233,16287,1,0,0:0:0:0:
135,300,16475,1,0,0:0:0:0:
51,215,16662,1,0,0:0:0:0:
167,186,16850,2,0,P|239:183|269:201,1,77.0000023498536,8|0,0:0|0:0,0:0:0:0:
381,276,17225,1,0,0:0:0:0:
360,115,17412,6,2,B|324:125|303:144|303:144|250:105,1,115.50000352478,2|0,0:0|0:0,0:0:0:0:
176,131,17787,2,2,B|255:187|255:187|240:207|232:219,1,115.50000352478,2|0,0:0|0:0,0:0:0:0:
284,314,18162,2,2,P|303:227|332:200,1,115.50000352478,2|0,0:0|0:0,0:0:0:0:
410,231,18537,1,0,0:0:0:0:
347,128,18725,1,0,0:0:0:0:
347,128,18912,2,0,P|281:126|227:163,1,115.50000352478,4|0,0:0|0:0,0:0:0:0:
347,128,19287,5,0,0:0:0:0:
468,124,19475,1,0,0:0:0:0:
410,231,19662,1,0,0:0:0:0:
307,295,19850,1,8,0:0:0:0:
307,295,20037,1,0,0:0:0:0:
186,299,20225,1,0,0:0:0:0:
186,299,20412,2,0,P|169:257|206:189,1,115.50000352478,8|0,0:0|0:0,0:0:0:0:
244,192,20787,5,0,0:0:0:0:
302,85,21162,5,0,0:0:0:0:
181,89,21350,1,8,0:0:0:0:
302,85,21537,1,0,0:0:0:0:
186,299,21725,1,0,0:0:0:0:
301,301,21912,2,0,P|355:270|414:226,1,115.50000352478,8|0,0:0|0:0,0:0:0:0:
349,195,22287,5,0,0:0:0:0:
252,285,22475,1,0,0:0:0:0:
162,188,22662,1,0,0:0:0:0:
270,125,22850,1,8,0:0:0:0:
284,160,23037,1,0,0:0:0:0:
288,198,23225,1,0,0:0:0:0:
220,293,23412,1,8,0:0:0:0:
220,293,23600,5,2,0:0:0:0:
193,138,23787,1,0,0:0:0:0:
77,278,23975,1,0,0:0:0:0:
237,194,24162,1,10,0:0:0:0:
237,194,24537,5,10,0:0:0:0:
77,278,24725,1,8,0:0:0:0:
193,138,25100,5,2,0:0:0:0:
193,138,25287,1,0,0:0:0:0:
301,191,25475,1,0,0:0:0:0:
301,191,25662,1,0,0:0:0:0:
26,309,25850,2,0,B|-34:298|-34:298|-16:272,1,77.0000023498536,8|0,1:0|0:0,0:0:0:0:
254,312,26225,2,0,B|265:372|265:372|288:352,1,77.0000023498536,12|0,1:0|0:0,0:0:0:0:
322,255,26600,5,2,0:0:0:0:
112,224,26787,1,0,0:0:0:0:
223,274,26975,1,0,0:0:0:0:
223,158,27162,1,0,0:0:0:0:
121,94,27350,2,0,B|160:47|160:47|176:64,1,77.0000023498536,8|0,1:0|0:0,0:0:0:0:
421,199,27725,2,0,B|460:246|460:246|480:224,1,77.0000023498536,12|0,1:0|0:0,0:0:0:0:
417,151,28100,6,0,P|394:93|328:71,1,115.50000352478,2|0,0:0|0:0,0:0:0:0:
344,142,28475,2,0,P|306:137|273:156,1,77.0000023498536
133,20,28850,2,0,B|110:75|110:75|132:80,1,77.0000023498536,8|0,1:0|0:0,0:0:0:0:
141,371,29225,2,0,B|141:310|141:310|168:313,1,77.0000023498536,12|0,1:0|0:0,0:0:0:0:
241,320,29600,5,2,0:0:0:0:
241,320,29787,2,0,P|320:342|336:334,1,77.0000023498536
146,231,30162,1,6,0:0:0:0:
336,142,30537,1,10,0:0:0:0:
279,249,30725,2,0,P|286:311|270:340,1,77.0000023498536,6|0,0:0|0:0,0:0:0:0:
399,244,31100,5,2,0:0:0:0:
336,142,31287,1,0,0:0:0:0:
279,249,31475,1,0,0:0:0:0:
215,143,31662,1,0,0:0:0:0:
399,244,31850,2,0,B|352:284|352:284|324:272,1,77.0000023498536,8|0,1:0|0:0,0:0:0:0:
113,160,32225,2,0,B|160:120|160:120|190:132,1,77.0000023498536,12|0,1:0|0:0,0:0:0:0:
300,211,32600,5,2,0:0:0:0:
322,110,32787,2,0,P|246:114|225:147,1,115.50000352478
219,201,33162,1,0,0:0:0:0:
419,235,33350,2,0,B|417:175|417:175|384:183,1,77.0000023498536,8|0,1:0|0:0,0:0:0:0:
118,212,33725,2,0,B|174:174|174:174|189:194,1,77.0000023498536,12|0,1:0|0:0,0:0:0:0:
289,129,34100,5,2,0:0:0:0:
171,102,34287,1,0,0:0:0:0:
289,129,34475,1,0,0:0:0:0:
180,181,34662,1,0,0:0:0:0:
413,246,34850,2,0,B|361:275|361:275|330:244,1,77.0000023498536,8|0,1:0|0:0,0:0:0:0:
73,273,35225,2,0,B|28:229|28:229|64:211,1,77.0000023498536,12|0,1:0|0:0,0:0:0:0:
185,127,35600,5,0,0:0:0:0:
42,156,35787,1,0,0:0:0:0:
139,229,35975,1,8,0:0:0:0:
42,156,36162,1,4,0:0:0:0:
42,156,36537,6,0,P|102:163|123:162,1,77.0000023498536,8|4,0:0|0:0,0:0:0:0:
304,144,36912,1,0,0:0:0:0:
416,96,37100,5,0,1:0:0:0:
416,96,37287,1,0,0:0:0:0:
243,155,37475,2,0,P|189:133|176:90,1,77.0000023498536,4|0,1:0|0:0,0:0:0:0:
327,52,37850,5,0,1:0:0:0:
327,52,38037,1,0,0:0:0:0:
355,230,38225,2,0,P|362:279|335:316,1,77.0000023498536,4|0,1:0|0:0,0:0:0:0:
148,311,38600,5,0,1:0:0:0:
148,311,38787,1,0,0:0:0:0:
238,152,38975,2,0,P|274:124|324:116,1,77.0000023498536,4|0,1:0|0:0,0:0:0:0:
244,300,39350,5,0,1:0:0:0:
244,300,39537,1,8,0:1:0:0:
139,160,39725,2,0,P|97:193|80:244,1,77.0000023498536,12|0,1:0|0:0,0:0:0:0:
410,100,40100,5,0,1:0:0:0:
410,100,40287,1,0,0:0:0:0:
346,271,40475,2,0,P|411:270|443:250,1,77.0000023498536,4|0,1:0|0:0,0:0:0:0:
259,184,40850,5,0,1:0:0:0:
259,184,41037,1,0,0:0:0:0:
489,205,41225,2,0,P|466:147|433:128,1,77.0000023498536,4|0,1:0|0:0,0:0:0:0:
279,105,41600,5,0,1:0:0:0:
279,105,41787,1,0,0:0:0:0:
331,294,41975,2,0,P|389:259|413:237,1,77.0000023498536,4|0,1:0|0:0,0:0:0:0:
257,279,42350,1,0,1:0:0:0:
257,279,42537,5,8,1:0:0:0:
278,250,42725,1,8,1:0:0:0:
285,218,42912,1,0,1:0:0:0:
492,153,43100,5,0,0:0:0:0:
327,78,43287,1,0,0:0:0:0:
504,39,43475,1,0,0:0:0:0:
382,173,43662,1,0,0:0:0:0:
171,215,43850,5,0,0:0:0:0:
67,66,44037,1,0,0:0:0:0:
29,244,44225,1,0,0:0:0:0:
162,121,44412,1,0,0:0:0:0:
310,225,44600,5,0,0:0:0:0:
445,344,44787,1,0,0:0:0:0:
382,173,44975,1,0,0:0:0:0:
285,326,45162,1,0,0:0:0:0:
143,287,45350,5,0,0:0:0:0:
205,117,45537,1,0,0:0:0:0:
80,250,45725,1,0,0:0:0:0:
244,173,45912,1,0,0:0:0:0:
357,131,46100,5,0,0:0:0:0:
334,106,46193,1,0,0:0:0:0:
302,93,46287,1,0,0:0:0:0:
269,90,46381,1,0,0:0:0:0:
235,97,46475,1,0,0:0:0:0:
205,113,46568,1,0,0:0:0:0:
181,136,46662,1,0,0:0:0:0:
169,168,46756,1,0,0:0:0:0:
177,200,46850,5,0,0:0:0:0:
206,217,46943,1,0,0:0:0:0:
240,219,47037,1,0,0:0:0:0:
273,214,47131,1,0,0:0:0:0:
307,211,47225,1,0,0:0:0:0:
335,228,47318,1,0,0:0:0:0:
345,260,47412,1,0,0:0:0:0:
349,294,47506,1,0,0:0:0:0:
350,328,47600,5,0,0:0:0:0:
394,271,47975,1,0,0:0:0:0:
187,144,48350,1,0,0:0:0:0:
220,171,48537,1,0,0:0:0:0:
220,171,48631,1,0,0:0:0:0:
220,171,48725,1,0,0:0:0:0:
481,43,48912,1,0,0:0:0:0:
416,224,49100,6,0,L|375:254,1,42,0|0,1:0|0:0,0:0:0:0:
322,189,49287,2,0,L|279:221,1,42,0|0,1:0|0:0,0:0:0:0:
227,153,49475,2,0,B|207:166|207:166|182:146,1,56,8|0,1:0|0:0,0:0:0:0:
18,16,49850,6,0,P|53:36|71:39,1,56,12|0,0:0|0:0,0:0:0:0:
116,347,50225,6,0,P|101:344|87:322,1,42,0|0,1:0|0:0,0:0:0:0:
146,263,50412,2,0,P|131:260|117:238,1,42,0|0,1:0|0:0,0:0:0:0:
56,177,50600,6,0,L|101:154,1,42,0|0,1:0|0:0,0:0:0:0:
177,157,50787,2,0,L|222:134,1,42,0|0,1:0|0:0,0:0:0:0:
300,137,50975,2,0,B|323:124|323:124|326:87,1,56,0|0,1:0|0:0,0:0:0:0:
432,340,51350,6,0,L|441:280,1,56,4|0,0:1|0:1,0:1:0:0:
437,252,51912,5,0,0:0:0:0:
437,252,52006,1,0,0:0:0:0:
437,252,52100,2,0,L|395:239,1,42,0|0,1:0|0:0,0:0:0:0:
312,239,52287,2,0,L|270:226,1,42,0|0,1:0|0:0,0:0:0:0:
185,226,52475,2,0,B|159:217|159:217|152:179,1,56,0|0,1:0|0:0,0:0:0:0:
447,120,52850,2,0,P|411:117|382:119,1,56,12|0,0:0|0:0,0:0:0:0:
58,176,53225,6,0,P|85:201|100:207,1,42,0|0,1:0|0:0,0:0:0:0:
148,143,53412,2,0,P|121:118|106:112,1,42,0|0,1:0|0:0,0:0:0:0:
202,115,53600,6,0,L|241:137,1,42,0|0,1:0|0:0,0:0:0:0:
238,219,53787,2,0,L|277:241,1,42,0|0,1:0|0:0,0:0:0:0:
274,325,53975,2,0,B|299:338|299:338|331:328,1,56,0|0,1:0|0:0,0:0:0:0:
226,99,54350,5,12,0:1:0:0:
76,187,54537,6,0,P|99:202|124:208,1,42,0|0,1:0|0:0,0:0:0:0:
51,267,54725,2,0,P|74:282|99:288,1,42,0|0,1:0|0:0,0:0:0:0:
28,345,54912,2,0,P|51:360|76:366,1,42,0|0,1:0|0:0,0:0:0:0:
135,315,55100,6,0,L|145:269,1,42,0|0,1:0|0:0,0:0:0:0:
203,333,55287,2,0,L|213:379,1,42,0|0,1:0|0:0,0:0:0:0:
272,313,55475,2,0,B|278:283|278:283|303:266,1,56,0|0,1:0|0:0,0:0:0:0:
19,266,55850,1,4,0:0:0:0:
276,324,56225,6,0,L|264:273,1,42,0|0,1:0|0:0,0:0:0:0:
206,342,56412,2,0,L|194:291,1,42,0|0,1:0|0:0,0:0:0:0:
135,240,56600,6,0,L|97:258,1,42,0|0,1:0|0:0,0:0:0:0:
123,148,56787,2,0,L|125:105,1,42,0|0,1:0|0:0,0:0:0:0:
208,183,56975,2,0,B|230:198|230:198|264:188,1,56,0|0,1:0|2:0,2:0:0:0:
483,28,57350,1,12,0:1:0:0:
418,87,57912,5,0,0:0:0:0:
418,87,58006,1,0,0:0:0:0:
418,87,58100,2,0,L|376:115,1,42,0|0,1:0|0:0,0:0:0:0:
442,169,58287,2,0,L|400:197,1,42,0|0,1:0|0:0,0:0:0:0:
467,253,58475,2,0,B|444:268|444:268|409:264,1,56,0|0,1:0|0:0,0:0:0:0:
108,273,58850,6,0,P|135:259|162:259,1,56,12|0,0:0|0:0,0:0:0:0:
416,130,59225,6,0,L|401:86,1,42,0|0,1:0|0:0,0:0:0:0:
342,149,59412,2,0,L|327:105,1,42,0|0,1:0|0:0,0:0:0:0:
242,109,59600,6,0,P|260:131|257:153,1,42,0|0,1:0|0:0,0:0:0:0:
200,203,59787,2,0,P|182:225|185:247,1,42,0|0,1:0|0:0,0:0:0:0:
242,298,59975,2,0,B|262:312|258:328|258:328|266:353,1,56,0|0,1:0|0:0,0:0:0:0:
304,128,60350,1,8,0:0:0:0:
304,128,60443,1,0,0:0:0:0:
96,176,60725,1,4,1:0:0:0:
324,283,61100,5,0,0:0:0:0:
183,217,61287,1,0,0:0:0:0:
317,115,61475,1,0,0:0:0:0:
183,217,61662,1,0,0:0:0:0:
451,13,61850,6,0,P|475:74|470:134,1,125.999996154785
446,153,62225,1,0,0:0:0:0:
285,200,62412,2,0,P|280:244|301:288,1,83.9999974365235
146,199,62787,6,0,P|131:156|140:108,1,83.9999974365235
303,98,63162,1,0,0:0:0:0:
38,248,63350,2,0,P|62:303|126:339,1,125.999996154785
200,329,63725,2,0,P|265:296|288:254,1,83.9999974365235
145,176,64100,5,0,0:0:0:0:
145,176,64287,2,0,P|140:129|144:82,1,83.9999974365235
29,217,64662,1,0,0:0:0:0:
473,63,64850,1,0,0:0:0:0:
295,103,65037,6,0,P|359:133|396:166,1,83.9999974365235
208,90,65412,1,0,0:0:0:0:
125,237,65600,1,0,0:0:0:0:
286,190,65786,1,0,0:0:0:0:
245,353,65974,1,0,0:0:0:0:
196,180,66162,2,0,L|218:260,1,83.9999974365235
151,329,66537,5,0,0:0:0:0:
314,283,66724,1,0,0:0:0:0:
192,166,66912,1,0,0:0:0:0:
330,70,67100,5,0,0:0:0:0:
450,186,67287,1,0,0:0:0:0:
286,147,67475,1,0,0:0:0:0:
450,186,67662,1,0,0:0:0:0:
100,102,67850,2,0,P|88:149|98:231,1,125.999996154785
110,256,68225,5,0,0:0:0:0:
255,173,68412,2,0,P|284:221|326:237,1,83.9999974365235
173,131,68787,1,0,0:0:0:0:
217,293,68975,1,0,0:0:0:0:
114,163,69162,1,0,0:0:0:0:
378,285,69350,1,0,0:0:0:0:
90,225,69537,1,0,0:0:0:0:
234,155,69725,1,0,0:0:0:0:
125,278,69912,2,0,P|180:288|238:279,1,83.9999974365235
170,61,70287,6,0,P|160:116|169:174,1,83.9999974365235
332,71,70662,1,0,0:0:0:0:
50,120,70850,1,0,0:0:0:0:
144,317,71037,6,0,P|179:268|190:227,1,83.9999974365235
50,120,71412,1,0,0:0:0:0:
226,175,71600,1,0,0:0:0:0:
408,179,71787,1,0,0:0:0:0:
397,194,71880,1,0,0:0:0:0:
387,209,71974,1,0,0:0:0:0:
451,122,72162,1,0,0:0:0:0:
85,120,72350,1,0,0:0:0:0:
162,287,72537,6,0,L|248:256,1,83.9999974365235
307,310,72912,1,0,0:0:0:0:
256,192,73100,5,0,0:0:0:0:
