osu file format v14

[General]
AudioFilename: audio.mp3
AudioLeadIn: 0
PreviewTime: 13915
Countdown: 0
SampleSet: Normal
StackLeniency: 0.7
Mode: 0
LetterboxInBreaks: 0
WidescreenStoryboard: 1

[Editor]
Bookmarks: 13941,37941,61566,73915,85941,97941,109566,121941,133941,145941,157915,169915,181941
DistanceSpacing: 1
BeatDivisor: 2
GridSize: 32
TimelineZoom: 1

[Metadata]
Title:Somato Rabirinsu (w momobako & miko)
TitleUnicode:走馬灯ラビリンス (w 桃箱 & miko)
Artist:Yunomi
ArtistUnicode:Yunomi
Creator:rick0922
Version:Normal
Source:
Tags:走馬灯ラビリンス (w 桃箱 & miko)
BeatmapID:1342022
BeatmapSetID:632164

[Difficulty]
HPDrainRate:4
CircleSize:3.5
OverallDifficulty:4
ApproachRate:6
SliderMultiplier:1.4
SliderTickRate:1

[Events]
//Background and Video events
0,0,"tumblr_static_3azc4q1pngowc4gcossockkcs.jpg",0,0
//Break Periods
2,61365,72490
2,121365,132865
2,146115,156865
//Storyboard Layer 0 (Background)
//Storyboard Layer 1 (Fail)
//Storyboard Layer 2 (Pass)
//Storyboard Layer 3 (Foreground)
//Storyboard Sound Samples

[TimingPoints]
1915.40741173006,375,4,1,0,80,1,0
73554,-100,4,1,0,80,0,0
73915,-100,4,1,0,100,0,1
85915,-100,4,1,0,80,0,0
157915,-100,4,1,0,100,0,1
169915,-100,4,1,0,80,0,0
193580,-100,4,1,0,80,0,0

[Colours]
Combo1 : 255,191,128
Combo2 : 255,128,128
Combo3 : 191,128,255
Combo4 : 255,128,255

[HitObjects]
64,64,13915,6,8,P|128:32|224:32,1,140,8|8,0:0|0:0,0:0:0:0:
335,27,14665,2,8,P|394:66|442:149,1,140
398,258,15415,1,8,0:0:0:0:
274,324,15790,2,8,P|210:388|178:388,2,70,8|0|8,0:0|0:0|0:0,0:0:0:0:
241,187,16540,2,8,P|215:218|178:244,1,70,0|8,0:0|0:0,0:0:0:0:
161,298,16914,1,8,0:0:0:0:
21,314,17290,6,8,P|44:226|72:210,1,70,8|0,0:0|0:0,0:0:0:0:
75,195,17665,2,8,P|51:107|23:91,1,70,8|0,0:0|0:0,0:0:0:0:
10,87,18040,2,8,P|33:0|61:-16,1,70,8|0,0:0|0:0,0:0:0:0:
79,50,18415,2,8,P|143:18|234:25,2,140
175,151,19540,1,8,0:0:0:0:
302,93,19915,6,8,P|366:61|462:61,1,140
481,187,20665,2,8,P|473:261|429:316,1,140
346,202,21415,1,8,0:0:0:0:
287,329,21790,2,8,P|223:393|191:393,2,70,8|0|8,0:0|0:0|0:0,0:0:0:0:
148,347,22540,2,8,P|117:330|101:293,1,70,8|0,0:0|0:0,0:0:0:0:
119,232,22915,6,0,P|72:184|35:81,2,140,8|0|0,0:0|0:0|0:0,0:0:0:0:
168,182,23852,1,0,0:0:0:0:
217,132,24040,1,8,0:0:0:0:
266,82,24227,1,0,0:0:0:0:
336,82,24415,2,0,L|466:80,2,70,8|0|0,0:0|0:0|0:0,0:0:0:0:
286,32,24977,1,0,0:0:0:0:
353,13,25165,2,8,P|385:7|434:9,2,70,8|0|8,0:0|0:0|0:0,0:0:0:0:
341,152,25915,6,8,P|373:216|373:312,1,140
269,370,26665,1,8,0:0:0:0:
129,362,27040,1,8,0:0:0:0:
36,256,27415,2,8,P|4:192|4:96,1,140
68,130,27977,1,0,0:0:0:0:
40,65,28165,1,8,0:0:0:0:
178,42,28540,1,8,0:0:0:0:
178,42,28727,1,0,0:0:0:0:
178,42,28915,6,8,P|242:10|338:10,1,140
376,25,29477,1,0,0:0:0:0:
392,93,29665,2,8,P|368:180|340:196,1,70,0|8,0:0|0:0,0:0:0:0:
315,175,30040,2,8,P|338:262|366:278,1,70,0|8,0:0|0:0,0:0:0:0:
370,293,30415,2,8,P|306:357|274:357,1,70,0|8,0:0|0:0,0:0:0:0:
259,348,30790,2,8,P|193:321|177:293,1,70,0|8,0:0|0:0,0:0:0:0:
154,267,31165,1,0,0:0:0:0:
19,305,31540,1,8,0:0:0:0:
70,174,31915,6,8,P|58:103|86:11,1,140
212,36,32665,2,8,P|281:21|373:46,1,140
337,173,33415,1,8,0:0:0:0:
469,217,33790,2,8,P|487:305|470:332,2,70,8|0|8,0:0|0:0|0:0,0:0:0:0:
328,214,34540,1,8,0:0:0:0:
299,277,34727,2,8,P|213:309|184:296,1,70,0|8,0:0|0:0,0:0:0:0:
109,362,35290,6,8,P|24:328|11:298,1,70,8|0,0:0|0:0,0:0:0:0:
92,298,35665,2,8,P|55:214|26:202,1,70,8|0,0:0|0:0,0:0:0:0:
15,194,36040,2,8,P|38:107|66:91,1,70,8|0,0:0|0:0,0:0:0:0:
74,79,36415,2,8,P|135:41|211:38,2,140
179,171,37540,1,8,0:0:0:0:
317,147,37915,5,8,0:0:0:0:
295,8,38290,2,8,P|381:35|395:64,1,70,8|0,0:0|0:0,0:0:0:0:
418,59,38665,1,8,0:0:0:0:
379,193,39040,2,8,P|402:280|430:296,1,70,8|0,0:0|0:0,0:0:0:0:
450,234,39415,2,8,P|444:307|390:358,1,140
329,358,39977,2,8,P|246:321|234:291,1,70,0|8,0:0|0:0,0:0:0:0:
254,200,40540,2,8,P|171:236|159:266,1,70,8|0,0:0|0:0,0:0:0:0:
161,281,40915,5,8,0:0:0:0:
26,319,41290,2,8,P|9:281|29:242,2,70,8|0|8,0:0|0:0|0:0,0:0:0:0:
80,274,41852,1,0,0:0:0:0:
102,207,42040,6,8,P|91:116|65:95,1,70,8|0,0:0|0:0,0:0:0:0:
42,171,42415,2,8,P|55:80|80:61,1,70,8|0,0:0|0:0,0:0:0:0:
40,32,42790,2,8,P|130:20|155:40,1,70,8|0,0:0|0:0,0:0:0:0:
164,48,43165,1,8,0:0:0:0:
303,41,43540,1,8,0:0:0:0:
438,76,43915,2,8,P|470:140|470:236,1,140
439,267,44477,1,0,0:0:0:0:
370,284,44665,2,8,P|302:307|207:296,1,140
165,293,45227,1,0,0:0:0:0:
103,259,45415,6,8,B|82:159|94:116|161:40,1,210,8|0,0:0|0:0,0:0:0:0:
212,55,46165,1,0,0:0:0:0:
351,50,46540,1,0,0:0:0:0:
470,122,46915,2,0,P|409:181|352:188,1,140
216,186,47665,1,0,0:0:0:0:
144,306,48040,1,0,0:0:0:0:
279,342,48415,2,0,B|457:371|475:199|417:149|265:143,1,420
181,34,49915,6,8,P|245:2|314:15,1,140
361,61,50477,1,0,0:0:0:0:
389,125,50665,2,8,P|357:189|293:221,1,140
242,262,51227,1,0,0:0:0:0:
198,316,51415,2,8,P|134:348|70:316,1,140
29,269,51977,1,0,0:0:0:0:
98,262,52165,1,0,0:0:0:0:
29,139,52540,2,0,P|27:94|48:57,1,70
99,41,52915,6,8,P|174:27|201:39,1,70,8|0,0:0|0:0,0:0:0:0:
224,63,53290,2,8,P|252:116|246:149,1,70,8|0,0:0|0:0,0:0:0:0:
220,186,53665,2,8,P|282:223|341:219,1,70,8|0,0:0|0:0,0:0:0:0:
347,206,54040,2,8,P|411:142|411:110,1,70,8|0,0:0|0:0,0:0:0:0:
411,96,54415,2,8,P|347:64|283:96,2,140
471,130,55352,1,0,0:0:0:0:
489,197,55540,1,8,0:0:0:0:
410,312,55915,6,8,L|250:344,1,140
206,317,56477,1,0,0:0:0:0:
147,278,56665,2,8,L|91:122,1,140
104,76,57227,1,0,0:0:0:0:
168,47,57415,2,8,P|249:23|313:55,1,140
311,110,57977,1,0,0:0:0:0:
241,118,58165,2,8,P|165:163|165:195,1,70,8|0,0:0|0:0,0:0:0:0:
165,207,58540,1,8,0:0:0:0:
182,274,58727,1,0,0:0:0:0:
244,305,58915,6,8,P|326:379|390:347,1,140
320,311,59477,1,0,0:0:0:0:
373,265,59665,2,0,L|402:187,1,70
376,132,60040,2,0,L|321:72,1,70
256,192,60415,12,0,61165,0:0:0:0:
64,160,73540,5,8,0:0:0:0:
64,160,73915,2,8,L|192:64,2,140
55,299,75040,1,8,0:0:0:0:
112,338,75227,2,8,P|176:370|208:370,1,70,0|8,0:0|0:0,0:0:0:0:
243,376,75602,2,8,P|307:376|339:344,2,70,0|8|0,0:0|0:0|0:0,0:0:0:0:
211,313,76165,1,8,0:0:0:0:
348,285,76540,6,8,P|412:182|412:118,1,140
360,36,77290,2,8,P|296:4|200:4,1,140
162,23,77852,2,8,L|98:55,1,70,0|8,0:0|0:0,0:0:0:0:
63,114,78227,2,8,L|31:178,1,70,0|8,0:0|0:0,0:0:0:0:
34,246,78602,2,8,P|34:342|34:310,2,70,0|8|0,0:0|0:0|0:0,0:0:0:0:
101,227,79165,1,0,0:0:0:0:
137,362,79540,1,8,0:0:0:0:
276,355,79915,6,8,P|372:259|404:99,1,280
283,55,81040,1,8,0:0:0:0:
213,57,81227,2,8,L|117:57,1,70,0|8,0:0|0:0,0:0:0:0:
76,80,81602,1,0,0:0:0:0:
33,135,81790,2,8,P|6:169|4:224,2,70,0|8|0,0:0|0:0|0:0,0:0:0:0:
108,253,82540,6,8,L|108:349,2,70,8|0|8,0:0|0:0|0:0,0:0:0:0:
236,197,83290,2,8,L|236:293,2,70,8|0|8,0:0|0:0|0:0,0:0:0:0:
168,180,83852,1,0,0:0:0:0:
198,116,84040,2,8,P|253:70|278:55,1,70,8|0,0:0|0:0,0:0:0:0:
321,68,84415,2,8,B|449:100|449:228|321:292,1,280
304,326,85352,1,0,0:0:0:0:
239,354,85540,1,0,0:0:0:0:
99,357,85915,6,0,L|3:229,1,140
74,208,86477,1,0,0:0:0:0:
26,156,86665,1,0,0:0:0:0:
126,58,87040,1,0,0:0:0:0:
176,106,87227,2,0,P|240:170|272:170,1,70
356,153,87790,1,0,0:0:0:0:
380,87,87977,1,0,0:0:0:0:
405,21,88165,2,0,P|453:81|424:142,1,140
454,200,88727,1,0,0:0:0:0:
429,265,88915,6,0,L|378:208,1,70
312,212,89290,2,0,L|280:276,1,70
210,274,89665,2,0,L|178:210,1,70
108,211,90040,2,0,L|76:275,1,70
36,216,90415,2,0,L|4:152,1,70
35,90,90790,2,0,L|94:27,1,70
109,103,91165,1,0,0:0:0:0:
244,139,91540,1,0,0:0:0:0:
232,278,91915,6,0,P|328:278|437:231,1,210
492,198,92665,1,0,0:0:0:0:
469,59,93040,2,0,P|405:27|277:27,1,140
283,62,93602,1,0,0:0:0:0:
218,34,93790,2,0,B|122:34|58:98,1,140
4,187,94540,1,0,0:0:0:0:
73,187,94727,1,0,0:0:0:0:
143,187,94915,6,0,P|207:142|271:110,1,140
317,72,95477,1,0,0:0:0:0:
385,85,95665,2,0,P|449:149|449:181,1,70
407,186,96040,2,0,P|409:220|422:253,2,70
475,197,96602,1,0,0:0:0:0:
501,132,96790,2,0,P|485:89|447:60,1,70
412,29,97165,2,0,P|364:22|329:24,2,70
383,166,97915,6,8,P|403:242|384:317,1,140
340,348,98477,1,0,0:0:0:0:
270,336,98665,2,8,P|148:291|129:250,1,140
172,224,99227,1,0,0:0:0:0:
101,223,99415,2,8,P|68:180|72:98,1,140
136,69,99977,1,0,0:0:0:0:
154,1,100165,2,8,P|218:65|218:97,1,70,8|0,0:0|0:0,0:0:0:0:
267,79,100540,2,0,P|277:120|262:148,1,70
200,117,100915,6,8,P|168:181|200:213,1,70,8|0,0:0|0:0,0:0:0:0:
120,225,101290,2,8,P|184:257|216:257,1,70,8|0,0:0|0:0,0:0:0:0:
251,257,101665,2,8,P|318:234|341:211,1,70,8|0,0:0|0:0,0:0:0:0:
326,165,102040,2,8,P|326:101|294:69,1,70,8|0,0:0|0:0,0:0:0:0:
276,45,102415,2,8,L|116:13,2,140
415,59,103540,1,8,0:0:0:0:
471,187,103915,6,8,P|375:155|343:123,1,140
292,87,104477,1,0,0:0:0:0:
232,50,104665,2,8,P|166:27|91:47,1,140
74,107,105227,1,0,0:0:0:0:
58,175,105415,2,8,P|68:278|150:346,1,210,8|0,0:0|0:0,0:0:0:0:
209,316,106165,1,0,0:0:0:0:
346,341,106540,1,0,0:0:0:0:
262,229,106915,6,0,P|214:166|215:96,1,140
351,119,107665,2,0,P|429:108|489:144,1,140
406,254,108415,2,0,P|436:327|497:361,2,140
413,114,109540,2,8,L|381:50,1,70,8|0,0:0|0:0,0:0:0:0:
311,43,109915,6,8,L|215:43,1,70,8|0,0:0|0:0,0:0:0:0:
193,94,110290,2,8,L|161:158,1,70,8|0,0:0|0:0,0:0:0:0:
181,224,110665,1,8,0:0:0:0:
320,209,111040,2,8,L|288:273,1,70,8|0,0:0|0:0,0:0:0:0:
229,309,111415,2,8,L|133:309,1,70,8|0,0:0|0:0,0:0:0:0:
98,273,111790,2,8,L|66:208,1,70,8|0,0:0|0:0,0:0:0:0:
61,140,112165,1,8,0:0:0:0:
160,41,112540,6,8,P|212:16|246:15,2,70,8|0|8,0:0|0:0|0:0,0:0:0:0:
239,156,113290,2,8,P|234:227|218:255,2,70,8|0|8,0:0|0:0|0:0,0:0:0:0:
101,182,114040,2,8,P|64:180|33:221,2,70,8|0|8,0:0|0:0|0:0,0:0:0:0:
106,251,114602,2,0,P|123:286|163:299,2,70
175,236,115165,1,8,0:0:0:0:
314,238,115540,1,8,0:0:0:0:
453,231,115915,6,8,P|448:297|389:356,2,140,8|0|8,0:0|0:0|0:0,0:0:0:0:
387,106,117040,2,8,P|333:71|289:80,1,70,8|0,0:0|0:0,0:0:0:0:
259,68,117415,2,8,P|217:27|118:23,2,140,8|0|8,0:0|0:0|0:0,0:0:0:0:
140,142,118540,5,8,0:0:0:0:
90,191,118727,1,0,0:0:0:0:
40,240,118915,1,8,0:0:0:0:
176,270,119290,1,8,0:0:0:0:
245,270,119477,1,0,0:0:0:0:
315,270,119665,1,8,0:0:0:0:
422,180,120040,2,8,L|422:84,2,70,8|0|8,0:0|0:0|0:0,0:0:0:0:
352,179,120602,2,0,L|349:102,2,70
281,183,121165,1,8,0:0:0:0:
148,260,133915,6,8,B|201:163|299:243|373:105,1,280
188,4,135227,2,8,P|138:45|139:72,1,70,0|8,0:0|0:0,0:0:0:0:
109,182,135790,2,8,P|68:153|51:126,2,70,8|0|8,0:0|0:0|0:0,0:0:0:0:
69,316,136540,2,8,P|28:287|11:260,2,70,8|0|8,0:0|0:0|0:0,0:0:0:0:
189,243,137290,2,8,P|237:295|244:323,1,70,8|0,0:0|0:0,0:0:0:0:
232,363,137665,2,8,P|296:363|328:331,1,70,8|0,0:0|0:0,0:0:0:0:
361,329,138040,2,8,P|393:297|393:233,1,70,8|0,0:0|0:0,0:0:0:0:
398,203,138415,6,8,L|398:107,1,70,8|0,0:0|0:0,0:0:0:0:
385,63,138790,2,8,L|353:-1,2,70,8|0|8,0:0|0:0|0:0,0:0:0:0:
175,73,139727,1,0,0:0:0:0:
106,97,139915,2,8,B|170:225|-22:225|74:353,1,280
279,345,141227,6,8,L|183:345,1,70,0|8,0:0|0:0,0:0:0:0:
165,211,141790,2,8,L|261:211,1,70,8|0,0:0|0:0,0:0:0:0:
305,214,142165,1,8,0:0:0:0:
421,135,142540,2,8,L|389:71,1,70,8|0,0:0|0:0,0:0:0:0:
319,72,142915,2,8,L|287:136,1,70,8|0,0:0|0:0,0:0:0:0:
287,204,143290,2,8,L|319:268,1,70,8|0,0:0|0:0,0:0:0:0:
388,266,143665,2,8,L|420:202,1,70,8|0,0:0|0:0,0:0:0:0:
369,153,144040,2,8,L|273:153,1,70,8|0,0:0|0:0,0:0:0:0:
256,192,144415,12,8,145915,0:0:0:0:
448,224,157915,6,8,L|320:320,2,140
448,84,159040,1,8,0:0:0:0:
385,52,159227,2,8,P|321:20|289:20,1,70,0|8,0:0|0:0,0:0:0:0:
253,22,159602,2,8,P|189:22|157:54,2,70,0|8|0,0:0|0:0|0:0,0:0:0:0:
289,81,160165,1,8,0:0:0:0:
150,97,160540,6,8,P|86:200|86:264,1,140
141,343,161290,2,8,P|205:375|301:375,1,140
335,350,161852,2,8,L|399:318,1,70,0|8,0:0|0:0,0:0:0:0:
444,266,162227,2,8,L|476:202,1,70,0|8,0:0|0:0,0:0:0:0:
475,133,162602,2,8,P|475:37|475:69,2,70,0|8|0,0:0|0:0|0:0,0:0:0:0:
404,131,163165,1,0,0:0:0:0:
336,8,163540,1,8,0:0:0:0:
200,43,163915,6,8,P|104:139|72:299,1,280
204,313,165040,1,8,0:0:0:0:
273,318,165227,2,8,L|369:318,1,70,0|8,0:0|0:0,0:0:0:0:
416,320,165602,1,0,0:0:0:0:
480,293,165790,2,8,P|513:246|497:212,2,70,0|8|0,0:0|0:0|0:0,0:0:0:0:
473,152,166540,6,8,L|473:56,2,70,8|0|8,0:0|0:0|0:0,0:0:0:0:
333,160,167290,2,8,L|333:64,2,70,8|0|8,0:0|0:0|0:0,0:0:0:0:
333,229,167852,1,0,0:0:0:0:
312,296,168040,2,8,P|258:348|226:348,1,70,8|0,0:0|0:0,0:0:0:0:
197,334,168415,2,8,B|69:302|69:174|197:110,1,280
216,78,169352,1,0,0:0:0:0:
265,28,169540,1,8,0:0:0:0:
405,28,169915,6,0,P|449:88|449:152,1,140
392,279,170665,1,0,0:0:0:0:
279,361,171040,1,0,0:0:0:0:
209,361,171227,2,0,L|113:361,1,70,8|0,0:0|0:0,0:0:0:0:
39,261,171790,2,0,L|39:165,1,70,0|8,0:0|0:0,0:0:0:0:
39,120,172165,1,0,0:0:0:0:
137,21,172540,2,0,L|184:86,1,70,0|8,0:0|0:0,0:0:0:0:
256,192,172915,12,0,175165,0:0:0:0:
256,96,175915,6,0,P|160:96|128:160,1,140
37,223,176665,1,0,0:0:0:0:
135,321,177040,1,0,0:0:0:0:
203,335,177227,2,0,P|267:335|299:303,1,70
407,305,177790,2,0,P|471:337|503:337,2,70
353,175,178540,1,0,0:0:0:0:
356,105,178727,6,0,P|292:73|228:73,1,70
171,5,179290,2,0,P|139:69|139:101,1,70
179,124,179665,2,0,P|126:160|82:152,1,70
52,161,180040,2,0,P|20:193|20:257,1,70
30,283,180415,2,0,P|66:317|172:309,2,140
87,242,181352,1,0,0:0:0:0:
156,247,181540,1,0,0:0:0:0:
275,319,181915,6,8,P|371:319|403:287,1,140
425,154,182665,2,8,P|351:153|297:191,1,140
230,203,183227,1,0,0:0:0:0:
165,174,183415,1,8,0:0:0:0:
165,34,183790,1,8,0:0:0:0:
228,63,183977,1,0,0:0:0:0:
292,35,184165,1,8,0:0:0:0:
256,192,184540,12,0,187165,0:0:0:0:
237,65,187915,6,8,P|141:65|109:97,1,140
87,230,188665,2,8,P|161:231|215:193,1,140
282,181,189227,1,0,0:0:0:0:
347,210,189415,1,8,0:0:0:0:
347,350,189790,1,8,0:0:0:0:
284,321,189977,1,0,0:0:0:0:
220,349,190165,1,8,0:0:0:0:
256,192,190540,12,12,193165,0:0:0:0:
