osu file format v14

[General]
AudioFilename: audio.mp3
AudioLeadIn: 0
PreviewTime: 13915
Countdown: 0
SampleSet: Normal
StackLeniency: 0.7
Mode: 0
LetterboxInBreaks: 0
WidescreenStoryboard: 1

[Editor]
Bookmarks: 73540
DistanceSpacing: 1.5
BeatDivisor: 4
GridSize: 32
TimelineZoom: 1

[Metadata]
Title:Somato Rabirinsu (w momobako & miko)
TitleUnicode:走馬灯ラビリンス (w 桃箱 & miko)
Artist:Yunomi
ArtistUnicode:Yunomi
Creator:rick0922
Version:Hard
Source:
Tags:走馬灯ラビリンス (w 桃箱 & miko)
BeatmapID:1342021
BeatmapSetID:632164

[Difficulty]
HPDrainRate:4
CircleSize:3.5
OverallDifficulty:6
ApproachRate:7
SliderMultiplier:1.5
SliderTickRate:1

[Events]
//Background and Video events
0,0,"tumblr_static_3azc4q1pngowc4gcossockkcs.jpg",0,0
//Break Periods
2,85740,96865
//Storyboard Layer 0 (Background)
//Storyboard Layer 1 (Fail)
//Storyboard Layer 2 (Pass)
//Storyboard Layer 3 (Foreground)
//Storyboard Sound Samples

[TimingPoints]
1915.40741173006,375,4,1,0,80,1,0
13915,-133.333333333333,4,1,0,80,0,0
25915,-100,4,1,0,80,0,0
37915,-133.333333333333,4,1,0,80,0,0
49915,-111.111111111111,4,1,0,80,0,0
61540,-100,4,1,0,80,0,0
73915,-76.9230769230769,4,1,0,100,0,1
85915,-83.3333333333333,4,1,0,80,0,0
97915,-133.333333333333,4,1,0,80,0,0
109540,-100,4,1,0,80,0,0
121915,-133.333333333333,4,1,0,40,0,0
132790,-100,4,1,0,50,0,0
133165,-80,4,1,0,60,0,0
133540,-66.6666666666667,4,1,0,70,0,0
133915,-111.111111111111,4,1,0,80,0,0
145915,-100,4,1,0,80,0,0
157915,-76.9230769230769,4,1,0,100,0,1
169915,-83.3333333333333,4,1,0,80,0,0
171504,-83.3333333333333,4,1,0,80,0,0
181915,-133.333333333333,4,1,0,80,0,0
196017,-133.333333333333,4,1,0,80,0,0

[Colours]
Combo1 : 255,191,128
Combo2 : 255,128,128
Combo3 : 191,128,255
Combo4 : 255,128,255

[HitObjects]
88,104,13915,6,0,P|176:60|229:53,1,112.500004291535,8|0,0:0|0:0,0:0:0:0:
369,54,14665,2,0,B|446:63|495:101|495:100,1,112.500004291535,8|0,0:0|0:0,0:0:0:0:
467,178,15227,2,0,L|461:248,1,56.2500021457673,0|8,0:0|0:0,0:0:0:0:
381,193,15602,1,0,0:0:0:0:
381,283,15790,2,0,B|360:357|355:360|352:360,2,56.2500021457673,0|0|8,0:0|0:0|0:0,0:0:0:0:
218,361,16540,2,0,B|178:369|146:355,1,56.2500021457673
196,277,16915,5,8,0:0:0:0:
312,140,17290,2,0,P|276:102|238:86,1,56.2500021457673
186,124,17665,1,8,0:0:0:0:
224,205,17852,1,0,0:0:0:0:
164,272,18040,2,0,P|122:276|73:254,1,56.2500021457673
47,206,18415,1,8,0:0:0:0:
48,116,18602,1,0,0:0:0:0:
109,49,18790,2,0,P|161:27|189:34,2,56.2500021457673,0|0|8,0:0|0:0|0:0,0:0:0:0:
169,108,19352,2,0,P|196:110|215:99,2,28.1250010728836
289,226,19915,6,0,P|218:194|150:226,1,112.500004291535,8|0,0:0|0:0,0:0:0:0:
35,275,20665,2,0,P|80:338|155:344,1,112.500004291535,8|0,2:0|0:0,0:0:0:0:
157,278,21227,2,0,L|229:285,1,56.2500021457673,0|8,0:0|0:0,0:0:0:0:
296,299,21602,1,0,0:0:0:0:
375,270,21790,2,0,L|426:226,1,56.2500021457673
443,152,22165,1,8,0:0:0:0:
310,46,22540,2,0,P|247:29|219:31,1,56.2500021457673
273,112,22915,6,0,L|218:104,1,56.2500021457673,8|0,0:0|0:0,0:0:0:0:
220,190,23290,2,0,L|139:191,1,56.2500021457673
138,104,23665,2,0,P|101:105|61:113,1,56.2500021457673,8|0,0:0|0:0,0:0:0:0:
10,122,24040,2,0,P|15:153|43:176,1,56.2500021457673
80,246,24415,2,0,L|56:282,3,28.1250010728836,8|0|0|0,0:0|0:0|0:0|0:0,0:0:0:0:
65,314,24790,2,0,L|87:350,3,28.1250010728836,8|0|0|0,0:0|0:0|0:0|0:0,0:0:0:0:
124,339,25165,1,8,0:0:0:0:
213,339,25352,1,8,0:0:0:0:
169,260,25540,1,8,0:0:0:0:
169,80,25915,6,0,P|222:28|297:32,1,150,8|0,0:0|0:0,0:0:0:0:
260,113,26477,1,0,0:0:0:0:
220,194,26665,2,0,P|254:258|325:277,1,150,8|0,0:0|0:0,0:0:0:0:
312,188,27227,1,0,0:0:0:0:
395,223,27415,2,0,P|419:260|467:278,1,75,8|0,0:0|0:0,0:0:0:0:
478,190,27790,2,0,P|454:153|406:135,1,75,8|0,0:0|0:0,0:0:0:0:
365,73,28165,1,8,0:0:0:0:
194,15,28540,1,0,0:0:0:0:
168,100,28727,6,0,L|288:75,1,75,0|8,0:0|0:0,0:0:0:0:
214,170,29102,1,0,0:0:0:0:
193,257,29290,2,0,L|299:226,1,75
311,312,29665,1,8,0:0:0:0:
226,343,29853,1,0,0:0:0:0:
136,335,30040,2,0,B|94:254,1,75
165,205,30415,1,8,0:0:0:0:
76,189,30602,1,0,0:0:0:0:
69,99,30790,2,0,L|-4:48,2,75,0|0|8,0:0|0:0|0:0,0:0:0:0:
145,51,31352,2,0,L|173:15,2,37.5
131,230,31915,6,0,P|178:283|257:284,1,150,8|0,0:0|0:0,0:0:0:0:
219,200,32477,1,0,0:0:0:0:
146,146,32665,2,0,P|210:110|279:133,1,150,8|0,0:0|0:0,0:0:0:0:
351,78,33227,2,0,B|413:146|412:161|412:162,1,75,0|8,0:0|0:0,0:0:0:0:
336,200,33602,1,0,0:0:0:0:
416,239,33790,2,0,P|439:273|449:313,2,75,0|0|8,0:0|0:0|0:0,0:0:0:0:
333,276,34352,1,0,0:0:0:0:
249,242,34540,2,0,P|159:255|148:266,1,75
129,320,34915,5,8,0:0:0:0:
303,362,35290,2,0,P|367:361|402:342,1,75
423,280,35665,2,0,B|444:185|438:169|436:169,1,75,8|0,0:0|0:0,0:0:0:0:
351,174,36040,1,0,0:0:0:0:
390,93,36227,1,0,0:0:0:0:
342,16,36415,2,0,P|304:16|258:35,1,75,8|0,0:0|0:0,0:0:0:0:
189,70,36790,2,0,L|107:18,2,75
267,113,37352,2,8,P|284:104|301:97,2,37.5,8|0|8,0:0|0:0|0:0,0:0:0:0:
166,203,37915,6,0,P|232:183|278:199,1,112.500004291535,8|0,0:0|0:0,0:0:0:0:
352,235,38477,1,0,0:0:0:0:
410,304,38665,2,0,P|344:324|298:308,1,112.500004291535,8|0,0:0|0:0,0:0:0:0:
230,259,39227,1,0,0:0:0:0:
230,349,39415,2,0,P|166:321|141:280,1,112.500004291535,8|0,2:0|0:0,0:0:0:0:
168,200,39977,2,0,P|144:176|109:170,1,56.2500021457673,0|8,0:0|0:0,0:0:0:0:
39,206,40352,1,0,0:0:0:0:
39,206,40540,1,0,0:0:0:0:
39,206,40727,1,0,0:0:0:0:
39,206,40915,6,0,P|55:139|81:87,1,112.500004291535,8|0,0:0|0:0,0:0:0:0:
140,38,41477,1,0,0:0:0:0:
229,28,41665,2,0,P|268:27|303:39,1,56.2500021457673,8|0,0:0|0:0,0:0:0:0:
374,36,42040,1,0,0:0:0:0:
456,70,42227,1,0,0:0:0:0:
406,145,42415,2,0,B|383:119|334:118,1,56.2500021457673,8|0,0:0|0:0,0:0:0:0:
267,130,42790,1,0,0:0:0:0:
326,197,42977,1,0,0:0:0:0:
411,225,43165,2,0,B|420:258|404:294,1,56.2500021457673,8|8,0:0|0:0,0:0:0:0:
409,280,43446,1,8,0:0:0:0:
409,280,43540,1,8,0:0:0:0:
229,271,43915,6,0,L|132:202,1,112.500004291535,8|0,0:0|0:0,0:0:0:0:
73,142,44477,1,0,0:0:0:0:
38,225,44665,2,0,B|77:265|123:306,1,112.500004291535,8|0,0:0|0:0,0:0:0:0:
203,332,45227,1,0,0:0:0:0:
292,317,45415,2,0,P|299:261|287:207,1,112.500004291535,8|0,0:0|0:0,0:0:0:0:
369,241,45977,1,0,0:0:0:0:
413,319,46165,1,8,0:0:0:0:
448,236,46352,2,0,L|426:160,1,56.2500021457673
408,94,46727,1,0,0:0:0:0:
319,74,46915,6,0,P|252:48|191:80,1,112.500004291535,8|0,0:0|0:0,0:0:0:0:
261,136,47477,1,0,0:0:0:0:
265,226,47665,2,0,L|200:214,1,56.2500021457673,8|0,0:0|0:0,0:0:0:0:
174,132,48040,1,0,0:0:0:0:
135,50,48227,1,0,0:0:0:0:
65,108,48415,2,0,L|66:158,3,28.1250010728836,8|0|0|0,0:0|0:0|0:0|0:0,0:0:0:0:
94,170,48790,2,0,L|112:205,3,28.1250010728836
73,225,49165,2,0,L|59:251,3,28.1250010728836,8|0|0|0,0:0|0:0|0:0|0:0,0:0:0:0:
94,278,49540,1,0,0:0:0:0:
295,355,49915,6,0,L|422:309,1,134.999995880127,8|0,0:0|0:0,0:0:0:0:
323,263,50477,1,0,0:0:0:0:
229,208,50665,2,0,L|356:162,1,134.999995880127,8|0,0:0|0:0,0:0:0:0:
261,109,51227,1,0,0:0:0:0:
253,0,51415,2,0,P|184:25|154:78,1,134.999995880127,8|0,0:0|0:0,0:0:0:0:
48,55,51977,2,0,P|55:105|72:130,1,67.4999979400635,0|8,0:0|0:0,0:0:0:0:
155,175,52352,1,0,0:0:0:0:
263,176,52540,2,0,P|257:211|232:238,1,67.4999979400635
157,308,52915,5,8,0:0:0:0:
263,321,53102,1,0,0:0:0:0:
370,331,53290,2,0,P|376:283|348:256,1,67.4999979400635
319,171,53665,1,8,0:0:0:0:
419,209,53852,1,0,0:0:0:0:
502,140,54040,2,0,P|508:107|506:73,1,67.4999979400635
418,136,54415,1,8,0:0:0:0:
228,238,54790,1,8,0:0:0:0:
372,77,55165,1,8,0:0:0:0:
372,77,55352,2,8,L|395:34,2,33.7499989700318,8|0|8,0:0|0:0|0:0,0:0:0:0:
181,180,55915,6,0,P|163:121|104:80,1,134.999995880127,8|0,0:0|0:0,0:0:0:0:
87,176,56477,1,0,0:0:0:0:
0,260,56665,2,0,P|48:298|120:297,1,134.999995880127,8|0,0:0|0:0,0:0:0:0:
220,258,57227,1,0,0:0:0:0:
170,161,57415,2,0,P|268:129|370:191,1,202.499993820191,8|0,0:0|0:0,0:0:0:0:
292,259,58165,1,8,0:0:0:0:
340,355,58352,1,0,0:0:0:0:
440,315,58540,2,0,P|427:283|403:259,1,67.4999979400635
338,173,58915,6,0,P|325:130|330:91,1,67.4999979400635,8|0,0:0|0:0,0:0:0:0:
430,136,59290,1,0,0:0:0:0:
383,38,59477,1,0,0:0:0:0:
275,21,59665,1,8,0:0:0:0:
203,101,59852,1,0,0:0:0:0:
243,201,60040,2,0,P|253:232|272:272,1,67.4999979400635
370,231,60415,2,0,B|410:221,7,33.7499989700318,8|0|0|0|0|0|0|0,0:0|0:0|0:0|0:0|0:0|0:0|0:0|0:0,0:0:0:0:
434,178,61165,1,8,0:0:0:0:
312,45,61540,6,0,P|246:31|199:53,1,75,8|0,0:0|0:0,0:0:0:0:
259,120,61915,2,0,P|241:152|211:175,1,75,8|0,0:0|0:0,0:0:0:0:
176,92,62290,2,0,L|101:40,2,75,8|0|8,0:0|0:0|0:0,0:0:0:0:
114,156,62852,1,0,0:0:0:0:
44,97,63040,2,0,L|2:172,1,75,8|0,0:0|0:0,0:0:0:0:
62,233,63415,2,0,L|151:244,1,75,8|0,0:0|0:0,0:0:0:0:
153,330,63790,2,0,P|213:302|223:266,2,75,8|0|8,0:0|0:0|0:0,0:0:0:0:
330,299,64540,6,0,P|312:218|280:186,1,75
403,200,64915,2,0,P|346:138|303:127,1,75
267,161,65290,1,0,0:0:0:0:
260,71,65477,1,0,0:0:0:0:
180,28,65665,2,0,P|176:110|199:150,1,75
208,184,66040,1,0,0:0:0:0:
122,158,66227,1,0,0:0:0:0:
142,245,66415,2,0,P|102:271|51:267,2,75,8|0|8,0:0|0:0|0:0,0:0:0:0:
182,325,66977,2,0,P|272:332|295:316,1,75
319,276,67352,1,8,0:0:0:0:
236,240,67540,1,8,0:0:0:0:
118,103,67915,6,0,L|211:66,1,75,8|0,0:0|0:0,0:0:0:0:
237,150,68290,2,0,L|314:200,1,75
306,100,68665,1,8,0:0:0:0:
479,53,69040,2,0,P|480:108|467:154,1,75
395,89,69415,2,0,P|396:144|383:190,1,75
463,219,69790,2,0,P|464:274|451:320,2,75
300,139,70540,1,0,0:0:0:0:
306,147,70727,1,0,0:0:0:0:
306,147,70915,6,0,B|317:228,1,75,8|0,0:0|0:0,0:0:0:0:
363,298,71290,1,0,0:0:0:0:
363,298,71477,1,0,0:0:0:0:
363,297,71665,2,0,L|256:295,1,75,8|0,0:0|0:0,0:0:0:0:
340,369,72040,1,8,0:0:0:0:
429,359,72227,1,8,0:0:0:0:
99,34,73540,1,8,0:0:0:0:
99,34,73915,6,0,B|264:7|368:80,1,194.999991073609,8|8,0:0|0:0,0:0:0:0:
405,67,74477,2,0,P|403:132|429:180,1,97.4999955368044,0|8,0:0|0:0,0:0:0:0:
367,268,74852,2,0,P|324:245|303:201,1,97.4999955368044
231,121,75227,2,0,P|170:118|130:144,2,97.4999955368044,0|8|0,0:0|0:0|0:0,0:0:0:0:
197,233,75790,2,0,B|147:263|101:243,2,97.4999955368044,8|0|8,0:0|0:0|0:0,0:0:0:0:
289,305,76352,1,0,0:0:0:0:
328,194,76540,2,0,P|386:230|405:279,1,97.4999955368044,8|0,0:0|0:0,0:0:0:0:
506,207,76915,6,0,L|447:130,1,97.4999955368044,8|0,0:0|0:0,0:0:0:0:
483,18,77290,2,0,P|404:18|353:61,1,97.4999955368044,8|0,0:0|0:0,0:0:0:0:
304,106,77665,2,0,P|258:136|198:139,1,97.4999955368044,8|0,0:0|0:0,0:0:0:0:
108,96,78040,2,0,P|159:52|233:55,1,97.4999955368044,8|0,0:0|0:0,0:0:0:0:
304,49,78415,2,0,P|358:70|394:114,1,97.4999955368044,8|0,0:0|0:0,0:0:0:0:
460,187,78790,2,0,B|416:227|335:209,2,97.4999955368044,8|0|8,0:0|0:0|0:0,0:0:0:0:
446,303,79352,1,8,0:0:0:0:
446,303,79446,1,8,0:0:0:0:
446,303,79540,1,8,0:0:0:0:
369,214,79727,1,8,0:0:0:0:
402,101,79915,6,0,P|276:51|147:57,1,194.999991073609,8|8,0:0|0:0,0:0:0:0:
109,92,80477,1,0,0:0:0:0:
5,146,80665,2,0,P|53:198|96:211,1,97.4999955368044,8|0,0:0|0:0,0:0:0:0:
56,322,81040,1,8,0:0:0:0:
56,322,81227,1,0,0:0:0:0:
56,322,81415,2,0,P|158:333|206:349,1,97.4999955368044,8|0,0:0|0:0,0:0:0:0:
190,220,81790,2,0,P|239:250|263:293,1,97.4999955368044,8|0,0:0|0:0,0:0:0:0:
356,349,82165,1,8,0:0:0:0:
265,133,82540,2,0,P|217:133|158:157,1,97.4999955368044,8|0,0:0|0:0,0:0:0:0:
65,200,82915,6,0,B|94:57,1,97.4999955368044,8|0,0:0|0:0,0:0:0:0:
179,36,83290,2,0,P|298:51|328:102,1,97.4999955368044,8|0,0:0|0:0,0:0:0:0:
390,31,83665,2,0,L|478:142,1,97.4999955368044,8|0,0:0|0:0,0:0:0:0:
335,130,84040,2,0,P|349:174|403:225,1,97.4999955368044,8|0,0:0|0:0,0:0:0:0:
452,306,84415,2,0,P|406:320|374:306,3,48.7499977684022,8|0|0|0,0:0|0:0|0:0|0:0,0:0:0:0:
348,322,84790,2,0,P|313:334|258:322,3,48.7499977684022,8|0|0|0,0:0|0:0|0:0|0:0,0:0:0:0:
242,333,85165,1,8,0:0:0:0:
273,220,85352,1,8,0:0:0:0:
273,220,85446,1,8,0:0:0:0:
273,220,85540,1,8,0:0:0:0:
326,183,97915,6,0,P|316:259|276:309,1,112.500004291535,8|0,0:0|0:0,0:0:0:0:
234,312,98477,1,0,0:0:0:0:
167,300,98665,2,0,P|145:210|178:155,1,112.500004291535,8|0,0:0|0:0,0:0:0:0:
86,172,99227,1,0,0:0:0:0:
132,122,99415,2,0,P|196:136|222:176,1,112.500004291535,8|0,0:0|0:0,0:0:0:0:
284,149,99977,2,0,P|268:115|255:90,1,56.2500021457673,0|8,0:0|0:0,0:0:0:0:
196,74,100352,1,0,0:0:0:0:
154,20,100540,1,0,0:0:0:0:
220,10,100727,1,0,0:0:0:0:
287,18,100915,6,0,P|363:29|409:63,1,112.500004291535,8|0,0:0|0:0,0:0:0:0:
354,103,101477,1,0,0:0:0:0:
415,130,101665,2,0,P|394:171|389:200,1,56.2500021457673,8|0,0:0|0:0,0:0:0:0:
459,184,102040,1,0,0:0:0:0:
442,249,102227,1,0,0:0:0:0:
374,250,102415,2,0,B|301:249|289:236,1,56.2500021457673,8|0,0:0|0:0,0:0:0:0:
310,313,102790,1,8,0:0:0:0:
254,275,102977,1,0,0:0:0:0:
251,207,103165,2,0,B|258:164|285:136|285:137,1,56.2500021457673,8|0,0:0|0:0,0:0:0:0:
271,154,103446,1,0,0:0:0:0:
271,154,103540,1,0,0:0:0:0:
196,41,103915,6,0,L|91:96,1,112.500004291535,8|0,0:0|0:0,0:0:0:0:
74,156,104477,1,0,0:0:0:0:
141,159,104665,2,0,B|133:225|56:223,1,112.500004291535,8|0,0:0|0:0,0:0:0:0:
64,290,105227,1,0,0:0:0:0:
125,319,105415,2,0,P|180:326|234:314,1,112.500004291535,8|0,0:0|0:0,0:0:0:0:
195,260,105977,1,0,0:0:0:0:
237,207,106165,1,8,0:0:0:0:
283,255,106352,2,0,L|363:298,1,56.2500021457673,0|0,0:0|0:0,0:0:0:0:
392,312,106727,1,0,0:0:0:0:
402,245,106915,6,0,P|414:180|396:117,1,112.500004291535,8|0,0:0|0:0,0:0:0:0:
342,161,107477,1,0,0:0:0:0:
310,101,107665,2,0,L|374:77,1,56.2500021457673,8|0,0:0|0:0,0:0:0:0:
323,26,108040,1,0,0:0:0:0:
261,52,108227,1,0,0:0:0:0:
236,114,108415,2,0,L|242:162,3,28.1250010728836,8|0|0|0,0:0|0:0|0:0|0:0,0:0:0:0:
210,158,108790,2,0,L|169:142,3,28.1250010728836,0|0|0|0,0:0|0:0|0:0|0:0,0:0:0:0:
158,124,109165,2,0,L|137:146,2,28.1250010728836,8|0|0,0:0|0:0|0:0,0:0:0:0:
144,34,109540,6,0,P|97:47|71:72,1,75,0|0,0:0|0:0,0:0:0:0:
59,151,109915,2,0,P|69:206|63:239,1,75,8|0,0:0|0:0,0:0:0:0:
140,276,110290,2,0,L|65:328,2,75,0|0|8,0:0|0:0|0:0,0:0:0:0:
143,185,110852,1,0,0:0:0:0:
56,159,111040,2,0,L|117:84,1,75,0|0,0:0|0:0,0:0:0:0:
192,113,111415,2,0,L|281:102,1,75,8|0,0:0|0:0,0:0:0:0:
275,13,111790,2,0,P|335:41|345:77,2,75,0|0|8,0:0|0:0|0:0,0:0:0:0:
426,109,112540,1,0,0:0:0:0:
426,109,112727,1,0,0:0:0:0:
426,109,112915,6,0,P|400:155|411:185,1,75,8|0,0:0|0:0,0:0:0:0:
404,173,113290,1,0,0:0:0:0:
404,173,113477,1,0,0:0:0:0:
404,173,113665,2,0,P|365:206|319:211,1,75,8|0,0:0|0:0,0:0:0:0:
342,211,114040,1,0,0:0:0:0:
342,211,114227,1,0,0:0:0:0:
342,211,114415,2,0,P|300:239|295:266,2,75,8|0|0,0:0|0:0|0:0,0:0:0:0:
300,131,114977,2,0,P|252:96|207:94,1,75,0|8,0:0|0:0,0:0:0:0:
154,58,115352,1,8,0:0:0:0:
158,148,115540,1,8,0:0:0:0:
84,312,115915,6,0,L|179:343,1,75,8|0,0:0|0:0,0:0:0:0:
154,245,116290,2,0,L|231:195,1,75,0|0,0:0|0:0,0:0:0:0:
231,293,116665,1,8,0:0:0:0:
406,334,117040,2,0,P|427:290|427:262,1,75,0|0,0:0|0:0,0:0:0:0:
341,268,117415,2,0,P|346:231|393:190,1,75,8|0,0:0|0:0,0:0:0:0:
450,163,117790,2,0,B|482:96|422:62,2,75,0|0|8,0:0|0:0|0:0,0:0:0:0:
269,152,118540,1,0,0:0:0:0:
269,152,118727,1,0,0:0:0:0:
269,152,118915,6,0,P|215:158|182:146,1,75,8|0,0:0|0:0,0:0:0:0:
174,64,119290,2,0,L|76:61,2,75,0|0|8,0:0|0:0|0:0,0:0:0:0:
131,142,119852,1,0,0:0:0:0:
125,232,120040,2,0,L|25:231,2,75,0|0|8,0:0|0:0|0:0,0:0:0:0:
214,234,120602,2,0,P|304:237|318:236,1,75,0|0,0:0|0:0,0:0:0:0:
237,312,120977,1,0,0:0:0:0:
146,313,121165,1,8,0:0:0:0:
245,61,121915,6,0,P|277:120|364:171,1,168.750006437302,8|0,2:0|2:0,2:0:0:0:
430,170,122665,2,0,P|423:75|381:17,1,168.750006437302,8|0,2:0|2:0,2:0:0:0:
307,46,123415,1,8,2:0:0:0:
172,46,123790,2,0,P|150:77|137:112,2,56.2500021457673,0|0|8,2:0|2:0|2:0,2:0:0:0:
265,141,124540,1,0,2:0:0:0:
265,141,124727,1,0,2:0:0:0:
265,141,124915,6,0,P|218:174|199:187,1,56.2500021457673,8|0,2:0|2:0,2:0:0:0:
151,164,125290,2,0,P|152:199|182:231,1,56.2500021457673,0|0,2:0|2:0,2:0:0:0:
95,223,125665,2,0,P|106:265|126:286,1,56.2500021457673,8|0,2:0|2:0,2:0:0:0:
180,285,126040,1,0,2:0:0:0:
197,349,126227,1,0,2:0:0:0:
249,306,126415,2,0,P|278:304|325:287,1,56.2500021457673,8|0,2:0|2:0,2:0:0:0:
369,314,126790,2,0,P|361:259|338:224,1,56.2500021457673,0|0,2:0|2:0,2:0:0:0:
303,223,127165,1,8,2:0:0:0:
258,69,127915,6,0,L|89:112,1,168.750006437302,8|0,2:0|2:0,2:0:0:0:
111,176,128665,2,0,L|278:133,1,168.750006437302,8|0,2:0|2:0,2:0:0:0:
325,183,129415,2,0,B|308:251|280:259,1,56.2500021457673,8|0,2:0|2:0,2:0:0:0:
261,286,129790,2,0,P|190:303|175:298,1,56.2500021457673,0|0,2:0|2:0,2:0:0:0:
212,237,130165,1,8,2:0:0:0:
108,63,130727,1,0,2:0:0:0:
175,46,130915,6,0,L|273:41,1,56.2500021457673,8|0,2:0|2:0,2:0:0:0:
298,41,131290,1,0,2:0:0:0:
340,93,131477,1,0,2:0:0:0:
277,119,131665,2,0,L|203:160,1,56.2500021457673,8|0,2:0|2:0,2:0:0:0:
271,197,132040,1,0,2:0:0:0:
337,185,132227,1,0,2:0:0:0:
363,247,132415,2,8,L|287:274,1,56.2500021457673,8|0,2:0|2:0,2:0:0:0:
252,335,132790,2,8,L|199:277,1,75,8|0,2:0|2:0,2:0:0:0:
89,293,133165,2,8,L|50:203,1,93.75,8|0,2:0|2:0,2:0:0:0:
132,98,133540,2,8,L|291:30,1,112.500004291535,8|0,2:0|2:0,2:0:0:0:
312,79,133915,6,0,B|416:140|430:186,1,134.999995880127,8|0,0:0|0:0,0:0:0:0:
460,230,134477,1,0,0:0:0:0:
424,308,134665,2,0,P|350:345|254:351,1,134.999995880127,8|0,0:0|0:0,0:0:0:0:
323,275,135227,1,0,0:0:0:0:
243,292,135415,1,8,0:0:0:0:
176,338,135602,1,0,0:0:0:0:
170,256,135790,2,0,L|110:185,2,67.4999979400635,0|0|8,0:0|0:0|0:0,0:0:0:0:
331,243,136540,2,0,L|359:181,1,67.4999979400635,0|0,0:0|0:0,0:0:0:0:
327,106,136915,6,0,P|298:44|207:31,1,134.999995880127,8|0,0:0|0:0,0:0:0:0:
239,114,137477,1,0,0:0:0:0:
173,65,137665,1,8,0:0:0:0:
93,50,137852,2,0,P|96:147|117:166,1,67.4999979400635,0|0,0:0|0:0,0:0:0:0:
43,186,138227,1,0,0:0:0:0:
124,183,138415,1,8,0:0:0:0:
204,188,138602,2,0,P|244:117|280:105,2,67.4999979400635,0|0|0,0:0|0:0|0:0,0:0:0:0:
160,256,139165,1,8,0:0:0:0:
402,260,139727,1,0,0:0:0:0:
338,310,139915,6,0,B|252:382|95:368,1,202.499993820191,8|0,0:0|0:0,0:0:0:0:
105,301,140665,2,0,B|107:216|130:191,1,67.4999979400635,8|0,0:0|0:0,0:0:0:0:
34,260,141040,1,0,0:0:0:0:
44,179,141227,2,0,P|77:146|119:127,1,67.4999979400635,0|8,0:0|0:0,0:0:0:0:
168,168,141602,1,0,0:0:0:0:
188,89,141790,2,0,P|223:108|239:131,2,67.4999979400635,0|0|8,0:0|0:0|0:0,0:0:0:0:
242,28,142352,1,0,0:0:0:0:
321,37,142540,2,0,P|354:45|386:57,1,67.4999979400635,0|0,0:0|0:0,0:0:0:0:
466,46,142915,6,0,P|460:90|441:117,1,67.4999979400635,8|0,0:0|0:0,0:0:0:0:
372,138,143290,1,0,0:0:0:0:
430,193,143477,1,0,0:0:0:0:
466,265,143665,2,0,P|483:311|497:357,2,67.4999979400635,8|0|0,0:0|0:0|0:0,0:0:0:0:
385,261,144227,1,0,0:0:0:0:
315,302,144415,2,0,P|56:121|90:61,1,472.499985580445,8|0,0:0|0:0,0:0:0:0:
169,84,145915,6,0,P|139:166|171:223,1,150,8|0,0:0|0:0,0:0:0:0:
229,153,146477,1,0,0:0:0:0:
253,239,146665,2,0,B|338:198|308:111,1,150,8|0,0:0|0:0,0:0:0:0:
304,26,147227,2,0,P|340:33|373:55,1,75,0|8,0:0|0:0,0:0:0:0:
392,141,147602,2,0,P|422:162|438:195,2,75,0|0|0,0:0|0:0|0:0,0:0:0:0:
453,74,148165,1,8,0:0:0:0:
274,49,148540,2,0,L|222:106,1,75
212,196,148915,5,8,0:0:0:0:
212,196,149102,1,0,0:0:0:0:
212,196,149290,2,0,L|223:273,1,75,0|0,0:0|0:0,0:0:0:0:
133,286,149665,1,8,0:0:0:0:
197,348,149852,1,0,0:0:0:0:
285,328,150040,2,0,L|324:258,1,75,0|0,0:0|0:0,0:0:0:0:
288,178,150415,1,8,0:0:0:0:
256,93,150602,1,0,0:0:0:0:
324,33,150790,2,0,L|424:47,2,75,0|0|8,0:0|0:0|0:0,0:0:0:0:
347,119,151352,1,8,0:0:0:0:
347,119,151446,1,8,0:0:0:0:
347,119,151540,1,8,0:0:0:0:
421,169,151727,1,0,0:0:0:0:
421,169,151915,6,0,P|344:212|328:284,1,150,8|0,0:0|0:0,0:0:0:0:
415,253,152477,1,0,0:0:0:0:
397,341,152665,2,0,P|314:368|242:327,1,150,8|0,0:0|0:0,0:0:0:0:
192,284,153227,1,0,0:0:0:0:
128,220,153415,2,0,P|225:199|265:227,1,150,8|0,0:0|0:0,0:0:0:0:
336,173,153977,1,0,0:0:0:0:
264,118,154165,1,8,0:0:0:0:
256,192,154540,12,12,157540,0:0:0:0:
413,350,157915,6,8,B|248:377|144:304,1,194.999991073609,8|8,0:0|0:0,0:0:0:0:
129,267,158477,2,0,P|141:232|115:164,1,97.4999955368044,0|8,0:0|0:0,0:0:0:0:
206,90,158852,2,0,P|241:140|238:189,1,97.4999955368044
323,268,159227,2,0,P|383:257|425:209,2,97.4999955368044,0|8|0,0:0|0:0|0:0,0:0:0:0:
328,150,159790,2,0,B|389:110|441:123,2,97.4999955368044,8|0|8,0:0|0:0|0:0,0:0:0:0:
238,73,160352,1,0,0:0:0:0:
250,189,160540,2,0,P|182:174|139:128,1,97.4999955368044,8|0,0:0|0:0,0:0:0:0:
45,178,160915,6,0,L|158:261,1,97.4999955368044,8|0,0:0|0:0,0:0:0:0:
89,347,161290,2,0,P|158:346|196:328,1,97.4999955368044,8|0,0:0|0:0,0:0:0:0:
299,320,161665,2,0,P|276:265|241:236,1,97.4999955368044,8|0,0:0|0:0,0:0:0:0:
275,126,162040,2,0,P|220:128|150:167,1,97.4999955368044,8|0,0:0|0:0,0:0:0:0:
63,143,162415,2,0,P|41:83|48:39,1,97.4999955368044,8|0,0:0|0:0,0:0:0:0:
158,77,162790,2,0,B|220:42|288:63,2,97.4999955368044,8|0|8,0:0|0:0|0:0,0:0:0:0:
233,165,163352,1,8,0:0:0:0:
233,165,163446,1,8,0:0:0:0:
233,165,163540,1,8,0:0:0:0:
118,186,163727,1,8,0:0:0:0:
83,298,163915,6,0,P|209:348|338:342,1,194.999991073609,8|8,0:0|0:0,0:0:0:0:
384,349,164477,2,0,P|371:293|394:248,1,97.4999955368044,0|8,0:0|0:0,0:0:0:0:
429,148,164852,2,0,P|375:129|341:145,1,97.4999955368044
265,234,165227,2,0,P|165:183|151:141,2,97.4999955368044,0|8|0,0:0|0:0|0:0,0:0:0:0:
263,116,165790,2,0,P|186:103|145:32,2,97.4999955368044,8|0|8,0:0|0:0|0:0,0:0:0:0:
255,3,166352,1,0,0:0:0:0:
367,37,166540,2,0,P|417:85|424:141,1,97.4999955368044,8|0,0:0|0:0,0:0:0:0:
435,227,166915,6,0,B|406:370,1,97.4999955368044,8|0,0:0|0:0,0:0:0:0:
300,347,167290,2,0,P|181:332|151:281,1,97.4999955368044,8|0,0:0|0:0,0:0:0:0:
291,268,167665,2,0,L|328:167,1,97.4999955368044,8|0,0:0|0:0,0:0:0:0:
232,103,168040,2,0,P|203:145|190:199,1,97.4999955368044,8|0,0:0|0:0,0:0:0:0:
128,288,168415,2,0,P|109:298|82:302,3,48.7499977684022,8|0|0|0,0:0|0:0|0:0|0:0,0:0:0:0:
102,246,168790,2,0,P|70:250|44:257,3,48.7499977684022,8|0|0|0,0:0|0:0|0:0|0:0,0:0:0:0:
85,204,169165,1,8,0:0:0:0:
37,97,169352,1,8,0:0:0:0:
37,97,169446,1,8,0:0:0:0:
37,97,169540,1,8,0:0:0:0:
252,98,169915,6,0,P|183:113|151:150,1,89.999997253418,8|0,0:0|0:0,0:0:0:0:
173,232,170290,2,0,P|221:284|269:293,1,89.999997253418,0|0,0:0|0:0,0:0:0:0:
344,308,170665,2,0,P|365:241|349:195,1,89.999997253418,8|0,0:0|0:0,0:0:0:0:
354,115,171040,2,0,P|319:80|284:56,1,89.9999972534181
244,167,171415,2,0,L|289:274,1,89.999997253418,8|0,0:0|0:0,0:0:0:0:
374,321,171790,2,0,P|409:293|430:253,1,89.999997253418,0|0,0:0|0:0,0:0:0:0:
466,355,172165,1,8,0:0:0:0:
465,139,172540,2,0,L|391:64,1,89.999997253418,0|0,0:0|0:0,0:0:0:0:
294,90,172915,6,0,L|244:142,3,44.999998626709,8|0|0|0,0:0|0:0|0:0|0:0,0:0:0:0:
293,167,173290,2,0,L|342:219,3,44.999998626709,0|0|0|0,0:0|0:0|0:0|0:0,0:0:0:0:
288,240,173665,2,0,L|230:285,3,44.999998626709,8|0|0|0,0:0|0:0|0:0|0:0,0:0:0:0:
209,300,174040,2,0,L|169:243,3,44.999998626709,0|0|0|0,0:0|0:0|0:0|0:0,0:0:0:0:
204,213,174415,2,0,P|148:204|112:227,1,89.999997253418,8|0,0:0|0:0,0:0:0:0:
109,325,174790,2,0,L|19:334,2,89.999997253418,0|0|8,0:0|0:0|0:0,0:0:0:0:
46,237,175352,1,8,0:0:0:0:
46,237,175446,1,8,0:0:0:0:
46,237,175540,1,8,0:0:0:0:
83,136,175727,1,8,0:0:0:0:
191,129,175915,6,0,P|239:174|257:220,1,89.999997253418,8|0,0:0|0:0,0:0:0:0:
267,301,176290,2,0,P|328:276|347:233,1,89.999997253418,0|0,0:0|0:0,0:0:0:0:
328,150,176665,2,0,P|367:108|413:100,1,89.9999972534181,8|0,0:0|0:0,0:0:0:0:
504,87,177040,2,0,P|496:137|468:170,1,89.9999972534181
456,274,177415,2,0,L|350:320,1,89.999997253418,8|0,0:0|0:0,0:0:0:0:
278,355,177790,2,0,P|237:352|186:322,1,89.999997253418,0|0,0:0|0:0,0:0:0:0:
263,246,178165,1,8,0:0:0:0:
69,341,178540,2,0,L|42:232,1,89.999997253418,0|0,0:0|0:0,0:0:0:0:
156,250,178915,5,8,0:0:0:0:
97,41,179290,2,0,L|216:41,1,89.999997253418,0|0,0:0|0:0,0:0:0:0:
269,110,179665,2,0,L|150:110,1,89.999997253418,8|0,0:0|0:0,0:0:0:0:
98,182,180040,2,0,L|217:182,1,89.999997253418,0|0,0:0|0:0,0:0:0:0:
295,165,180415,2,0,L|335:185,3,44.999998626709,8|0|0|0,0:0|0:0|0:0|0:0,0:0:0:0:
374,222,180790,2,0,L|379:278,3,44.999998626709,0|0|0|0,0:0|0:0|0:0|0:0,0:0:0:0:
335,300,181165,2,0,L|287:320,3,44.999998626709,8|0|0|0,0:0|0:0|0:0|0:0,0:0:0:0:
228,337,181540,1,0,0:0:0:0:
59,337,181915,5,8,0:0:0:0:
297,98,182665,1,8,0:0:0:0:
475,276,183227,1,8,0:0:0:0:
390,276,183415,1,8,0:0:0:0:
413,108,183790,1,8,0:0:0:0:
342,153,183977,1,8,0:0:0:0:
268,110,184165,1,8,0:0:0:0:
256,192,184540,12,12,187540,0:0:0:0:
404,322,187915,5,8,0:0:0:0:
165,83,188665,1,8,0:0:0:0:
165,335,189227,1,8,0:0:0:0:
249,335,189415,1,8,0:0:0:0:
249,166,189790,1,8,0:0:0:0:
332,156,189977,1,8,0:0:0:0:
378,226,190165,1,8,0:0:0:0:
209,240,190540,2,0,P|181:194|176:172,1,56.2500021457673
157,110,190915,5,8,0:0:0:0:
38,97,191290,2,0,L|21:173,1,56.2500021457673
105,181,191665,2,0,L|116:256,1,56.2500021457673,8|0,0:0|0:0,0:0:0:0:
30,256,192040,2,0,L|40:344,1,56.2500021457673
116,337,192415,2,0,L|153:338,8,28.1250010728836,8|0|0|0|0|0|0|0|12,0:0|0:0|0:0|0:0|0:0|0:0|0:0|0:0|0:0,0:0:0:0:
