osu file format v14

[General]
AudioFilename: audio.mp3
AudioLeadIn: 0
PreviewTime: 13915
Countdown: 0
SampleSet: Normal
StackLeniency: 0.7
Mode: 0
LetterboxInBreaks: 0
WidescreenStoryboard: 0

[Editor]
Bookmarks: 13941,37941,61566,73566,73915,85915,97941,109566,121941,133941,145941,157915,169915,181941
DistanceSpacing: 1
BeatDivisor: 2
GridSize: 32
TimelineZoom: 0.5999999

[Metadata]
Title:Somato Rabirinsu (w momobako & miko)
TitleUnicode:走馬灯ラビリンス (w 桃箱 & miko)
Artist:Yunomi
ArtistUnicode:Yunomi
Creator:rick0922
Version:Easy
Source:
Tags:走馬灯ラビリンス (w 桃箱 & miko)
BeatmapID:1342020
BeatmapSetID:632164

[Difficulty]
HPDrainRate:3
CircleSize:3
OverallDifficulty:3
ApproachRate:5
SliderMultiplier:1
SliderTickRate:1

[Events]
//Background and Video events
0,0,"tumblr_static_3azc4q1pngowc4gcossockkcs.jpg",0,0
//Break Periods
2,86115,96715
2,121740,132715
2,170115,180715
//Storyboard Layer 0 (Background)
//Storyboard Layer 1 (Fail)
//Storyboard Layer 2 (Pass)
//Storyboard Layer 3 (Foreground)
//Storyboard Sound Samples

[TimingPoints]
1915.40741173006,375,4,1,0,80,1,0
73915,-100,4,1,0,100,0,1
85915,-100,4,1,0,80,0,0
157915,-100,4,1,0,100,0,1
169915,-100,4,1,0,80,0,0
196026,-100,4,1,0,80,0,0

[Colours]
Combo1 : 255,191,128
Combo2 : 255,128,128
Combo3 : 191,128,255
Combo4 : 255,128,255

[HitObjects]
136,144,13915,6,8,P|216:112|261:110,1,100
329,111,14665,1,8,0:0:0:0:
328,210,15040,1,8,0:0:0:0:
257,280,15415,2,8,P|161:296|113:304,2,100
327,350,16540,1,0,0:0:0:0:
397,279,16915,6,0,P|389:191|361:159,1,100
313,112,17665,2,0,B|261:74|190:72,1,100
121,74,18415,2,0,B|103:197|226:124|209:283,1,200
109,238,19540,1,0,0:0:0:0:
38,167,19915,6,8,P|11:79|24:31,1,100
111,73,20665,2,8,L|246:71,1,100
308,93,21415,2,8,P|322:149|294:197,2,100
219,139,22540,1,0,0:0:0:0:
219,239,22915,6,0,B|153:253|89:228,1,100
49,167,23665,2,0,P|49:104|74:56,1,100
163,70,24415,2,0,B|342:61|426:191,1,300
423,287,25915,6,0,P|385:333|343:346,1,100
340,245,26665,1,0,0:0:0:0:
241,229,27040,1,0,0:0:0:0:
165,295,27415,2,0,P|125:325|77:312,1,100
40,221,28165,6,0,P|16:172|23:127,1,100
83,49,28915,2,0,P|129:30|182:30,1,100
157,127,29665,2,0,P|228:150|264:128,1,100
328,82,30415,2,0,B|430:115|449:134,2,100
426,256,31915,6,0,B|408:217|349:195,1,100
332,294,32665,1,0,0:0:0:0:
267,370,33040,2,0,B|221:306|243:263,1,100
237,177,33790,2,0,P|181:165|134:203,1,100
146,285,34540,2,0,P|94:321|53:327,1,100
5,242,35290,1,0,0:0:0:0:
101,216,35665,1,0,0:0:0:0:
33,142,36040,1,0,0:0:0:0:
132,134,36415,2,0,P|112:80|75:49,2,100
275,28,37915,6,8,L|320:131,1,100
244,190,38665,2,8,L|113:191,1,100
73,261,39415,2,8,P|209:341|282:347,1,200
318,276,40540,1,8,0:0:0:0:
388,205,40915,5,8,0:0:0:0:
388,105,41290,2,8,P|353:62|290:31,1,100
215,39,42040,2,8,P|159:46|127:78,2,100
204,138,43165,1,8,0:0:0:0:
46,261,43915,5,8,0:0:0:0:
139,295,44290,2,8,P|219:303|287:279,1,100
334,276,45040,2,8,P|390:228|408:190,1,100
426,108,45790,2,8,P|401:60|323:35,1,100
262,37,46540,1,8,0:0:0:0:
161,37,46915,6,8,L|57:149,1,100
92,210,47665,2,8,L|196:306,1,100
204,369,48415,2,8,B|322:347|222:247|357:232,1,200
488,110,49915,6,8,P|443:78|373:55,1,100
301,64,50665,2,8,P|253:54|176:85,1,100
254,152,51415,2,8,B|242:195|242:195|308:128|391:195,1,200
314,262,52540,1,8,0:0:0:0:
369,345,52915,6,8,L|513:349,1,100
496,251,53665,2,8,L|344:251,1,100
389,151,54415,1,8,0:0:0:0:
477,104,54790,1,8,0:0:0:0:
386,61,55165,1,8,0:0:0:0:
195,22,55915,6,8,B|131:34|71:82,1,100
123,156,56665,2,8,P|177:139|237:108,1,100
319,148,57415,2,8,B|308:238|170:214|72:326,1,300
163,373,58915,6,8,P|210:371|273:347,1,100
338,293,59665,2,8,P|398:244|422:199,1,100
390,127,60415,2,8,P|293:43|224:25,1,200
148,89,61540,1,0,0:0:0:0:
102,182,61915,6,0,P|89:280|162:398,1,200
238,369,63040,1,0,0:0:0:0:
331,333,63415,2,0,B|404:261|410:167|381:110,1,200
358,59,64540,2,0,P|306:32|253:19,1,100
166,21,65290,2,0,P|112:37|67:59,1,100
74,155,66040,2,0,B|172:104|256:108|360:175,1,300
403,262,67540,1,0,0:0:0:0:
335,339,67915,6,0,L|117:269,1,200
73,207,69040,1,0,0:0:0:0:
143,136,69415,2,0,L|303:14,1,200
256,192,70540,12,0,72040,0:0:0:0:
256,192,73540,5,8,0:0:0:0:
256,92,73915,2,8,L|147:93,2,100
356,92,75040,1,8,0:0:0:0:
426,162,75415,2,8,P|407:230|388:266,1,100
323,326,76165,2,8,P|248:332|187:308,1,100
124,325,76915,6,8,P|76:279|45:223,1,100
134,186,77665,6,8,P|162:226|200:259,1,100
300,261,78415,2,8,P|398:161|420:99,1,200
511,283,79915,6,8,L|511:384,2,100
440,212,81040,1,8,0:0:0:0:
369,282,81415,2,8,L|372:403,2,100
272,307,82540,2,8,P|219:327|141:316,1,100
90,277,83290,6,8,P|29:221|15:181,2,100
256,192,84415,12,4,85915,0:0:0:0:
448,320,97915,6,8,P|380:344|327:337,1,100
253,344,98665,2,8,P|188:336|118:322,1,100
122,234,99415,2,8,P|198:214|247:214,1,100
314,242,100165,2,8,P|369:251|442:246,1,100
445,155,100915,6,8,L|373:52,1,100
316,2,101665,2,8,L|231:70,1,100
167,135,102415,2,8,L|263:231,1,100
308,135,103165,1,8,0:0:0:0:
449,0,103915,5,8,0:0:0:0:
449,100,104290,2,8,P|421:172|388:203,1,100
335,259,105040,2,8,B|208:279|167:150,1,200
245,100,106165,2,8,P|333:84|380:91,1,100
413,155,106915,6,8,L|414:278,1,100
313,254,107665,2,8,L|314:118,1,100
313,53,108415,2,8,B|189:82|226:230,1,200
149,274,109540,6,8,B|101:217|132:150,1,100
57,104,110290,2,8,B|108:65|168:93,1,100
248,62,111040,2,8,P|308:88|326:130,1,100
297,213,111790,2,8,P|220:194|160:216,1,100
116,251,112540,6,8,P|109:313|112:339,2,50,8|0|8,0:0|0:0|0:0,0:0:0:0:
214,268,113290,2,8,P|209:326|210:356,2,50,8|0|8,0:0|0:0|0:0,0:0:0:0:
299,319,114040,2,8,P|396:276|430:100,1,300
331,103,115540,1,8,0:0:0:0:
259,32,115915,6,8,P|311:27|362:-1,2,100
59,47,117415,2,8,P|36:78|16:142,2,100
57,247,118915,6,8,B|89:297|191:293,1,100
226,236,119665,2,8,B|194:186|92:190,1,100
132,91,120415,2,8,L|37:128,2,100
228,66,121540,1,8,0:0:0:0:
196,252,133915,6,8,P|295:273|413:262,1,200
450,74,135415,1,8,0:0:0:0:
350,74,135790,2,8,P|258:58|205:59,1,100
152,48,136540,2,8,P|74:37|19:53,1,100,8|0,0:0|0:0,0:0:0:0:
118,116,137290,6,8,P|60:117|5:144,1,100,8|0,0:0|0:0,0:0:0:0:
97,208,138040,2,8,P|184:215|231:236,1,100
266,289,138790,2,8,P|320:308|377:293,1,100,8|0,0:0|0:0,0:0:0:0:
325,207,139540,1,8,0:0:0:0:
404,146,139915,6,8,P|344:111|312:110,1,100
214,109,140665,1,8,0:0:0:0:
114,109,141040,1,8,0:0:0:0:
114,209,141415,2,8,P|156:214|224:203,1,100
306,169,142165,1,8,0:0:0:0:
399,203,142540,2,8,L|484:227,2,50,8|0|8,0:0|0:0|0:0,0:0:0:0:
328,273,143290,6,8,P|299:338|169:374,1,200
96,327,144415,2,8,P|68:247|85:117,1,200
149,62,145540,1,8,0:0:0:0:
249,62,145915,6,8,P|304:60|352:78,1,100
446,74,146665,1,8,0:0:0:0:
446,174,147040,1,8,0:0:0:0:
375,244,147415,2,8,P|308:227|246:187,1,100
280,113,148165,1,8,0:0:0:0:
180,113,148540,1,8,0:0:0:0:
80,113,148915,6,8,L|79:223,1,100
151,281,149665,2,8,L|151:179,1,100
221,110,150415,2,8,P|257:38|274:18,2,100
291,180,151540,1,8,0:0:0:0:
349,260,151915,6,8,P|386:204|380:131,1,100
389,72,152665,2,8,P|338:49|279:38,1,100
194,39,153415,2,8,P|134:179|170:246,1,200
188,305,154540,1,8,0:0:0:0:
288,305,154915,6,8,B|344:221|359:184,1,100
340,120,155665,2,8,B|264:92|212:74,1,100
145,85,156415,2,8,B|147:199|274:167|283:274,1,200
359,187,157540,1,8,0:0:0:0:
439,246,157915,6,8,P|401:280|334:312,1,100
255,304,158665,2,8,P|165:291|120:270,1,100
157,188,159415,2,8,P|194:140|243:119,1,100
328,122,160165,1,8,0:0:0:0:
420,160,160540,2,8,L|507:173,2,50,8|0|8,0:0|0:0|0:0,0:0:0:0:
355,236,161290,6,8,P|183:220|132:189,1,200
106,125,162415,2,8,L|48:34,2,100
201,93,163540,1,8,0:0:0:0:
300,86,163915,6,8,L|420:154,1,100
387,235,164665,1,8,0:0:0:0:
301,286,165040,1,8,0:0:0:0:
209,325,165415,2,8,P|152:333|74:320,2,100
211,225,166540,2,8,P|148:217|118:218,2,50,8|0|8,0:0|0:0|0:0,0:0:0:0:
213,124,167290,2,8,P|152:113|95:113,2,100
256,192,168415,12,4,169915,0:0:0:0:
315,115,181915,6,8,P|294:162|256:192,1,100,8|8,0:0|0:0,0:0:0:0:
333,251,182665,2,8,P|286:230|256:192,1,100,8|8,0:0|0:0,0:0:0:0:
197,269,183415,2,8,P|218:222|256:192,1,100,8|8,0:0|0:0,0:0:0:0:
179,133,184165,2,8,P|226:154|256:192,1,100,8|8,0:0|0:0,0:0:0:0:
256,192,184915,12,4,186415,0:0:0:0:
179,133,187915,6,8,P|226:154|256:192,1,100,8|8,0:0|0:0,0:0:0:0:
197,269,188665,2,8,P|218:222|256:192,1,100,8|8,0:0|0:0,0:0:0:0:
333,251,189415,2,8,P|286:230|256:192,1,100,8|8,0:0|0:0,0:0:0:0:
315,115,190165,2,8,P|294:162|256:192,1,100,8|8,0:0|0:0,0:0:0:0:
256,192,190915,12,12,193165,0:0:0:0:
