osu file format v14

[General]
AudioFilename: audio.mp3
AudioLeadIn: 0
PreviewTime: 132109
Countdown: 0
SampleSet: None
StackLeniency: 0.5
Mode: 0
LetterboxInBreaks: 0
WidescreenStoryboard: 1

[Editor]
Bookmarks: 22737,44680,66623,88566,110509,132452,154395,176337,198280,220223
DistanceSpacing: 0.5
BeatDivisor: 4
GridSize: 32
TimelineZoom: 1.2

[Metadata]
Title:Sakura Saku (feat. nicamoq)
TitleUnicode:サ・ク・ラ・サ・ク (feat. nicamoq)
Artist:Yunomi
ArtistUnicode:Yunomi
Creator:SLM
Version:Extra
Source:
Tags:ゆのみ
BeatmapID:1702760
BeatmapSetID:686689

[Difficulty]
HPDrainRate:6
CircleSize:4
OverallDifficulty:8.1
ApproachRate:9.2
SliderMultiplier:2
SliderTickRate:1

[Events]
//Background and Video events
0,0,"cir.png",0,0
//Break Periods
2,154595,164110
//Storyboard Layer 0 (Background)
//Storyboard Layer 1 (Fail)
//Storyboard Layer 2 (Pass)
//Storyboard Layer 3 (Foreground)
//Storyboard Sound Samples

[TimingPoints]
795,342.857142857143,4,2,2,40,1,0
22737,-142.857142857143,4,2,2,40,0,0
41937,-111.111111111111,4,2,2,40,0,0
42966,-125,4,2,2,40,0,0
43309,-142.857142857143,4,2,2,40,0,0
44680,-125,4,2,2,40,0,0
52566,-142.857142857143,4,2,2,40,0,0
54280,-125,4,2,2,40,0,0
63880,-100,4,2,2,50,0,0
64566,-90.9090909090909,4,2,2,50,0,0
65252,-111.111111111111,4,2,2,50,0,0
65595,-100,4,2,2,50,0,0
65937,-125,4,2,2,50,0,0
66623,-125,4,2,1,50,0,0
85823,-100,4,2,1,60,0,0
86052,-100,4,2,0,60,0,0
86509,-100,4,2,1,60,0,0
86737,-100,4,2,0,60,0,0
87195,-100,4,2,1,60,0,0
87537,-125,4,2,1,50,0,0
87880,-125,4,2,1,40,0,0
98395,-125,4,2,1,35,0,0
100223,-142.857142857143,4,2,1,30,0,0
100909,-142.857142857143,4,2,0,30,0,0
101023,-142.857142857143,4,2,0,35,0,0
101137,-142.857142857143,4,2,0,40,0,0
101595,-125,4,2,1,40,0,0
109137,-125,4,2,1,35,0,0
109823,-125,4,2,0,35,0,0
110509,-200,4,2,3,30,0,0
112909,-166.666666666667,4,2,3,30,0,0
115995,-200,4,2,3,30,0,0
118395,-166.666666666667,4,2,3,30,0,0
121480,-166.666666666667,4,2,2,40,0,0
123880,-142.857142857143,4,2,2,40,0,0
129709,-100,4,2,2,50,0,0
132449,-125,4,2,1,50,0,0
151652,-100,4,2,1,50,0,0
151880,-100,4,2,0,50,0,0
152337,-100,4,2,1,50,0,0
152566,-100,4,2,0,50,0,0
153023,-100,4,2,1,50,0,0
153595,-100,4,2,1,40,0,0
153709,-142.857142857143,4,2,1,35,0,0
164680,-200,4,2,1,40,0,0
173595,-250,4,2,1,40,0,0
174280,-285.714285714286,4,2,1,40,0,0
174966,-333.333333333333,4,2,1,40,0,0
175995,-200,4,2,1,40,0,0
176337,-83.3333333333333,4,2,1,50,0,1
181480,-90.9090909090909,4,2,1,50,0,1
181823,-76.9230769230769,4,2,1,50,0,1
186623,-100,4,2,1,50,0,1
186966,-90.9090909090909,4,2,1,50,0,1
187309,-76.9230769230769,4,2,1,50,0,1
188337,-90.9090909090909,4,2,1,50,0,1
188680,-71.4285714285714,4,2,1,50,0,1
192623,-76.9230769230769,4,2,1,50,0,1
195195,-62.5,4,2,1,50,0,1
195537,-71.4285714285714,4,2,1,50,0,1
196909,-76.9230769230769,4,2,1,50,0,1
198280,-76.9230769230769,4,2,1,50,0,0
200337,-90.9090909090909,4,2,1,50,0,0
201023,-76.9230769230769,4,2,1,50,0,0
209252,-111.111111111111,4,2,1,50,0,0
210623,-76.9230769230769,4,2,1,50,0,0
211309,-90.9090909090909,4,2,1,50,0,0
211995,-76.9230769230769,4,2,1,50,0,0
216795,-90.9090909090909,4,2,1,50,0,0
217137,-76.9230769230769,4,2,1,50,0,0
217480,-76.9230769230769,4,2,1,50,0,1
220223,-76.9230769230769,4,2,1,40,0,0

[HitObjects]
314,15,22737,5,4,0:0:0:0:
271,162,22966,1,0,0:0:0:0:
244,156,23080,1,2,0:0:0:0:
434,89,23308,2,0,L|484:96,1,46.6666652425131,4|10,0:0|2:1,0:0:0:0:
436,186,23651,2,0,L|431:244,1,46.6666652425131,0|2,0:0|0:0,0:0:0:0:
317,269,23994,1,0,0:0:0:0:
314,241,24108,1,0,0:0:0:0:
472,325,24337,2,0,L|414:320,1,46.6666652425131,0|6,0:0|0:0,0:0:0:0:
299,358,24680,1,0,0:0:0:0:
323,361,24794,1,10,2:1:0:0:
239,210,25137,6,0,L|146:200,1,93.3333304850261,4|0,0:0|0:0,0:0:0:0:
53,307,25480,1,4,0:0:0:0:
64,322,26166,1,10,2:1:0:0:
75,337,26852,2,0,P|120:343|162:324,1,93.3333304850261
109,265,27195,2,0,P|63:256|23:277,1,93.3333304850261,6|0,0:0|0:0,0:0:0:0:
162,324,27537,1,10,2:1:0:0:
209,154,27766,1,0,0:0:0:0:
209,154,27880,1,2,0:0:0:0:
259,51,28223,6,0,L|359:40,1,93.3333304850261,4|0,0:0|0:0,0:0:0:0:
351,40,28566,1,2,0:0:0:0:
209,154,28795,1,4,0:0:0:0:
209,154,28909,2,0,L|301:164,1,93.3333304850261,10|0,2:1|0:0,0:0:0:0:
301,164,29252,1,2,0:0:0:0:
449,171,29480,1,0,0:0:0:0:
441,186,29595,5,0,0:0:0:0:
437,199,29709,2,0,L|440:245,1,46.6666652425131
348,322,29937,1,4,0:0:0:0:
360,334,30051,2,0,P|362:311|357:289,1,46.6666652425131
312,178,30280,1,10,2:1:0:0:
301,163,30395,2,0,P|291:187|290:212,1,46.6666652425131
220,350,30623,1,6,0:0:0:0:
235,363,30737,2,0,P|243:335|242:311,1,46.6666652425131
121,203,30966,5,4,0:0:0:0:
104,321,31309,2,0,L|93:228,1,93.3333304850261,2|4,0:0|0:0,0:0:0:0:
162,97,31652,1,10,2:1:0:0:
93,228,31995,1,2,0:0:0:0:
231,196,32337,5,4,0:0:0:0:
166,50,32680,2,0,P|161:72|161:96,1,46.6666652425131,4|2,0:0|0:0,0:0:0:0:
334,90,32909,1,0,0:0:0:0:
345,66,33023,2,0,L|253:82,1,93.3333304850261,10|0,2:1|0:0,0:0:0:0:
161,96,33366,1,6,0:0:0:0:
345,66,33709,6,0,L|340:159,1,93.3333304850261,4|0,0:0|0:0,0:0:0:0:
390,239,34052,1,2,0:0:0:0:
440,95,34280,1,4,0:0:0:0:
440,95,34395,1,10,2:1:0:0:
487,213,34623,1,0,0:0:0:0:
487,213,34737,1,2,0:0:0:0:
441,333,34966,1,0,0:0:0:0:
431,343,35081,5,0,0:0:0:0:
419,351,35195,2,0,L|370:339,1,46.6666652425131,2|0,0:0|0:0,0:0:0:0:
338,215,35423,1,6,0:0:0:0:
325,204,35537,2,0,P|319:226|319:249,1,46.6666652425131,0|2,0:0|0:0,0:0:0:0:
206,357,35766,1,10,2:1:0:0:
206,357,35880,2,0,L|252:357,1,46.6666652425131
150,260,36109,1,4,0:0:0:0:
150,260,36223,2,0,L|196:260,1,46.6666652425131,0|2,0:0|0:0,0:0:0:0:
325,204,36452,5,4,0:0:0:0:
311,186,37137,1,10,2:1:0:0:
95,216,37823,2,0,P|89:261|108:303,1,93.3333304850261,0|2,0:0|0:0,0:0:0:0:
167,250,38166,2,0,P|176:204|155:164,1,93.3333304850261,4|2,0:0|0:0,0:0:0:0:
161,362,38508,1,10,2:1:0:0:
21,170,38737,1,0,0:0:0:0:
21,170,38851,1,6,0:0:0:0:
250,106,39195,6,0,L|343:108,1,93.3333304850261,4|2,0:0|0:0,0:0:0:0:
167,136,39537,1,2,0:0:0:0:
271,218,39766,1,4,0:0:0:0:
293,214,39880,1,10,2:1:0:0:
292,27,40109,1,0,0:0:0:0:
299,6,40223,1,2,0:0:0:0:
381,210,40452,1,2,0:0:0:0:
388,230,40566,1,0,0:0:0:0:
499,51,40795,1,0,0:0:0:0:
477,54,40909,1,6,0:0:0:0:
343,108,41137,1,2,0:0:0:0:
367,116,41252,1,10,2:1:0:0:
497,192,41480,1,0,0:0:0:0:
486,167,41595,2,0,P|477:212|477:259,1,93.3333304850261,6|2,0:0|0:0,0:0:0:0:
502,364,41937,6,0,P|452:334|392:330,1,119.999996337891,6|0,0:0|0:0,0:0:0:0:
273,382,42280,1,2,0:0:0:0:
142,203,42509,1,0,0:0:0:0:
127,182,42623,2,0,B|109:239|109:239|133:298,1,119.999996337891,10|0,2:1|0:0,0:0:0:0:
156,308,42966,2,0,P|206:290|259:286,1,106.666666666667,2|2,0:0|2:3,0:0:0:0:
369,357,43309,6,0,P|359:312|358:264,1,93.3333304850261,4|2,0:0|0:0,0:0:0:0:
430,134,43652,1,6,0:0:0:0:
486,294,43995,1,10,2:1:0:0:
285,215,44223,5,8,3:0:0:0:
285,185,44337,1,12,3:0:0:0:
300,159,44452,1,4,3:0:0:0:
328,149,44566,1,4,3:0:0:0:
309,121,44680,6,0,P|297:69|298:15,1,106.666666666667,4|2,0:0|0:0,0:0:0:0:
208,133,45023,1,2,0:0:0:0:
113,25,45252,1,4,0:0:0:0:
86,27,45366,1,10,2:1:0:0:
15,163,45595,1,0,0:0:0:0:
19,191,45709,1,2,0:0:0:0:
143,220,45937,1,0,0:0:0:0:
160,223,46051,5,0,0:0:0:0:
175,226,46166,2,0,P|179:199|179:173,1,53.3333333333333
101,82,46395,1,6,0:0:0:0:
101,82,46509,2,0,L|172:90,1,53.3333333333333,0|2,0:0|0:0,0:0:0:0:
19,191,46737,1,10,2:1:0:0:
19,191,46852,2,0,L|72:186,1,53.3333333333333
179,173,47080,1,6,0:0:0:0:
179,173,47195,2,0,L|232:178,1,53.3333333333333,0|2,0:0|0:0,0:0:0:0:
352,255,47423,5,4,0:0:0:0:
374,272,48109,1,10,2:1:0:0:
396,289,48795,2,0,P|405:237|383:189,1,106.666666666667,0|2,0:0|0:0,0:0:0:0:
323,248,49137,2,0,P|314:299|336:347,1,106.666666666667,6|2,0:0|0:0,0:0:0:0:
383,189,49480,2,0,L|370:83,1,106.666666666667,10|0,2:1|0:0,0:0:0:0:
294,119,49823,1,6,0:0:0:0:
450,31,50052,1,2,0:0:0:0:
450,31,50166,6,0,L|463:137,1,106.666666666667,4|0,0:0|0:0,0:0:0:0:
478,222,50509,1,2,0:0:0:0:
370,83,50737,1,0,0:0:0:0:
370,83,50851,2,0,L|357:189,1,106.666666666667,10|2,2:1|0:0,0:0:0:0:
385,271,51195,1,2,0:0:0:0:
270,164,51423,1,0,0:0:0:0:
257,170,51537,5,0,0:0:0:0:
244,176,51652,2,0,P|240:202|242:228,1,53.3333333333333
194,317,51880,1,6,0:0:0:0:
179,322,51994,1,2,0:0:0:0:
163,322,52108,1,2,0:0:0:0:
139,301,52223,1,10,2:1:0:0:
67,164,52566,2,0,B|58:206|58:206|59:257,1,93.3333304850261,6|2,0:0|0:0,0:0:0:0:
155,217,52909,6,0,B|200:228|200:228|247:225,1,93.3333304850261,4|0,0:0|0:0,0:0:0:0:
207,131,53252,2,0,B|231:91|231:91|243:46,1,93.3333304850261,2|4,0:0|0:0,0:0:0:0:
126,67,53595,2,0,B|81:56|81:56|33:58,1,93.3333304850261,10|0,2:1|0:0,0:0:0:0:
59,257,53937,1,2,0:0:0:0:
218,25,54280,6,2,P|219:79|206:130,1,106.666666666667,6|2,0:0|0:0,0:0:0:0:
143,321,54623,2,2,P|141:267|154:216,1,106.666666666667,6|2,0:0|0:0,0:0:0:0:
121,117,54966,2,2,P|72:115|66:163,1,106.666666666667,10|0,2:1|0:0,0:0:0:0:
241,225,55309,2,2,P|279:259|340:259,1,106.666666666667,4|2,0:0|0:0,0:0:0:0:
429,339,55652,6,0,L|418:232,1,106.666666666667,4|2,0:0|0:0,0:0:0:0:
453,151,55995,1,2,0:0:0:0:
374,33,56223,1,4,0:0:0:0:
349,35,56337,1,10,2:1:0:0:
257,176,56681,1,2,0:0:0:0:
257,176,56795,2,0,P|284:178|310:176,1,53.3333333333333
184,49,57023,6,0,L|190:101,1,53.3333333333333
151,137,57252,2,0,L|144:189,1,53.3333333333333,0|6,0:0|0:0,0:0:0:0:
201,300,57595,1,2,0:0:0:0:
201,300,57709,1,10,2:1:0:0:
257,176,57937,1,2,0:0:0:0:
257,176,58051,1,6,0:0:0:0:
93,301,58280,1,2,0:0:0:0:
93,301,58394,5,4,0:0:0:0:
297,281,59080,1,10,2:1:0:0:
93,153,59766,2,0,P|41:150|3:185,1,106.666666666667,0|2,0:0|0:0,0:0:0:0:
67,225,60109,2,0,B|66:283|66:283|71:331,1,106.666666666667,6|2,0:0|0:0,0:0:0:0:
257,176,60452,2,0,B|258:118|258:118|253:69,1,106.666666666667,10|0,2:1|0:0,0:0:0:0:
257,176,60795,1,6,0:0:0:0:
373,44,61023,1,2,0:0:0:0:
373,44,61137,6,0,L|366:203,1,160,4|2,0:0|0:0,0:0:0:0:
251,68,61709,1,4,0:0:0:0:
251,68,61823,2,0,P|255:121|254:174,1,106.666666666667,10|2,2:1|0:0,0:0:0:0:
173,243,62166,1,2,0:0:0:0:
68,82,62395,1,0,0:0:0:0:
79,60,62509,5,0,0:0:0:0:
254,174,62737,1,8,0:0:0:0:
229,178,62851,1,6,0:0:0:0:
16,174,63080,1,10,0:0:0:0:
11,149,63194,1,10,2:1:0:0:
186,40,63423,1,0,0:0:0:0:
190,65,63537,1,6,0:0:0:0:
93,239,63766,1,2,0:0:0:0:
89,213,63880,6,0,L|155:205,1,66.6666666666667,6|2,0:0|0:0,0:0:0:0:
304,245,64109,2,0,L|238:253,1,66.6666666666667,2|2,0:0|0:0,0:0:0:0:
507,81,64566,6,0,L|434:72,1,73.3333355712891,6|2,0:0|0:0,0:0:0:0:
300,138,64795,2,0,L|373:147,1,73.3333355712891,2|2,0:0|0:0,0:0:0:0:
466,162,65252,6,0,P|476:220|468:279,1,119.999996337891,0|2,0:0|0:0,0:0:0:0:
304,245,65595,2,0,L|238:253,2,66.6666666666667,10|8|8,0:0|0:0|0:0,0:0:0:0:
200,161,65937,6,0,P|200:240|201:320,1,160,10|8,0:0|2:3,0:0:0:0:
154,383,66623,6,0,P|149:330|125:282,1,106.666666666667,4|0,0:0|0:0,0:0:0:0:
31,235,66966,2,0,P|32:193|45:128,1,106.666666666667,2|4,0:0|0:0,0:0:0:0:
124,27,67309,1,10,0:0:0:0:
200,161,67652,1,2,0:0:0:0:
261,70,67995,6,0,L|439:54,1,160,0|6,0:0|0:0,0:0:0:0:
512,143,68566,1,2,0:0:0:0:
512,143,68680,1,10,2:1:0:0:
451,283,68909,1,0,0:0:0:0:
450,283,69023,2,0,P|397:272|344:267,1,106.666666666667,6|0,0:0|0:0,0:0:0:0:
249,378,69366,6,0,P|262:326|247:276,1,106.666666666667,4|0,0:0|0:0,0:0:0:0:
187,183,69709,1,2,0:0:0:0:
115,326,69937,1,4,0:0:0:0:
115,326,70052,1,10,0:0:0:0:
23,261,70395,2,0,P|15:208|12:154,1,106.666666666667,2|0,0:0|0:0,0:0:0:0:
52,54,70737,5,0,0:0:0:0:
134,164,70966,1,2,0:0:0:0:
134,164,71080,1,6,0:0:0:0:
196,19,71423,1,10,2:1:0:0:
323,121,71652,1,0,0:0:0:0:
323,121,71766,2,0,P|273:104|222:117,1,106.666666666667,6|2,0:0|0:0,0:0:0:0:
267,199,72109,6,0,P|263:252|268:305,1,106.666666666667,4|0,0:0|0:0,0:0:0:0:
356,354,72452,2,0,L|460:333,1,106.666666666667,2|4,0:0|0:0,0:0:0:0:
512,217,72795,1,10,0:0:0:0:
372,256,73137,1,2,0:0:0:0:
267,199,73480,6,0,L|271:36,1,160,0|6,0:0|0:0,0:0:0:0:
368,147,74052,1,2,0:0:0:0:
368,147,74166,1,10,2:1:0:0:
173,222,74395,1,0,0:0:0:0:
173,222,74509,2,0,P|172:169|168:116,1,106.666666666667,4|0,0:0|0:0,0:0:0:0:
230,56,74852,6,0,P|166:98|99:63,1,160,4|2,0:0|0:0,0:0:0:0:
43,271,75423,1,4,0:0:0:0:
43,271,75537,2,0,P|118:254|180:300,1,160,10|2,0:0|0:0,0:0:0:0:
388,343,76108,1,0,0:0:0:0:
405,319,76223,6,0,L|300:334,1,106.666666666667,4|0,0:0|0:0,0:0:0:0:
74,286,76566,2,0,L|180:301,1,106.666666666667,4|0,0:0|0:0,0:0:0:0:
357,235,76909,2,0,B|307:218|307:218|254:228,1,106.666666666667,10|0,2:1|0:0,0:0:0:0:
179,300,77251,6,2,P|154:254|158:202,1,106.666666666667,4|0,0:0|0:0,2:1:0:0:
300,334,77595,6,0,P|352:327|405:318,1,106.666666666667,6|0,0:0|0:0,0:0:0:0:
496,303,77937,1,2,0:0:0:0:
404,176,78166,1,6,0:0:0:0:
404,176,78280,1,10,0:0:0:0:
283,254,78623,2,0,P|296:202|288:150,1,106.666666666667,2|0,0:0|0:0,0:0:0:0:
357,87,78966,6,0,L|193:107,1,160,0|6,0:0|0:0,0:0:0:0:
81,34,79537,1,0,0:0:0:0:
81,34,79652,1,10,2:1:0:0:
67,182,79880,1,0,0:0:0:0:
67,181,79995,2,0,P|66:236|69:287,1,106.666666666667,6|0,0:0|0:0,0:0:0:0:
200,213,80337,6,0,P|198:159|197:106,1,106.666666666667,4|0,0:0|0:0,0:0:0:0:
271,7,80680,1,2,0:0:0:0:
350,135,80909,1,6,0:0:0:0:
350,135,81023,2,0,P|403:138|456:139,1,106.666666666667,10|0,0:0|0:0,0:0:0:0:
419,256,81366,2,0,P|365:259|312:260,1,106.666666666667,2|0,0:0|0:0,0:0:0:0:
245,337,81709,6,0,P|192:339|146:366,1,106.666666666667,0|2,0:0|0:0,0:0:0:0:
61,291,82052,2,0,P|58:238|31:192,1,106.666666666667,6|2,0:0|0:0,0:0:0:0:
82,60,82395,1,10,2:1:0:0:
167,165,82623,1,2,0:0:0:0:
167,165,82737,1,2,0:0:0:0:
228,27,82966,1,0,0:0:0:0:
248,49,83080,6,0,L|354:58,1,106.666666666667,4|0,0:0|0:0,0:0:0:0:
272,151,83423,2,0,L|166:164,1,106.666666666667,2|4,0:0|0:0,0:0:0:0:
297,237,83766,1,10,0:0:0:0:
166,165,83994,1,0,0:0:0:0:
166,165,84108,1,2,0:0:0:0:
211,38,84452,5,2,0:0:0:0:
54,164,84680,1,0,0:0:0:0:
54,164,84795,1,6,0:0:0:0:
247,247,85023,1,2,0:0:0:0:
247,247,85137,2,0,L|352:234,1,106.666666666667,10|2,2:1|0:0,0:0:0:0:
434,189,85480,6,2,P|446:241|427:290,1,106.666666666667,6|0,0:0|0:0,2:1:0:0:
269,336,85823,6,0,P|302:335|334:346,1,66.6666666666667,4|0,0:0|0:0,0:0:0:0:
233,163,86052,2,0,P|201:174|168:173,1,66.6666666666667,8|2,0:0|0:0,0:0:0:0:
102,296,86280,2,0,P|71:285|38:286,1,66.6666666666667,8|0,0:0|0:0,0:0:0:0:
51,128,86509,6,0,L|58:194,1,66.6666666666667,10|0,0:0|0:0,0:0:0:0:
189,340,86737,2,0,L|202:271,1,66.6666666666667,8|2,0:0|0:0,0:0:0:0:
299,155,86966,2,0,L|232:163,1,66.6666666666667,8|0,0:0|0:0,0:0:0:0:
285,339,87195,6,0,P|350:344|408:312,1,133.333333333333,4|2,0:0|0:0,0:0:0:0:
452,171,87537,1,2,0:0:0:0:
433,149,87652,2,0,P|425:174|428:201,1,53.3333333333333,2|2,0:0|0:0,0:0:0:0:
487,56,87880,5,8,2:1:0:0:
360,89,88109,1,2,0:0:0:0:
360,89,88223,2,0,P|305:80|249:92,1,106.666666666667,8|0,2:3|0:0,0:0:0:0:
225,9,88566,6,0,B|234:77|234:77|228:109|228:109|235:167,1,160,4|2,0:0|0:0,0:0:0:0:
167,256,89252,1,8,0:0:0:0:
47,174,89480,1,2,0:0:0:0:
46,174,89595,2,0,P|94:153|147:154,1,106.666666666667,2|0,0:0|0:0,0:0:0:0:
142,176,89937,6,0,L|166:336,1,160,0|6,0:0|0:0,0:0:0:0:
263,384,90623,1,10,0:0:0:0:
421,267,90966,2,0,P|372:287|319:286,1,106.666666666667,6|0,0:0|0:0,0:0:0:0:
237,337,91309,6,0,B|221:255|221:255|215:213|240:183,1,160,4|2,0:0|0:0,0:0:0:0:
369,74,91880,1,2,0:0:0:0:
380,51,91995,2,0,P|379:104|377:157,1,106.666666666667,10|0,0:0|0:0,0:0:0:0:
280,146,92337,2,0,P|228:139|174:136,1,106.666666666667,2|0,0:0|0:0,0:0:0:0:
132,221,92680,6,0,P|78:223|34:261,1,106.666666666667,0|2,0:0|0:0,0:0:0:0:
110,307,93023,2,0,P|163:304|208:267,1,106.666666666667,6|0,0:0|0:0,0:0:0:0:
287,202,93366,6,0,L|298:308,1,106.666666666667,10|2,0:0|0:0,0:0:0:0:
384,360,93709,2,0,P|384:306|387:253,1,106.666666666667,6|0,0:0|0:0,0:0:0:0:
447,177,94052,6,0,P|434:102|362:78,1,160,4|2,0:0|0:0,0:0:0:0:
278,153,94737,1,10,0:0:0:0:
205,49,94966,1,0,0:0:0:0:
205,49,95080,2,0,L|85:58,1,106.666666666667,2|0,0:0|0:0,0:0:0:0:
82,40,95423,6,0,B|74:101|74:101|76:133|76:133|67:198,1,160,0|6,0:0|0:0,0:0:0:0:
142,288,96109,1,10,0:0:0:0:
322,209,96452,2,0,P|271:193|219:202,1,106.666666666667,6|0,0:0|0:0,0:0:0:0:
142,288,96795,6,0,L|119:129,1,160,4|2,0:0|0:0,0:0:0:0:
356,104,97366,1,4,0:0:0:0:
379,98,97480,2,0,P|376:151|378:204,1,106.666666666667,10|0,0:0|0:0,0:0:0:0:
466,230,97823,2,0,P|461:283|456:336,1,106.666666666667,2|0,0:0|0:0,0:0:0:0:
306,314,98166,6,0,L|360:309,1,53.3333333333333,4|0,0:0|0:0,0:0:0:0:
289,217,98395,2,0,L|236:212,1,53.3333333333333,8|0,0:0|0:0,0:0:0:0:
125,305,98623,2,0,L|179:300,1,53.3333333333333,8|0,0:0|0:0,0:0:0:0:
136,210,98852,5,10,0:0:0:0:
36,299,99080,1,0,0:0:0:0:
30,273,99195,1,6,0:0:0:0:
53,121,99423,1,0,0:0:0:0:
59,147,99538,5,6,0:0:0:0:
95,9,99880,1,6,0:0:0:0:
165,113,100223,2,0,P|210:106|257:117,1,93.3333304850261,2|0,2:3|0:0,0:0:0:0:
304,41,100566,2,0,P|258:33|212:44,1,93.3333304850261,2|0,2:3|0:0,0:0:0:0:
213,201,100909,5,0,0:0:0:0:
233,211,101023,1,8,0:0:0:0:
267,215,101137,1,8,0:0:0:0:
305,201,101252,1,10,0:0:0:0:
385,117,101480,1,8,0:0:0:0:
398,79,101595,6,0,P|400:137|402:187,1,106.666666666667,2|0,0:0|0:0,0:0:0:0:
454,308,101937,2,0,P|414:275|362:276,1,106.666666666667,6|0,0:0|0:0,0:0:0:0:
310,353,102280,6,2,L|150:338,1,160,6|2,0:0|0:0,0:0:0:0:
69,230,102852,1,6,0:0:0:0:
83,252,102966,2,0,P|83:198|82:145,1,106.666666666667,10|0,0:0|0:0,0:0:0:0:
150,74,103309,2,0,P|202:67|256:64,1,106.666666666667,2|0,0:0|0:0,0:0:0:0:
306,179,103652,6,0,P|254:162|200:183,1,106.666666666667,0|2,0:0|0:0,0:0:0:0:
255,252,103995,2,0,P|305:267|360:247,1,106.666666666667,6|0,0:0|0:0,0:0:0:0:
443,302,104337,6,0,L|449:195,1,106.666666666667,10|2,0:0|0:0,0:0:0:0:
381,129,104680,2,0,P|379:77|373:19,1,106.666666666667,6|2,0:0|0:0,0:0:0:0:
284,97,105023,6,0,P|214:127|155:79,1,160,4|2,0:0|0:0,0:0:0:0:
64,156,105595,1,6,0:0:0:0:
46,174,105709,2,0,P|48:227|53:280,1,106.666666666667,10|2,0:0|0:0,0:0:0:0:
140,334,106052,2,0,P|193:336|246:341,1,106.666666666667,2|0,0:0|0:0,0:0:0:0:
263,322,106395,6,0,P|332:291|391:339,1,160,2|6,0:0|0:0,0:0:0:0:
445,181,107080,2,0,P|391:183|338:188,1,106.666666666667,10|0,0:0|0:0,0:0:0:0:
268,250,107423,2,0,P|245:202|251:150,1,106.666666666667,6|0,0:0|0:0,0:0:0:0:
169,258,107766,6,0,B|70:281|70:281|17:257,1,160,4|2,0:0|0:0,0:0:0:0:
23,126,108337,1,4,0:0:0:0:
23,126,108452,1,10,0:0:0:0:
124,94,108795,1,2,0:0:0:0:
124,94,108909,2,0,P|151:95|177:98,1,53.3333333333333
269,185,109137,6,0,L|215:190,1,53.3333333333333,6|0,0:0|0:0,0:0:0:0:
289,58,109366,2,0,L|351:68,1,53.3333333333333,10|0,0:0|0:0,0:0:0:0:
415,150,109595,2,0,L|361:155,1,53.3333333333333,10|0,0:0|0:0,0:0:0:0:
436,63,109823,1,10,0:0:0:0:
263,49,110509,5,4,0:0:0:0:
280,233,110737,2,0,L|275:265,1,33.3333333333333,0|2,0:0|0:0,0:0:0:0:
230,158,111080,2,0,L|225:124,1,33.3333333333333,0|8,0:0|0:0,0:0:0:0:
159,236,111423,2,0,L|192:240,1,33.3333333333333
139,144,111766,1,0,0:0:0:0:
124,147,111880,1,0,0:0:0:0:
74,243,112109,1,0,0:0:0:0:
71,228,112223,1,4,0:0:0:0:
29,132,112452,1,2,0:0:0:0:
32,147,112566,1,8,0:0:0:0:
71,228,112909,6,0,L|150:220,1,79.9999975585938,4|0,0:0|0:0,0:0:0:0:
205,148,113252,1,4,0:0:0:0:
68,244,113595,2,0,L|147:236,1,79.9999975585938,2|0,0:0|0:0,0:0:0:0:
202,164,113938,1,8,0:0:0:0:
296,286,114280,2,0,L|375:293,1,79.9999975585938,2|0,0:0|0:0,0:0:0:0:
444,228,114623,1,8,0:0:0:0:
411,152,114966,1,8,0:0:0:0:
450,246,115309,1,8,0:0:0:0:
459,78,115652,1,6,0:0:0:0:
242,15,115995,6,0,L|239:56,1,33.3333333333333,6|0,0:0|0:0,0:0:0:0:
209,64,116223,2,0,L|212:105,1,33.3333333333333,0|2,0:0|0:0,0:0:0:0:
184,214,116680,1,8,0:0:0:0:
296,170,117023,1,2,0:0:0:0:
139,134,117252,1,0,0:0:0:0:
124,137,117366,1,0,0:0:0:0:
33,197,117595,1,0,0:0:0:0:
51,215,117709,1,4,0:0:0:0:
66,218,117823,1,0,0:0:0:0:
81,221,117937,1,0,0:0:0:0:
96,224,118052,1,8,0:0:0:0:
150,379,118395,6,0,L|137:299,1,79.9999975585938,4|0,0:0|0:0,0:0:0:0:
174,183,118737,1,4,0:0:0:0:
136,381,119080,2,0,L|123:301,1,79.9999975585938,0|4,0:0|0:0,0:0:0:0:
160,185,119422,1,8,0:0:0:0:
262,281,119766,2,0,L|341:268,1,79.9999975585938,2|4,0:0|0:0,0:0:0:0:
404,198,120109,1,4,0:0:0:0:
404,198,120452,1,0,0:0:0:0:
468,331,120795,6,0,L|388:342,1,79.9999975585938,8|0,0:0|0:0,0:0:0:0:
487,328,121137,1,4,0:0:0:0:
494,136,121480,5,4,0:0:0:0:
447,24,121709,1,0,0:0:0:0:
447,24,121823,1,2,0:0:0:0:
412,202,122052,1,4,0:0:0:0:
412,202,122166,1,10,2:1:0:0:
365,29,122395,1,0,0:0:0:0:
365,29,122509,1,2,0:0:0:0:
315,197,122737,1,0,0:0:0:0:
296,201,122851,1,0,0:0:0:0:
214,89,123080,1,0,0:0:0:0:
214,89,123195,1,6,0:0:0:0:
195,84,123309,1,0,0:0:0:0:
176,81,123423,1,0,0:0:0:0:
146,103,123537,1,10,2:1:0:0:
297,19,123880,6,0,L|187:-4,1,93.3333304850261,6|2,0:0|0:0,0:0:0:0:
131,121,124223,1,6,0:0:0:0:
287,29,124566,2,0,L|177:6,1,93.3333304850261,2|4,0:0|0:0,0:0:0:0:
121,131,124909,1,10,2:1:0:0:
216,229,125252,1,2,0:0:0:0:
322,253,125595,1,0,0:0:0:0:
153,313,125937,1,6,0:0:0:0:
186,137,126280,1,10,2:1:0:0:
252,334,126623,5,6,0:0:0:0:
326,205,126852,2,0,L|322:252,1,46.6666652425131,0|4,0:0|0:0,0:0:0:0:
246,43,127195,2,0,L|250:90,1,46.6666652425131,0|2,0:0|0:0,0:0:0:0:
397,121,127537,2,0,L|351:112,1,46.6666652425131,4|10,0:0|2:1,0:0:0:0:
182,196,127880,2,0,L|228:187,1,46.6666652425131,0|2,0:0|0:0,0:0:0:0:
248,63,128223,5,0,0:0:0:0:
249,89,128337,1,0,0:0:0:0:
326,204,128566,1,0,0:0:0:0:
324,230,128680,1,6,0:0:0:0:
152,202,128909,1,0,0:0:0:0:
182,196,129023,1,10,2:1:0:0:
318,297,129366,2,0,L|326:205,1,93.3333304850261,6|2,0:0|0:0,0:0:0:0:
223,295,129709,6,0,L|142:287,1,66.6666666666667,6|2,0:0|0:0,0:0:0:0:
12,345,129937,2,0,L|78:351,1,66.6666666666667,2|2,0:0|0:0,0:0:0:0:
62,205,130280,1,0,0:0:0:0:
39,224,130395,6,0,L|42:150,1,66.6666666666667,10|2,0:0|0:0,0:0:0:0:
118,24,130623,2,0,L|116:91,1,66.6666666666667,2|2,0:0|0:0,0:0:0:0:
166,199,130966,1,0,0:0:0:0:
185,215,131080,5,2,0:0:0:0:
257,111,131309,1,2,0:0:0:0:
276,128,131423,2,0,L|278:61,2,66.6666666666667,6|2|2,0:0|0:0|0:0,0:0:0:0:
328,252,131766,2,0,L|328:277,1,25,2|0,0:0|0:0,0:0:0:0:
477,165,132452,6,0,P|426:150|380:174,1,106.666666666667,4|0,0:0|0:0,0:0:0:0:
328,252,132795,2,0,P|274:256|221:251,1,106.666666666667,2|4,0:0|0:0,0:0:0:0:
164,132,133137,1,10,0:0:0:0:
108,291,133480,1,2,0:0:0:0:
36,212,133823,6,0,L|28:52,1,160,2|6,0:0|0:0,0:0:0:0:
164,132,134395,1,2,0:0:0:0:
164,132,134509,1,10,2:1:0:0:
108,291,134737,1,0,0:0:0:0:
108,291,134852,2,0,L|214:282,1,106.666666666667,6|0,0:0|0:0,0:0:0:0:
282,332,135195,6,0,P|268:280|275:227,1,106.666666666667,4|0,0:0|0:0,0:0:0:0:
373,248,135537,2,0,L|477:228,1,106.666666666667,2|6,0:0|0:0,0:0:0:0:
497,96,135880,1,10,0:0:0:0:
483,116,136223,2,0,P|429:112|376:110,1,106.666666666667,2|0,0:0|0:0,0:0:0:0:
258,125,136566,5,2,0:0:0:0:
153,170,136795,1,2,0:0:0:0:
149,145,136909,1,6,0:0:0:0:
291,220,137252,2,0,P|288:281|288:335,1,106.666666666667,10|0,2:1|0:0,0:0:0:0:
205,373,137595,2,0,P|156:353|104:362,1,106.666666666667,2|0,0:0|0:0,0:0:0:0:
7,354,137937,6,0,L|9:247,1,106.666666666667,4|0,0:0|0:0,0:0:0:0:
99,206,138280,2,0,P|101:152|113:100,1,106.666666666667,2|4,0:0|0:0,0:0:0:0:
218,20,138623,1,10,0:0:0:0:
262,161,138966,1,2,0:0:0:0:
367,179,139309,6,0,P|358:258|355:338,1,160,2|6,0:0|0:0,0:0:0:0:
488,259,139880,1,2,0:0:0:0:
488,259,139995,1,10,2:1:0:0:
414,100,140223,1,0,0:0:0:0:
414,100,140337,2,0,P|415:153|419:206,1,106.666666666667,6|0,0:0|0:0,0:0:0:0:
488,259,140680,6,0,P|419:224|356:267,1,160,4|2,0:0|0:0,0:0:0:0:
168,346,141252,1,4,0:0:0:0:
138,362,141366,2,0,P|140:282|135:202,1,160,10|2,0:0|0:0,0:0:0:0:
105,34,141937,1,0,0:0:0:0:
79,58,142052,6,0,L|184:43,1,106.666666666667,4|0,0:0|0:0,0:0:0:0:
409,100,142395,2,0,L|303:85,1,106.666666666667,4|0,0:0|0:0,0:0:0:0:
229,157,142737,2,0,L|176:165,2,53.3333333333333,6|2|2,0:0|0:0|0:0,0:0:0:0:
303,85,143080,6,2,P|328:130|325:183,1,106.666666666667,6|0,0:0|0:0,2:1:0:0:
345,281,143423,6,0,B|292:270|292:270|240:284,1,106.666666666667,4|0,0:0|0:0,0:0:0:0:
172,339,143766,1,2,0:0:0:0:
75,225,143995,1,6,0:0:0:0:
75,225,144109,1,10,0:0:0:0:
191,87,144452,2,0,P|139:79|91:101,1,106.666666666667,2|0,0:0|0:0,0:0:0:0:
153,174,144795,6,0,L|312:178,1,160,2|6,0:0|0:0,0:0:0:0:
421,72,145366,1,2,0:0:0:0:
421,72,145480,1,10,2:1:0:0:
453,222,145709,1,0,0:0:0:0:
453,222,145823,2,0,P|451:275|447:328,1,106.666666666667,6|0,0:0|0:0,0:0:0:0:
312,178,146166,6,0,P|313:231|317:284,1,106.666666666667,4|0,0:0|0:0,0:0:0:0:
250,361,146509,1,2,0:0:0:0:
113,257,146737,1,4,0:0:0:0:
113,257,146852,1,10,0:0:0:0:
152,75,147195,2,0,B|202:91|202:91|255:89,1,106.666666666667,2|0,0:0|0:0,0:0:0:0:
343,38,147537,6,0,P|354:89|341:140,1,106.666666666667,2|0,0:0|0:0,0:0:0:0:
228,186,147880,2,0,P|214:237|226:288,1,106.666666666667,6|0,0:0|0:0,0:0:0:0:
327,360,148223,1,10,2:1:0:0:
417,303,148452,1,2,0:0:0:0:
417,303,148566,1,6,0:0:0:0:
386,192,148795,1,0,0:0:0:0:
407,207,148909,6,0,L|529:191,1,106.666666666667,4|2,0:0|0:0,0:0:0:0:
416,106,149252,2,0,L|294:90,1,106.666666666667,2|4,0:0|0:0,0:0:0:0:
418,17,149595,1,10,0:0:0:0:
310,92,149823,1,0,0:0:0:0:
310,92,149937,1,2,0:0:0:0:
441,13,150280,5,2,0:0:0:0:
376,191,150509,1,0,0:0:0:0:
376,191,150623,1,6,0:0:0:0:
222,53,150852,1,2,0:0:0:0:
222,53,150966,2,0,P|171:37|120:50,1,106.666666666667,10|0,2:1|0:0,0:0:0:0:
169,137,151309,6,2,B|167:193|167:193|147:240,1,106.666666666667,4|0,0:0|0:0,2:1:0:0:
211,252,151652,6,0,P|179:241|146:238,1,66.6666666666667,4|0,0:0|0:0,0:0:0:0:
323,142,151880,2,0,P|291:152|258:155,1,66.6666666666667,8|2,0:0|0:0,0:0:0:0:
350,323,152109,2,0,P|316:325|285:336,1,66.6666666666667,8|0,0:0|0:0,0:0:0:0:
416,229,152337,6,0,L|422:162,1,66.6666666666667,10|0,0:0|0:0,0:0:0:0:
250,88,152566,2,0,L|257:154,1,66.6666666666667,8|2,0:0|0:0,0:0:0:0:
219,330,152795,2,0,L|285:336,1,66.6666666666667,2|0,0:0|0:0,0:0:0:0:
159,135,153023,6,0,P|112:90|49:101,1,133.333333333333,6|8,0:0|2:3,0:0:0:0:
38,236,153365,1,8,2:3:0:0:
38,236,153480,2,0,P|70:228|103:224,1,66.6666666666667,4|4,2:3|2:3,0:0:0:0:
271,245,153709,5,2,0:0:0:0:
188,330,154052,2,0,P|143:316|98:324,1,93.3333304850261,2|0,0:0|0:0,0:0:0:0:
22,359,154395,1,0,0:0:0:0:
433,312,164680,6,0,P|392:339|344:329,1,100
272,225,165366,1,2,0:0:0:0:
256,244,166052,2,0,P|206:245|156:253,1,100
32,287,166737,1,2,0:0:0:0:
47,307,167423,2,0,P|53:255|56:207,1,100
79,80,168109,6,0,P|143:49|196:96,1,150
269,199,168795,2,0,P|318:193|368:186,1,100
436,103,169480,1,2,0:0:0:0:
450,83,170166,6,0,P|454:132|453:182,1,100
417,332,170852,1,0,0:0:0:0:
481,281,171537,6,0,P|441:252|392:254,1,100
273,345,172223,1,2,0:0:0:0:
189,228,172909,6,0,P|148:200|99:202,1,100
122,284,173595,6,0,L|119:303,7,20
17,218,174280,6,0,L|15:193,7,17.4999994659424
131,115,174966,6,0,L|132:90,7,14.9999995422363
195,182,175652,6,0,B|215:189|215:189|239:187,1,44.999998626709
316,151,175995,6,0,B|321:115|321:115|316:77,1,75
424,49,176337,5,0,0:0:0:0:
424,49,176423,2,0,L|416:108,1,59.9999981689454
460,219,176595,1,0,0:0:0:0:
460,219,176680,2,0,L|402:200,1,59.9999981689454
301,307,176852,2,0,L|358:288,1,59.9999981689454
315,76,177023,6,0,P|233:66|216:146,1,179.999994506836
265,234,177366,2,0,P|274:152|194:135,1,179.999994506836
180,288,177709,6,0,L|194:361,2,59.9999981689454
25,239,177966,1,0,0:0:0:0:
25,239,178052,2,0,L|84:243,1,59.9999981689454
194,135,178223,2,0,L|132:156,1,59.9999981689454
0,110,178395,6,0,B|30:89|46:58|46:58|71:116|115:142,1,179.999994506836
293,122,178737,2,0,P|247:43|161:37,1,179.999994506836
263,300,179080,5,0,0:0:0:0:
263,300,179166,2,0,L|320:282,1,59.9999981689454
506,224,179337,1,0,0:0:0:0:
506,224,179423,2,0,L|446:215,1,59.9999981689454
411,384,179595,1,0,0:0:0:0:
227,203,179766,6,0,L|343:172,1,119.999996337891
489,119,180023,1,0,0:0:0:0:
489,119,180109,2,0,L|429:110,1,59.9999981689454
391,295,180280,1,0,0:0:0:0:
234,97,180452,6,0,L|291:79,2,59.9999981689454
472,14,180709,1,0,0:0:0:0:
472,14,180795,2,0,L|412:5,1,59.9999981689454
369,203,180966,1,0,0:0:0:0:
135,67,181137,1,0,0:0:0:0:
213,290,181480,6,0,L|212:262,6,27.5000008392334
31,168,181823,6,0,L|94:155,2,64.9999970245363
326,190,182080,1,0,0:0:0:0:
326,190,182166,2,0,L|262:177,1,64.9999970245363
118,317,182337,2,0,L|115:252,1,64.9999970245363
296,64,182509,6,0,P|211:38|184:122,1,194.999991073609
437,247,182852,2,0,P|409:163|325:189,1,194.999991073609
278,331,183195,5,0,0:0:0:0:
278,331,183280,2,0,L|341:319,1,64.9999970245363
459,140,183452,1,0,0:0:0:0:
459,140,183537,2,0,L|394:128,1,64.9999970245363
475,338,183709,2,0,L|462:274,1,64.9999970245363
212,180,183880,6,0,B|196:158|184:123|184:123|171:254,1,194.999991073609
278,331,184223,2,0,B|369:313|369:313|400:215,1,194.999991073609
334,49,184566,6,0,L|316:111,2,64.9999970245363
239,201,184823,1,0,0:0:0:0:
239,201,184909,2,0,L|175:215,1,64.9999970245363
129,77,185080,2,0,L|192:91,1,64.9999970245363
25,203,185252,6,0,L|42:265,2,64.9999970245363
120,355,185509,1,0,0:0:0:0:
120,355,185595,2,0,L|183:369,1,64.9999970245363
230,231,185766,2,0,L|166:245,1,64.9999970245363
421,318,185937,6,0,P|423:350|437:380,1,64.9999970245363
324,345,186109,1,0,0:0:0:0:
320,302,186195,1,0,0:0:0:0:
334,261,186281,1,0,0:0:0:0:
364,231,186366,1,0,0:0:0:0:
405,216,186452,1,0,0:0:0:0:
448,221,186538,1,0,0:0:0:0:
485,243,186623,6,0,L|474:194,3,50
398,112,186966,2,0,P|400:82|394:57,3,55.0000016784668
334,261,187309,5,0,0:0:0:0:
334,261,187395,2,0,L|270:248,1,64.9999970245363
195,134,187566,1,0,0:0:0:0:
195,134,187652,2,0,L|259:121,1,64.9999970245363
394,57,187823,2,0,L|380:120,1,64.9999970245363
362,336,187995,6,0,P|366:248|453:251,1,194.999991073609
496,156,188337,2,0,P|419:127|339:142,1,165.000005035401
206,344,188680,5,0,0:0:0:0:
206,344,188766,2,0,L|137:327,1,69.9999978637696
89,127,188937,1,0,0:0:0:0:
89,127,189023,2,0,L|157:110,1,69.9999978637696
270,253,189195,2,0,L|281:184,1,69.9999978637696
24,192,189366,6,0,B|27:219|44:232|44:232|41:260|41:260|98:219|191:229,1,209.999993591309
281,184,189709,2,0,B|250:123|253:81|253:81|213:104|156:109,1,209.999993591309
142,332,190052,5,0,0:0:0:0:
142,332,190137,2,0,L|211:349,1,69.9999978637696
348,167,190309,1,0,0:0:0:0:
348,167,190394,2,0,L|279:184,1,69.9999978637696
334,367,190566,1,0,0:0:0:0:
33,259,190737,6,0,L|169:226,1,139.999995727539
224,93,190995,1,0,0:0:0:0:
224,93,191080,2,0,L|155:110,1,69.9999978637696
305,276,191252,1,0,0:0:0:0:
49,129,191423,6,0,L|32:60,2,69.9999978637696
159,222,191680,1,0,0:0:0:0:
159,222,191766,2,0,L|226:205,1,69.9999978637696
296,12,191937,1,0,0:0:0:0:
380,210,192109,5,0,0:0:0:0:
240,91,192280,1,0,0:0:0:0:
305,276,192452,5,0,0:0:0:0:
333,98,192623,2,0,L|329:131,2,32.4999985122681
401,312,192795,6,0,L|410:376,2,64.9999970245363
216,268,193052,1,0,0:0:0:0:
216,268,193137,2,0,L|226:204,1,64.9999970245363
439,138,193309,2,0,L|451:203,1,64.9999970245363
300,340,193480,5,0,0:0:0:0:
182,111,193652,1,0,0:0:0:0:
349,222,193823,2,0,P|284:170|262:249,1,194.999991073609
171,333,194166,6,0,L|108:316,2,64.9999970245363
28,147,194423,1,0,0:0:0:0:
28,147,194509,2,0,L|90:130,1,64.9999970245363
296,84,194680,2,0,L|281:147,1,64.9999970245363
336,225,194852,6,0,P|271:173|249:252,1,194.999991073609
409,371,195195,2,0,P|420:332|442:299,1,80
471,193,195366,5,0,0:0:0:0:
469,152,195452,1,0,0:0:0:0:
467,116,195537,2,0,L|397:118,1,69.9999978637696
246,38,195709,2,0,L|315:44,1,69.9999978637696
247,251,195880,2,0,L|179:269,1,69.9999978637696
161,136,196052,5,0,0:0:0:0:
117,110,196137,1,0,0:0:0:0:
76,87,196223,1,0,0:0:0:0:
46,121,196310,1,0,0:0:0:0:
18,156,196395,2,0,L|37:224,1,69.9999978637696
226,355,196566,2,0,L|242:286,1,69.9999978637696
274,156,196737,5,0,0:0:0:0:
274,156,196823,1,0,0:0:0:0:
274,156,196909,2,0,P|306:153|335:139,1,64.9999970245363
485,177,197080,2,0,P|456:163|424:161,1,64.9999970245363
318,298,197252,2,0,P|331:269|334:237,1,64.9999970245363
301,3,197423,2,0,P|287:31|284:63,1,64.9999970245363
196,212,197595,5,0,0:0:0:0:
174,218,197766,1,0,0:0:0:0:
81,214,197937,1,0,0:0:0:0:
46,122,198109,1,0,0:0:0:0:
274,156,198280,6,0,P|293:216|270:275,1,129.999994049073
270,275,198537,1,0,0:0:0:0:
270,275,198623,1,0,0:0:0:0:
418,356,198795,1,0,0:0:0:0:
418,356,198880,1,0,0:0:0:0:
418,355,198966,2,0,P|412:324|410:291,1,64.9999970245363
472,178,199137,2,0,P|440:172|407:170,1,64.9999970245363
274,156,199309,2,0,P|292:66|383:56,1,194.999991073609
370,69,199652,6,0,L|239:82,1,129.999994049073
172,162,199909,2,0,L|42:149,1,129.999994049073
84,57,200166,1,0,0:0:0:0:
0,261,200337,6,0,P|59:252|130:327,1,165.000005035401
116,336,200680,2,0,L|226:340,1,110.000003356934
326,219,201023,6,0,P|321:283|357:335,1,129.999994049073
356,335,201280,1,0,0:0:0:0:
356,335,201366,1,0,0:0:0:0:
205,268,201537,2,0,P|237:265|269:268,1,64.9999970245363
443,141,201709,2,0,L|378:139,1,64.9999970245363
293,33,201880,1,0,0:0:0:0:
293,33,201966,1,0,0:0:0:0:
293,33,202052,2,0,P|291:61|292:98,1,64.9999970245363
182,176,202223,2,0,P|214:174|246:177,1,64.9999970245363
188,73,202395,6,0,P|134:40|78:66,1,129.999994049073
7,143,202652,2,0,L|38:278,1,129.999994049073
128,353,202909,1,0,0:0:0:0:
128,353,202995,1,0,0:0:0:0:
128,353,203080,2,0,B|137:283,1,64.9999970245363
219,258,203252,1,0,0:0:0:0:
249,91,203423,6,0,B|241:133|241:133|246:177,2,86.6666626993817
409,19,203766,6,0,P|432:78|413:138,1,129.999994049073
413,137,204023,1,0,0:0:0:0:
413,137,204109,1,0,0:0:0:0:
314,83,204281,1,0,0:0:0:0:
314,83,204366,1,0,0:0:0:0:
313,83,204452,2,0,P|282:89|249:91,1,64.9999970245363
173,202,204623,2,0,P|205:203|237:209,1,64.9999970245363
148,49,204795,2,0,P|115:50|83:56,1,64.9999970245363
55,230,204966,2,0,P|55:197|63:165,1,64.9999970245363
115,326,205137,6,0,B|243:307,1,129.999994049073
321,230,205395,2,0,L|450:237,1,129.999994049073
457,338,205652,2,0,P|424:334|392:336,1,64.9999970245363
432,131,205823,6,0,P|424:58|317:75,1,194.999991073609
330,82,206166,2,0,B|266:98|266:98|202:90,1,129.999994049073
49,67,206509,5,0,0:0:0:0:
44,83,206595,2,0,P|44:115|46:147,1,64.9999970245363
140,189,206766,1,0,0:0:0:0:
145,205,206852,2,0,P|144:237|142:269,1,64.9999970245363
32,341,207023,1,0,0:0:0:0:
32,341,207109,1,0,0:0:0:0:
32,340,207195,6,0,P|33:307|38:275,1,64.9999970245363
140,189,207452,1,0,0:0:0:0:
156,201,207537,2,0,P|191:202|220:203,1,64.9999970245363
292,105,207709,2,0,P|327:104|356:102,1,64.9999970245363
364,328,207880,6,0,B|331:265|331:265|321:207,1,129.999994049073
224,20,208137,2,0,B|192:48|192:48|176:83|176:83|140:117,1,129.999994049073
63,204,208395,1,0,0:0:0:0:
38,96,208566,5,0,0:0:0:0:
36,70,208737,1,0,0:0:0:0:
50,48,208909,1,0,0:0:0:0:
74,40,209080,1,0,0:0:0:0:
244,137,209252,6,0,L|356:128,1,89.9999972534181
395,168,209509,2,0,L|305:175,1,89.9999972534181
174,188,209766,1,0,0:0:0:0:
172,47,209937,1,0,0:0:0:0:
118,122,210109,1,0,0:0:0:0:
166,198,210280,1,0,0:0:0:0:
137,318,210623,6,0,L|268:305,1,129.999994049073
335,225,210880,2,0,L|465:238,1,129.999994049073
423,330,211137,1,0,0:0:0:0:
507,126,211309,6,0,P|448:135|377:60,1,165.000005035401
391,51,211652,2,0,L|281:47,1,110.000003356934
100,101,211995,6,0,P|76:159|98:218,1,129.999994049073
98,218,212252,1,0,0:0:0:0:
98,218,212337,1,0,0:0:0:0:
247,163,212509,1,0,0:0:0:0:
247,163,212595,1,0,0:0:0:0:
247,163,212680,2,0,P|215:157|182:158,1,64.9999970245363
134,349,212852,2,0,P|101:348|69:354,1,64.9999970245363
22,262,213023,2,0,P|15:230|16:197,1,64.9999970245363
219,251,213195,2,0,L|228:321,1,64.9999970245363
360,189,213366,6,0,P|416:164|464:204,1,129.999994049073
464,204,213623,1,0,0:0:0:0:
464,204,213709,1,0,0:0:0:0:
349,351,213880,1,0,0:0:0:0:
349,351,213966,1,0,0:0:0:0:
349,351,214052,2,0,L|337:287,1,64.9999970245363
248,101,214223,1,0,0:0:0:0:
261,81,214309,2,0,L|271:145,1,64.9999970245363
209,296,214566,1,0,0:0:0:0:
196,316,214652,1,0,0:0:0:0:
183,337,214737,6,0,P|146:287|86:301,1,129.999994049073
86,301,214995,1,0,0:0:0:0:
86,301,215080,1,0,0:0:0:0:
34,194,215252,1,0,0:0:0:0:
34,194,215337,1,0,0:0:0:0:
34,193,215423,2,0,P|35:160|34:128,1,64.9999970245363
167,38,215595,2,0,P|134:36|102:37,1,64.9999970245363
179,153,215766,2,0,P|273:174|306:82,1,194.999991073609
299,108,216109,6,0,L|428:120,1,129.999994049073
389,230,216366,2,0,L|401:359,1,129.999994049073
503,309,216623,2,0,P|502:277|506:245,1,64.9999970245363
294,291,216795,6,0,B|224:308|224:308|180:299|180:299|134:315,1,165.000005035401
117,335,217137,2,0,P|108:271|60:230,1,129.999994049073
148,78,217480,6,0,B|194:48|194:48|269:54,1,129.999994049073
486,147,217737,2,0,L|358:170,1,129.999994049073
245,343,217995,2,0,L|231:279,1,64.9999970245363
375,48,218166,6,0,B|388:101|388:101|357:169,1,129.999994049073
231,279,218423,2,0,L|103:255,1,129.999994049073
148,78,218680,2,0,L|211:64,1,64.9999970245363
418,322,218852,6,0,P|355:311|301:344,1,129.999994049073
103,255,219109,2,0,P|113:192|80:138,1,129.999994049073
311,34,219366,2,0,L|374:47,1,64.9999970245363
242,245,219537,5,0,0:0:0:0:
200,195,219709,1,0,0:0:0:0:
235,140,219880,1,0,0:0:0:0:
298,156,220052,1,0,0:0:0:0:
302,221,220223,1,0,0:0:0:0:
