osu file format v14

[General]
AudioFilename: audio.mp3
AudioLeadIn: 0
PreviewTime: 49804
Countdown: 1
SampleSet: Normal
StackLeniency: 0.3
Mode: 0
LetterboxInBreaks: 0
WidescreenStoryboard: 0

[Editor]
Bookmarks: 70004,104004
DistanceSpacing: 0.6
BeatDivisor: 8
GridSize: 4
TimelineZoom: 2.7

[Metadata]
Title:Robotic Girl (feat. Nicamoq) (curryrice remix)
TitleUnicode:ロボティックガール (feat. Nicamoq) (curryrice remix)
Artist:Yunomi
ArtistUnicode:ゆのみ
Creator:Lokidoki
Version:robottadansu
Source:
Tags:pop future kawaii j-pop
BeatmapID:1430485
BeatmapSetID:676330

[Difficulty]
HPDrainRate:4
CircleSize:4
OverallDifficulty:8
ApproachRate:9.2
SliderMultiplier:1.4
SliderTickRate:1

[Events]
//Background and Video events
0,0,"63101904_p0.jpg",0,0
//Break Periods
//Storyboard Layer 0 (Background)
//Storyboard Layer 1 (Fail)
//Storyboard Layer 2 (Pass)
//Storyboard Layer 3 (Foreground)
//Storyboard Sound Samples

[TimingPoints]
4004,400,4,1,0,10,1,0
25604,400,4,1,0,10,1,0
25604,-25,4,1,0,10,0,0
38404,-133.333333333333,4,1,0,10,0,0
38804,-25,4,1,0,10,0,0
39004,-133.333333333333,4,1,0,10,0,0
39204,-25,4,1,0,10,0,0
40004,-133.333333333333,4,1,0,10,0,0
40404,-25,4,1,0,10,0,0
41604,-133.333333333333,4,1,0,10,0,0
42004,-25,4,1,0,10,0,0
42204,-133.333333333333,4,1,0,10,0,0
42404,-25,4,1,0,10,0,0
43204,-133.333333333333,4,1,0,10,0,0
43604,-25,4,1,0,10,0,0
43804,-133.333333333333,4,1,0,10,0,0
44004,-25,4,1,0,10,0,0
44804,-25,4,1,0,10,0,0
49904,-400,4,1,0,10,0,0
50604,-50,4,1,0,10,0,0
50804,-25,4,1,0,10,0,0
51604,-20,4,1,0,10,0,0
52004,-16.6666666666667,4,1,0,10,0,0
52404,-14.2857142857143,4,1,0,10,0,0
52804,-25,4,1,0,10,0,0
54804,-20,4,1,0,10,0,0
55204,-16.6666666666667,4,1,0,10,0,0
55604,-14.2857142857143,4,1,0,10,0,0
56004,-25,4,1,0,10,0,0
58004,-20,4,1,0,10,0,0
58404,-16.6666666666667,4,1,0,10,0,0
58804,-14.2857142857143,4,1,0,10,0,0
59204,-25,4,1,0,10,0,0
61204,-20,4,1,0,10,0,0
61604,-16.6666666666667,4,1,0,10,0,0
62004,-14.2857142857143,4,1,0,10,0,0
62404,-25,4,1,0,10,0,0
65204,-400,4,1,0,10,0,0
65404,-50,4,1,0,10,0,0
65604,-25,4,1,0,10,0,0
67304,-25,4,1,0,10,0,0
67604,-20,4,1,0,10,0,0
68004,-16.6666666666667,4,1,0,10,0,0
68404,-14.2857142857143,4,1,0,10,0,0
68804,-25,4,1,0,10,0,0
70804,-20,4,1,0,10,0,0
71204,-16.6666666666667,4,1,0,10,0,0
71604,-14.2857142857143,4,1,0,10,0,0
72004,-25,4,1,0,10,0,0
74004,-20,4,1,0,10,0,0
74404,-16.6666666666667,4,1,0,10,0,0
74804,-14.2857142857143,4,1,0,10,0,0
75204,-25,4,1,0,10,0,0
78204,-100,4,1,0,10,0,0
78404,-25,4,1,0,10,0,0
88404,-100,4,1,0,10,0,0
88804,-25,4,1,0,10,0,0
89604,-66.6666666666667,4,1,0,10,0,0
102904,-400,4,1,0,5,0,0
103504,-200,4,1,0,5,0,0

[HitObjects]
40,100,4004,5,0,0:0:0:0:
68,172,4804,1,0,0:0:0:0:
144,144,5204,1,0,0:0:0:0:
56,168,5604,5,0,0:0:0:0:
152,148,6004,2,0,L|176:140,6,17.5
136,176,6404,6,0,P|132:216|140:252,1,70
280,296,6804,2,0,P|284:256|276:220,1,70
232,116,7204,1,0,0:0:0:0:
192,352,7604,1,0,0:0:0:0:
280,296,7804,1,0,0:0:0:0:
188,360,8004,6,0,P|148:364|112:360,1,70
128,272,8404,2,0,P|88:265|54:252,2,70
216,224,9204,1,0,0:0:0:0:
168,72,9604,5,0,0:0:0:0:
184,64,10004,1,0,0:0:0:0:
167,65,10404,5,0,0:0:0:0:
184,70,10804,1,0,0:0:0:0:
172,60,11204,5,0,0:0:0:0:
220,280,12404,5,0,0:0:0:0:
220,280,12504,1,0,0:0:0:0:
220,280,12604,1,0,0:0:0:0:
220,280,12704,1,0,0:0:0:0:
212,349,12804,6,0,L|220:277,1,70
304,232,13104,1,0,0:0:0:0:
304,232,13204,2,0,L|300:160,1,70
168,48,13604,6,0,P|160:88|184:144,1,70
216,192,13904,1,0,0:0:0:0:
216,192,14004,2,0,B|184:188|184:188|116:196,1,70
80,356,14404,6,0,P|84:312|72:264,1,70
215,261,14804,2,0,P|211:217|223:169,1,70
104,116,15204,2,0,P|108:81|104:46,1,70
116,144,15604,1,0,0:0:0:0:
32,208,15804,5,0,0:0:0:0:
144,136,16004,1,0,0:0:0:0:
144,136,16104,2,0,L|184:140,1,35
276,208,16404,2,0,L|352:204,1,70
452,256,16804,6,0,P|464:224|464:180,1,70
388,76,17104,1,0,0:0:0:0:
388,76,17204,2,0,P|389:110|401:143,1,70
324,288,17604,6,0,P|332:248|324:216,1,70
256,136,18004,1,0,0:0:0:0:
312,312,18204,1,0,0:0:0:0:
400,128,18404,2,0,P|412:72|400:32,1,70
300,8,18704,1,0,0:0:0:0:
300,8,18804,2,0,P|288:64|300:104,1,70
324,208,19204,6,0,P|272:188|232:188,1,70
176,60,19604,2,0,P|228:80|268:80,1,70
389,186,20004,2,0,P|337:206|297:206,1,70
404,160,20404,1,0,0:0:0:0:
448,296,20604,5,0,0:0:0:0:
496,136,20804,1,0,0:0:0:0:
496,136,20904,2,0,L|504:92,1,35
352,20,21204,2,0,L|360:92,1,70
248,204,21604,2,0,L|252:128,1,70
160,76,21904,5,0,0:0:0:0:
160,76,22004,2,0,L|164:148,1,70
84,280,22404,2,0,P|128:268|172:276,1,70
60,312,22804,1,0,0:0:0:0:
228,236,23004,5,0,0:0:0:0:
16,208,23204,2,0,P|8:152|16:120,1,70
112,68,23604,2,0,P|120:124|112:156,1,70
117,136,24004,6,0,P|109:192|117:224,1,70
213,276,24404,2,0,P|221:220|213:188,1,70
128,332,24804,1,0,0:0:0:0:
112,68,25204,1,0,0:0:0:0:
112,68,25604,6,0,P|228:52|400:84,1,280
280,252,26004,2,0,P|164:268|-8:236,1,280
419,112,26404,1,0,0:0:0:0:
419,112,26504,2,0,P|351:92|251:92,1,140
143,228,26704,2,0,P|211:248|311:248,1,140
76,288,27004,6,0,B|36:200|64:168|64:168|48:152|48:152|112:88|24:-28,1,280
156,4,27304,1,0,0:0:0:0:
156,4,27404,2,0,P|200:24|316:16,1,140
384,184,27604,2,0,P|312:160|200:176,1,140
226,0,27804,2,0,P|260:14|372:47,1,140
379,228,28004,2,0,P|319:181|208:157,1,140
104,24,28304,5,0,0:0:0:0:
104,24,28404,2,0,B|132:92|96:112|96:112|112:128|112:128|76:196|128:304,1,280
284,368,28804,6,0,P|308:288|268:100,1,280
452,288,29204,2,0,P|428:208|468:20,1,280
184,316,29604,2,0,P|200:256|184:164,1,140
60,116,29804,1,0,0:0:0:0:
60,116,29904,2,0,P|44:176|60:268,1,140
324,156,30204,1,0,0:0:0:0:
192,80,30404,6,0,B|152:88|108:72|108:72|60:52|20:44|-16:76|0:124|24:144|56:140|64:104,1,280
120,176,30704,1,0,0:0:0:0:
120,176,30804,2,0,P|124:228|116:320,1,140
236,384,31004,2,0,P|232:332|240:240,1,140
124,120,31204,2,0,P|136:216|-16:308,1,280
40,212,31504,5,0,0:0:0:0:
40,212,31604,2,0,B|128:224|168:208|168:208|180:192|180:192|264:172|328:192,1,280
472,168,32004,6,0,P|424:192|376:304,1,140
472,358,32204,2,0,P|424:334|376:222,1,140
488,272,32404,2,0,P|360:252|192:300,1,280
132,348,32704,1,0,0:0:0:0:
132,348,32804,2,0,P|136:276|88:364,1,280
216,376,33104,2,0,P|232:288|180:196,1,140
160,144,33304,1,0,0:0:0:0:
160,144,33404,2,0,P|120:156|8:136,1,140
96,72,33604,6,0,B|148:80|208:48|208:48|220:76|220:76|280:40|392:60,1,280
476,144,34004,2,0,P|408:128|272:316,1,280
408,356,34304,1,0,0:0:0:0:
408,356,34404,2,0,P|412:292|356:176,1,140
252,128,34604,1,0,0:0:0:0:
276,272,34704,1,0,0:0:0:0:
340,96,34804,2,0,P|288:52|188:60,1,140
218,47,35004,2,0,P|270:91|370:83,1,140
464,24,35204,6,0,B|428:80|448:156|448:156|488:232|448:296,1,280
353,363,35604,2,0,B|315:302|355:226|355:226|375:150|339:94,1,280
220,32,36004,2,0,P|204:120|236:204,1,140
104,240,36204,1,0,0:0:0:0:
104,240,36304,2,0,P|120:152|88:68,1,140
108,104,36504,2,0,P|92:192|124:276,1,140
214,302,36804,6,0,P|230:250|210:158,1,140
213,32,37004,2,0,P|198:99|215:167,1,140
312,236,37204,2,0,P|324:284|336:376,2,140
348,160,37504,1,0,0:0:0:0:
360,151,37604,2,0,P|433:136|521:156,1,140
508,160,37804,1,0,0:0:0:0:
320,216,37904,2,0,P|288:172|288:128,2,70
384,268,38104,1,0,0:0:0:0:
328,88,38204,6,0,P|248:84|200:132,1,140
128,288,38404,5,0,0:0:0:0:
132,272,38504,1,0,0:0:0:0:
132,256,38604,1,0,0:0:0:0:
128,240,38704,1,0,0:0:0:0:
120,224,38804,2,0,P|108:188|152:224,1,140
256,272,39004,5,0,0:0:0:0:
260,256,39104,1,0,0:0:0:0:
260,236,39204,2,0,P|256:296|312:364,1,140
352,212,39404,1,0,0:0:0:0:
352,200,39504,1,0,0:0:0:0:
344,188,39604,2,0,P|280:152|188:164,1,140
86,118,39804,2,0,P|150:154|242:142,1,140
56,48,40004,5,0,0:0:0:0:
40,56,40104,1,0,0:0:0:0:
28,68,40204,1,0,0:0:0:0:
20,80,40304,1,0,0:0:0:0:
12,92,40404,2,0,P|8:136|68:244,1,140
168,312,40604,5,0,0:0:0:0:
160,300,40704,1,0,0:0:0:0:
148,292,40804,2,0,P|76:288|-4:340,1,140
215,222,41004,5,0,0:0:0:0:
227,230,41104,1,0,0:0:0:0:
235,242,41204,2,0,P|186:188|93:168,1,140
12,92,41404,2,0,P|60:145|153:165,1,140
284,96,41604,5,0,0:0:0:0:
268,92,41704,1,0,0:0:0:0:
252,92,41804,1,0,0:0:0:0:
236,96,41904,1,0,0:0:0:0:
216,104,42004,2,0,P|296:96|396:172,1,140
420,232,42204,5,0,0:0:0:0:
404,224,42304,1,0,0:0:0:0:
388,220,42404,2,0,P|308:212|208:288,1,140
156,328,42604,5,0,0:0:0:0:
164,312,42704,1,0,0:0:0:0:
172,296,42804,2,0,P|172:216|92:136,1,140
110,37,43004,2,0,P|110:117|190:197,1,140
264,264,43204,5,0,0:0:0:0:
276,256,43304,1,0,0:0:0:0:
292,252,43404,1,0,0:0:0:0:
308,252,43504,1,0,0:0:0:0:
328,256,43604,2,0,P|344:192|300:92,1,140
448,28,43804,5,0,0:0:0:0:
448,44,43904,1,0,0:0:0:0:
444,64,44004,2,0,P|424:130|440:197,1,140
484,316,44204,5,0,0:0:0:0:
468,304,44304,1,0,0:0:0:0:
448,292,44404,2,0,P|376:276|304:276,1,140
172,258,44604,2,0,P|244:274|316:274,1,140
424,208,44804,5,0,0:0:0:0:
300,168,45004,1,0,0:0:0:0:
408,312,45204,5,0,0:0:0:0:
508,284,45404,1,0,0:0:0:0:
380,132,45604,5,0,0:0:0:0:
244,284,45804,1,0,0:0:0:0:
256,304,45904,1,0,0:0:0:0:
232,384,46004,1,0,0:0:0:0:
268,320,46204,1,0,0:0:0:0:
112,292,46404,5,0,0:0:0:0:
336,248,46604,1,0,0:0:0:0:
4,184,46804,5,0,0:0:0:0:
220,216,47004,1,0,0:0:0:0:
4,356,47204,5,0,0:0:0:0:
320,272,47404,1,0,0:0:0:0:
300,264,47504,1,0,0:0:0:0:
408,252,47604,1,0,0:0:0:0:
280,256,47804,1,0,0:0:0:0:
144,119,48004,6,0,P|109:122|75:132,1,70
144,119,48104,6,0,P|190:103|230:100,1,70
144,119,48204,6,0,P|109:119|74:126,1,70
144,119,48304,6,0,P|191:107|231:107,1,70
144,119,48404,6,0,P|109:116|74:120,1,70
144,119,48504,6,0,P|192:111|231:115,1,70
144,119,48604,6,0,P|109:113|74:113,1,70
144,119,48704,6,0,P|192:115|231:122,1,70
144,119,48804,6,0,P|110:110|75:107,1,70
144,119,48904,6,0,P|192:119|231:130,1,70
144,119,49004,6,0,P|111:107|76:101,1,70
144,119,49104,6,0,P|192:123|229:138,1,70
144,119,49204,6,0,P|112:104|78:96,1,70
144,119,49304,6,0,P|191:128|227:145,1,70
144,119,49404,6,0,P|113:101|80:90,1,70
144,119,49504,6,0,P|190:132|225:152,1,70
143,118,49904,6,0,L|140:173,1,52.5
176,216,50604,6,0,P|144:192|96:196,1,70
176,216,50804,6,0,P|200:240|300:264,1,140
376,324,51004,5,0,0:0:0:0:
396,258,51104,1,0,0:0:0:0:
300,263,51204,6,0,B|259:208|351:92|351:92|327:144|331:220,1,280
300,263,51604,6,0,B|259:208|352:76|352:76|327:144|331:220,1,350
300,263,52004,6,0,B|260:180|360:48|360:48|312:144|332:232,1,420.000016021729
300,263,52404,6,0,B|296:160|376:36|376:36|360:184|392:256|392:256|356:228|348:200,1,490.000004673004
412,376,52804,6,0,P|288:332|140:372,1,280
68,304,53104,1,0,0:0:0:0:
68,304,53204,2,0,P|80:244|32:156,1,140
176,76,53404,2,0,P|156:136|184:204,1,140
448,166,53604,2,0,B|368:134|320:174|320:174|268:226|156:198,1,280
240,132,53904,1,0,0:0:0:0:
384,232,54004,1,0,0:0:0:0:
384,232,54104,2,0,P|396:276|384:368,1,140
472,152,54304,1,0,0:0:0:0:
464,168,54404,6,0,B|344:112|288:216|288:216|328:128|296:84,1,280
464,168,54804,6,0,B|344:112|288:216|288:216|332:124|292:64,1,350
464,168,55204,6,0,B|344:112|288:216|288:216|340:104|272:40|272:40|308:40|344:48,1,420.000016021729
464,168,55604,6,0,B|344:112|288:216|288:216|340:104|272:40|272:40|328:36|376:80,1,490.000004673004
392,228,56004,6,0,P|340:308|156:328,1,280
92,280,56304,1,0,0:0:0:0:
156,180,56404,1,0,0:0:0:0:
160,192,56504,1,0,0:0:0:0:
164,204,56604,1,0,0:0:0:0:
172,220,56704,2,0,P|148:172|172:84,1,140
272,160,56904,1,0,0:0:0:0:
272,160,57004,2,0,P|296:208|272:296,1,140
272,160,57204,2,0,P|248:112|272:24,1,140
272,160,57404,2,0,P|224:184|136:160,1,140
340,88,57604,6,0,B|376:108|432:104|432:104|388:168|432:216,1,210
340,88,58004,6,0,B|376:108|432:104|432:104|376:184|467:251|467:251|432:276|384:256,1,350
340,88,58404,6,0,B|376:108|432:104|432:104|376:184|467:251|467:251|400:280|320:228,1,420.000016021729
340,88,58804,6,0,B|376:108|432:104|432:104|376:184|467:251|467:251|400:280|296:216|296:216|328:208|352:184,1,490.000004673004
333,199,59204,6,0,P|252:235|56:187,1,280
20,132,59504,1,0,0:0:0:0:
20,132,59604,2,0,P|44:192|36:296,1,140
192,356,59804,2,0,P|168:296|176:192,1,140
200,128,60004,2,0,B|284:228|196:352|196:352|212:304|196:268,1,280
208,116,60304,1,0,0:0:0:0:
208,116,60404,2,0,P|280:132|368:112,1,140
481,127,60604,2,0,P|409:111|321:131,1,140
352,352,60804,6,0,B|328:300|388:204|388:204|360:264|392:324,1,280
352,352,61204,6,0,B|328:300|384:176|384:176|360:264|400:352,1,350
352,352,61604,6,0,B|328:300|372:152|372:152|360:264|408:368,1,420.000016021729
352,352,62004,6,0,B|328:300|360:112|360:112|352:252|376:300|428:344,1,490.000004673004
508,288,62404,6,0,P|468:232|500:32,1,280
420,4,62704,1,0,0:0:0:0:
420,4,62804,2,0,P|368:24|260:16,1,140
168,160,63004,2,0,P|220:140|328:148,1,140
457,272,63204,5,0,0:0:0:0:
370,238,63304,1,0,0:0:0:0:
278,246,63404,1,0,0:0:0:0:
199,293,63504,1,0,0:0:0:0:
278,246,63604,1,0,0:0:0:0:
199,293,63704,1,0,0:0:0:0:
133,272,63804,1,0,0:0:0:0:
63,272,63904,1,0,0:0:0:0:
133,272,64004,6,0,P|160:192|128:112,1,140
176,200,64204,1,0,0:0:0:0:
292,377,64404,6,0,P|265:296|297:216,1,140
249,304,64604,1,0,0:0:0:0:
352,164,64804,6,0,B|268:132|216:172|216:172|160:208|80:188,1,280
277,245,65204,6,0,L|277:237,1,8.75
192,88,65404,6,0,L|204:172,1,70
296,344,65604,6,0,B|224:316|168:340|168:340|128:356|88:308|88:308|160:324,1,280
188,244,65904,1,0,0:0:0:0:
188,244,66004,2,0,P|116:216|28:220,1,140
8,80,66204,2,0,P|80:108|168:104,1,140
312,208,66404,2,0,P|256:128|412:64,1,280
344,124,66704,1,0,0:0:0:0:
344,124,66804,2,0,P|396:152|480:136,1,140
504,296,67004,2,0,P|452:268|368:284,1,140
424,351,67204,6,0,B|468:239|404:139|404:139|332:168|328:199,1,280
424,351,67604,6,0,B|468:239|404:139|404:139|332:163|304:228,1,350
424,351,68004,6,0,B|468:239|404:139|404:139|320:160|276:292,1,420.000016021729
424,351,68404,6,0,B|468:239|404:139|404:139|320:160|272:300|272:300|360:247,1,490.000004673004
508,136,68804,6,0,B|480:68|424:44|424:44|328:40|276:112,1,280
228,176,69104,1,0,0:0:0:0:
180,100,69204,1,0,0:0:0:0:
164,88,69304,1,0,0:0:0:0:
144,80,69404,1,0,0:0:0:0:
120,76,69504,2,0,P|204:100|284:64,1,140
344,36,69704,1,0,0:0:0:0:
344,36,69804,2,0,P|356:100|324:200,1,140
336,308,70004,2,0,P|324:244|356:144,1,140
476,175,70204,2,0,P|412:187|312:155,1,140
184,120,70404,6,0,B|104:136|36:72|36:72|56:148|40:200,1,280
184,120,70804,6,0,B|104:136|36:72|36:72|60:148|28:264,1,350
184,120,71204,6,0,B|104:136|36:72|36:72|60:148|24:280|24:280|48:228|124:208,1,420.000016021729
184,120,71604,6,0,B|104:136|36:72|36:72|60:160|24:280|24:280|56:220|116:188,1,490.000004673004
288,68,72004,6,0,P|256:148|324:352,1,280
376,384,72304,1,0,0:0:0:0:
376,384,72404,2,0,P|320:352|200:344,1,140
102,195,72604,2,0,P|158:227|278:235,1,140
371,128,72804,2,0,P|255:108|231:240,1,280
296,180,73104,1,0,0:0:0:0:
296,180,73204,2,0,P|252:108|168:80,1,140
112,180,73404,2,0,P|156:108|240:80,1,140
204,192,73604,6,0,B|176:268|224:360|224:360|264:320|336:320,1,280
204,192,74004,6,0,B|176:268|224:360|224:360|272:308|396:324,1,350
204,192,74404,6,0,B|176:268|224:360|224:360|272:308|412:324|412:324|380:308|352:284,1,420.000016021729
204,192,74804,6,0,B|176:268|224:360|224:360|272:308|412:324|412:324|380:308|308:252,1,490.000004673004
156,108,75204,6,0,P|124:184|144:376,1,280
224,360,75504,1,0,0:0:0:0:
224,360,75604,2,0,P|200:300|196:224,1,140
283,123,75804,2,0,P|286:187|315:258,1,140
412,324,76004,1,0,0:0:0:0:
401,233,76104,1,0,0:0:0:0:
423,142,76204,1,0,0:0:0:0:
393,57,76304,1,0,0:0:0:0:
419,143,76404,1,0,0:0:0:0:
396,55,76504,1,0,0:0:0:0:
415,143,76604,1,0,0:0:0:0:
400,55,76704,1,0,0:0:0:0:
423,142,76804,6,0,P|328:124|376:-12,1,280
423,142,77204,6,0,P|518:160|494:312,1,280
423,142,77604,6,0,B|424:60|424:60|352:136|424:272,1,280
410,315,78004,6,0,L|411:233,1,70
232,168,78204,2,0,L|236:144,2,17.5
260,312,78404,6,0,P|164:272|100:304,1,140
133,280,78604,2,0,P|229:320|293:288,1,140
388,176,78804,6,0,P|292:216|228:184,1,140
261,208,79004,2,0,P|357:168|421:200,1,140
508,232,79204,2,0,P|472:152|508:56,1,140
512,16,79404,1,0,0:0:0:0:
512,16,79504,2,0,P|436:32|332:12,1,140
244,152,79704,1,0,0:0:0:0:
244,152,79804,2,0,P|320:136|424:156,1,140
492,300,80004,6,0,B|420:284|352:312|352:312|284:332|188:308,1,280
108,360,80304,1,0,0:0:0:0:
108,360,80404,2,0,P|144:284|88:192,1,140
130,232,80604,2,0,P|94:308|150:400,1,140
220,384,80804,2,0,P|244:300|168:128,1,280
244,40,81104,2,0,P|272:104|332:152,1,140
405,256,81304,2,0,P|377:192|317:144,1,140
256,200,81504,1,0,0:0:0:0:
256,200,81604,5,0,0:0:0:0:
256,200,81704,1,0,0:0:0:0:
256,200,81804,2,0,P|180:232|160:284,1,140
256,200,82004,2,0,P|224:124|172:104,1,140
256,200,82204,2,0,P|332:168|352:116,1,140
256,200,82404,2,0,P|288:276|340:296,1,140
440,280,82604,1,0,0:0:0:0:
460,264,82704,2,0,P|424:340|460:380,2,140
388,80,83004,2,0,P|424:156|388:196,1,140
300,268,83204,6,0,P|272:192|300:0,1,280
364,64,83504,1,0,0:0:0:0:
364,64,83604,2,0,P|348:128|376:212,1,140
436,304,83804,1,0,0:0:0:0:
428,320,83904,1,0,0:0:0:0:
424,340,84004,1,0,0:0:0:0:
436,368,84104,5,0,0:0:0:0:
397,341,84204,1,0,0:0:0:0:
352,330,84304,1,0,0:0:0:0:
284,360,84404,5,0,0:0:0:0:
214,368,84504,1,0,0:0:0:0:
147,350,84604,1,0,0:0:0:0:
72,368,84704,5,0,0:0:0:0:
96,288,84804,1,0,0:0:0:0:
72,208,84904,1,0,0:0:0:0:
72,208,85004,1,0,0:0:0:0:
108,262,85104,1,0,0:0:0:0:
171,245,85204,1,0,0:0:0:0:
175,180,85304,1,0,0:0:0:0:
114,155,85404,1,0,0:0:0:0:
96,164,85504,1,0,0:0:0:0:
84,176,85604,6,0,P|152:136|244:164,1,140
288,224,85804,2,0,P|320:164|292:92,1,140
228,152,86004,1,0,0:0:0:0:
264,244,86104,1,0,0:0:0:0:
236,328,86204,1,0,0:0:0:0:
280,256,86304,1,0,0:0:0:0:
216,336,86404,6,0,B|108:352|28:320|28:320|84:324|128:312,1,280
171,245,86704,1,0,0:0:0:0:
171,245,86804,2,0,P|156:192|168:96,1,140
232,52,87004,1,0,0:0:0:0:
254,58,87104,1,0,0:0:0:0:
277,62,87204,1,0,0:0:0:0:
300,64,87304,1,0,0:0:0:0:
336,48,87404,1,0,0:0:0:0:
359,45,87504,1,0,0:0:0:0:
382,43,87604,1,0,0:0:0:0:
412,60,87704,1,0,0:0:0:0:
452,64,87804,1,0,0:0:0:0:
492,68,87904,1,0,0:0:0:0:
512,152,88004,6,0,P|424:144|336:160,1,140
280,208,88204,1,0,0:0:0:0:
280,208,88304,1,0,0:0:0:0:
280,208,88404,2,0,L|276:176,2,17.5
192,128,88604,2,0,L|196:96,2,17.5
112,240,88804,6,0,P|196:232|264:256,1,140
320,304,89004,1,0,0:0:0:0:
388,244,89104,2,0,P|416:168|392:64,1,140
336,44,89304,1,0,0:0:0:0:
284,112,89404,1,0,0:0:0:0:
204,84,89504,1,0,0:0:0:0:
184,100,89604,6,0,P|168:136|176:204,1,105.000004005432
220,280,89904,1,0,0:0:0:0:
220,280,90004,2,0,P|192:276|156:280,1,52.5000020027161
68,348,90204,2,0,P|96:344|132:348,1,52.5000020027161
220,383,90404,6,0,B|212:351|212:351|220:271,1,105.000004005432
284,208,90704,1,0,0:0:0:0:
284,208,90804,2,0,L|292:268,1,52.5000020027161
368,216,91004,2,0,L|372:152,1,52.5000020027161
456,248,91204,6,0,P|444:280|444:308,1,52.5000020027161
488,228,91404,1,0,0:0:0:0:
403,143,91604,2,0,P|415:111|415:83,1,52.5000020027161
371,163,91804,1,0,0:0:0:0:
240,104,92004,6,0,P|228:168|240:216,1,105.000004005432
176,288,92304,1,0,0:0:0:0:
176,288,92404,2,0,P|164:264|156:236,1,52.5000020027161
304,288,92604,2,0,P|280:300|252:308,1,52.5000020027161
328,120,92804,6,0,P|348:164|356:220,1,105.000004005432
344,312,93104,1,0,0:0:0:0:
344,312,93204,2,0,P|376:304|400:304,1,52.5000020027161
480,204,93404,2,0,P|448:212|424:212,1,52.5000020027161
308,108,93604,2,0,P|352:128|408:136,1,105.000004005432
484,96,93904,1,0,0:0:0:0:
484,96,94004,2,0,P|476:68|476:40,1,52.5000020027161
372,0,94204,6,0,P|380:28|380:56,2,52.5000020027161
276,92,94504,1,0,0:0:0:0:
276,92,94604,2,0,P|268:120|268:148,1,52.5000020027161
372,204,94804,2,0,P|344:196|316:196,1,52.5000020027161
252,296,95004,2,0,P|260:268|260:240,1,52.5000020027161
156,184,95204,2,0,P|184:192|212:192,1,52.5000020027161
276,92,95404,2,0,P|268:120|268:148,1,52.5000020027161
292,68,95604,1,0,0:0:0:0:
292,68,95704,2,0,P|260:72|228:72,2,52.5000020027161
400,176,96004,6,0,P|344:172|280:176,1,105.000004005432
220,220,96304,1,0,0:0:0:0:
220,220,96404,2,0,P|184:224|152:224,1,52.5000020027161
92,168,96604,1,0,0:0:0:0:
80,191,96704,1,0,0:0:0:0:
75,217,96804,1,0,0:0:0:0:
76,243,96904,1,0,0:0:0:0:
82,268,97004,1,0,0:0:0:0:
96,296,97104,2,0,P|88:272|88:240,1,52.5000020027161
108,312,97304,2,0,P|95:289|90:258,1,52.5000020027161
128,332,97504,1,0,0:0:0:0:
152,352,97604,5,0,0:0:0:0:
137,315,97704,1,0,0:0:0:0:
143,277,97804,1,0,0:0:0:0:
168,247,97904,1,0,0:0:0:0:
205,234,98004,1,0,0:0:0:0:
256,252,98104,5,0,0:0:0:0:
270,215,98204,1,0,0:0:0:0:
264,177,98304,1,0,0:0:0:0:
239,147,98404,1,0,0:0:0:0:
202,134,98504,1,0,0:0:0:0:
160,144,98604,5,0,0:0:0:0:
210,158,98704,1,0,0:0:0:0:
262,157,98804,1,0,0:0:0:0:
312,143,98904,1,0,0:0:0:0:
356,114,99004,1,0,0:0:0:0:
392,64,99104,1,0,0:0:0:0:
400,8,99204,6,0,P|392:80|408:132,1,105.000004005432
452,180,99504,1,0,0:0:0:0:
452,180,99604,2,0,P|472:172|504:168,1,52.5000020027161
476,284,99804,1,0,0:0:0:0:
447,269,99904,1,0,0:0:0:0:
417,260,100004,1,0,0:0:0:0:
386,255,100104,1,0,0:0:0:0:
355,256,100204,1,0,0:0:0:0:
324,262,100304,1,0,0:0:0:0:
300,284,100404,2,0,P|332:268|364:264,1,52.5000020027161
280,304,100604,2,0,P|308:282|339:273,1,52.5000020027161
268,328,100804,6,0,P|284:304|284:216,1,105.000004005432
248,160,101104,1,0,0:0:0:0:
248,160,101204,2,0,P|280:152|312:152,1,52.5000020027161
144,76,101404,2,0,P|176:84|208:84,1,52.5000020027161
20,176,101604,1,0,0:0:0:0:
36,164,101704,1,0,0:0:0:0:
64,160,101804,2,0,P|90:161|115:168,2,52.5000020027161
160,248,102104,1,0,0:0:0:0:
160,248,102204,2,0,P|185:255|211:256,1,52.5000020027161
320,216,102404,5,0,0:0:0:0:
320,216,103204,6,0,L|316:196,1,17.5
292,168,103504,6,0,L|295:150,1,17.5
344,84,103704,1,0,0:0:0:0:
336,92,103804,2,0,L|332:80,2,8.75
392,228,104004,5,0,0:0:0:0:
