osu file format v14

[General]
AudioFilename: audio.mp3
AudioLeadIn: 0
PreviewTime: 72778
Countdown: 0
SampleSet: Soft
StackLeniency: 0.7
Mode: 0
LetterboxInBreaks: 0
WidescreenStoryboard: 1

[Editor]
DistanceSpacing: 1
BeatDivisor: 4
GridSize: 16
TimelineZoom: 1

[Metadata]
Title:Oedo Controller(feat. TORIENA)[Batsu Remix]
TitleUnicode:大江戸コントローラー(feat. TORIENA)[Batsu Remix]
Artist:Yunomi
ArtistUnicode:Yunomi
Creator:Left
Version:Easy
Source:
Tags:Soundcloud Electronic Cut version Beomsan Beom CelsiusLK
BeatmapID:1003857
BeatmapSetID:469434

[Difficulty]
HPDrainRate:2
CircleSize:3
OverallDifficulty:2
ApproachRate:3
SliderMultiplier:0.999999999999998
SliderTickRate:1

[Events]
//Background and Video events
0,0,"bgelse.jpg",0,0
//Break Periods
//Storyboard Layer 0 (Background)
//Storyboard Layer 1 (Fail)
//Storyboard Layer 2 (Pass)
//Storyboard Layer 3 (Foreground)
//Storyboard Sound Samples

[TimingPoints]
1074,454.545454545455,4,2,1,70,1,0
28346,-100,4,2,1,38,0,0
30164,-100,4,2,1,50,0,0
44710,-100,4,2,1,60,0,0
59255,-100,4,2,1,50,0,0
73801,-100,4,2,1,78,0,1
91983,-100,4,2,1,70,0,0
106528,-100,4,2,1,38,0,0

[Colours]
Combo1 : 134,240,134
Combo2 : 240,147,147
Combo3 : 121,188,240
SliderTrackOverride : 40,40,40
SliderBorder : 255,208,240

[HitObjects]
130,358,15619,5,6,0:0:0:0:
226,331,16074,1,8,0:0:0:0:
321,361,16528,2,0,P|322:302|298:261,1,99.9999999999998,0|8,0:0|0:0,0:0:0:0:
209,231,17437,2,0,L|98:235,2,99.9999999999998,0|8|0,0:0|0:0|0:0,0:0:0:0:
287,168,18801,1,8,0:0:0:0:
370,223,19255,6,0,P|386:155|369:109,1,99.9999999999998,2|8,0:0|0:0,0:0:0:0:
295,72,20164,2,0,P|239:85|187:65,1,99.9999999999998,0|8,0:0|0:0,0:0:0:0:
109,119,21074,2,0,P|99:53|120:10,2,99.9999999999998,0|8|0,0:0|0:0|0:0,0:0:0:0:
195,169,22437,1,8,0:0:0:0:
110,222,22892,6,0,P|100:288|121:331,1,99.9999999999998,2|8,0:0|0:0,0:0:0:0:
201,273,23801,2,0,L|323:272,1,99.9999999999998,0|8,0:0|0:0,0:0:0:0:
389,225,24710,2,0,P|401:273|388:321,2,99.9999999999998,0|8|0,0:0|0:0|0:0,0:0:0:0:
302,175,26074,1,8,0:0:0:0:
217,228,26528,6,0,L|99:227,1,99.9999999999998,2|8,0:0|0:0,0:0:0:0:
52,150,27437,2,0,P|34:100|45:50,1,99.9999999999998,0|8,0:0|0:0,0:0:0:0:
135,92,28346,2,0,B|186:38|248:54|248:54|293:108|293:108|330:57|330:57|404:33|452:104,1,399.999999999999,4|2,0:0|0:0,0:0:0:0:
424,199,30619,5,8,0:0:0:0:
465,290,31074,2,0,P|399:296|361:273,1,99.9999999999998,0|8,0:0|0:0,0:0:0:0:
288,223,31983,2,0,P|185:193|86:237,1,200,0|0,0:0|0:0,0:0:0:0:
60,132,33346,1,8,0:0:0:0:
11,44,33801,6,0,P|74:31|119:53,1,99.9999999999998,2|8,0:0|0:0,0:0:0:0:
160,126,34710,2,0,P|207:139|254:125,1,99.9999999999998,0|8,0:0|0:0,0:0:0:0:
303,36,35619,2,0,P|353:94|309:209,1,200
220,222,36983,1,8,0:0:0:0:
126,186,37437,6,0,P|119:240|141:288,1,99.9999999999998,2|8,0:0|0:0,0:0:0:0:
227,322,38346,2,0,L|346:318,1,99.9999999999998,0|8,0:0|0:0,0:0:0:0:
414,367,39255,2,0,P|418:270|334:218,1,200,0|0,0:0|0:0,0:0:0:0:
247,259,40619,1,8,0:0:0:0:
169,322,41074,6,0,P|148:250|154:224,1,99.9999999999998,2|8,0:0|0:0,0:0:0:0:
225,158,41983,2,0,P|246:86|240:60,1,99.9999999999998,0|8,0:0|0:0,0:0:0:0:
334,28,42892,2,0,P|342:132|295:224,1,200
220,274,44255,1,8,0:0:0:0:
129,230,44710,6,0,P|119:288|139:335,2,99.9999999999998,6|8|0,0:0|0:0|0:0,0:0:0:0:
212,175,46074,1,8,0:0:0:0:
295,120,46528,2,0,P|305:62|285:15,2,99.9999999999998,0|8|0,0:0|0:0|0:0,0:0:0:0:
300,221,47892,1,8,0:0:0:0:
212,175,48346,6,0,L|100:176,2,99.9999999999998,2|8|0,0:0|0:0|0:0,0:0:0:0:
296,130,49710,1,8,0:0:0:0:
371,64,50164,2,0,P|393:107|387:167,1,99.9999999999998,0|8,0:0|0:0,0:0:0:0:
322,230,51074,2,0,P|344:273|338:333,1,99.9999999999998,0|8,0:0|0:0,0:0:0:0:
245,350,51983,6,0,L|125:356,2,99.9999999999998,6|8|0,0:0|0:0|0:0,0:0:0:0:
219,253,53346,1,8,0:0:0:0:
250,157,53801,2,0,L|370:151,2,99.9999999999998,0|8|0,0:0|0:0|0:0,0:0:0:0:
151,141,55164,1,8,0:0:0:0:
181,236,55619,6,0,P|189:285|168:338,2,99.9999999999998,2|8|0,0:0|0:0|0:0,0:0:0:0:
203,138,56983,1,8,0:0:0:0:
298,166,57437,2,0,P|273:62|185:41,1,200,0|0,0:0|0:0,0:0:0:0:
146,127,58801,1,0,0:0:0:0:
108,219,59255,6,0,L|317:270,1,200,6|8,0:0|0:0,0:0:0:0:
473,162,61074,2,0,P|495:70|412:-1,1,200,0|8,0:0|0:0,0:0:0:0:
227,39,62892,6,0,P|133:103|46:67,1,200,2|8,0:0|0:0,0:0:0:0:
185,234,64710,2,0,L|186:345,2,99.9999999999998,0|2|8,0:0|0:0|0:0,0:0:0:0:
184,133,66074,1,8,0:0:0:0:
272,178,66528,6,0,P|348:197|460:160,1,200,6|8,0:0|0:0,0:0:0:0:
309,28,68346,2,0,P|233:9|121:46,1,200,2|8,0:0|0:0,0:0:0:0:
120,146,69710,1,0,0:0:0:0:
76,235,70164,6,0,P|168:237|219:149,1,200,2|8,0:0|0:0,0:0:0:0:
374,26,71983,2,0,L|375:234,1,200,2|2,0:0|0:0,0:0:0:0:
377,325,73346,1,0,0:0:0:0:
289,277,73801,6,0,P|232:262|184:274,1,99.9999999999998,6|8,0:0|0:0,0:0:0:0:
118,336,74710,2,0,P|69:343|21:329,1,99.9999999999998,0|8,0:0|0:0,0:0:0:0:
58,236,75619,2,0,P|75:174|60:123,1,99.9999999999998,0|8,0:0|0:0,0:0:0:0:
33,46,76528,1,0,0:0:0:0:
132,38,76983,1,12,0:0:0:0:
202,109,77437,6,0,L|317:104,1,99.9999999999998,2|8,0:0|0:0,0:0:0:0:
386,50,78346,2,0,P|404:105|387:157,1,99.9999999999998,0|8,0:0|0:0,0:0:0:0:
312,202,79255,2,0,P|302:250|320:296,2,99.9999999999998,0|8|0,0:0|0:0|0:0,0:0:0:0:
301,104,80619,1,8,0:0:0:0:
219,161,81074,6,0,L|113:165,1,99.9999999999998,2|8,0:0|0:0,0:0:0:0:
129,264,81983,2,0,L|235:260,1,99.9999999999998,0|8,0:0|0:0,0:0:0:0:
318,304,82892,2,0,L|417:300,1,99.9999999999998,0|8,0:0|0:0,0:0:0:0:
480,222,83801,1,0,0:0:0:0:
423,139,84255,1,12,0:0:0:0:
484,60,84710,6,0,P|430:38|382:49,1,99.9999999999998,2|8,0:0|0:0,0:0:0:0:
321,118,85619,2,0,P|271:123|227:102,1,99.9999999999998,0|8,0:0|0:0,0:0:0:0:
130,129,86528,2,0,P|134:61|165:26,2,99.9999999999998,0|8|0,0:0|0:0|0:0,0:0:0:0:
186,211,87892,1,8,0:0:0:0:
232,123,88346,6,0,P|300:78|495:135,1,299.999999999999,4|0,0:0|0:0,0:0:0:0:
493,235,90164,2,0,P|425:280|230:223,1,299.999999999999,0|0,0:0|0:0,0:0:0:0:
211,123,91983,6,0,P|220:78|202:11,1,99.9999999999998,2|8,0:0|0:0,0:0:0:0:
115,59,92892,2,0,P|105:114|124:171,1,99.9999999999998,0|8,0:0|0:0,0:0:0:0:
188,224,93801,2,0,L|292:219,2,99.9999999999998,0|8|0,0:0|0:0|0:0,0:0:0:0:
105,280,95164,1,8,0:0:0:0:
197,318,95619,6,0,L|319:312,1,99.9999999999998,2|8,0:0|0:0,0:0:0:0:
375,250,96528,2,0,P|384:187|365:137,1,99.9999999999998,0|8,0:0|0:0,0:0:0:0:
294,92,97437,2,0,L|194:96,2,99.9999999999998,0|8|0,0:0|0:0|0:0,0:0:0:0:
387,57,98801,1,8,0:0:0:0:
371,155,99255,6,0,P|362:228|381:269,1,99.9999999999998,6|8,0:0|0:0,0:0:0:0:
418,339,100164,2,0,P|361:351|317:336,1,99.9999999999998,0|8,0:0|0:0,0:0:0:0:
270,252,101074,2,0,P|222:239|174:252,2,99.9999999999998,0|8|0,0:0|0:0|0:0,0:0:0:0:
370,252,102437,1,8,0:0:0:0:
429,171,102892,6,0,L|436:67,1,99.9999999999998,2|8,0:0|0:0,0:0:0:0:
335,62,103801,2,0,L|328:166,1,99.9999999999998,0|8,0:0|0:0,0:0:0:0:
289,254,104710,2,0,P|185:311|238:151,1,399.999999999999,0|2,0:0|0:0,0:0:0:0:
424,214,107437,5,2,0:0:0:0:
384,17,108346,1,2,0:0:0:0:
279,124,109028,2,0,P|208:146|164:132,2,99.9999999999998,2|2|0,0:0|0:0|0:0,0:0:0:0:
316,90,110164,5,2,0:0:0:0:
444,243,111074,1,2,0:0:0:0:
246,273,111983,1,2,0:0:0:0:
111,206,112664,2,0,P|97:264|100:304,2,99.9999999999998,2|2|0,0:0|0:0|0:0,0:0:0:0:
136,162,113801,5,2,0:0:0:0:
322,234,114710,1,2,0:0:0:0:
296,35,115619,1,2,0:0:0:0:
381,158,116301,2,0,L|501:147,2,99.9999999999998,2|2|0,0:0|0:0|0:0,0:0:0:0:
331,166,117437,5,2,0:0:0:0:
148,84,118346,1,2,0:0:0:0:
167,283,119255,1,2,0:0:0:0:
316,270,119937,2,0,L|432:261,2,99.9999999999998,2|2|0,0:0|0:0|0:0,0:0:0:0:
