osu file format v14

[General]
AudioFilename: audio.mp3
AudioLeadIn: 0
PreviewTime: 68619
Countdown: 0
SampleSet: Soft
StackLeniency: 0.7
Mode: 0
LetterboxInBreaks: 0
WidescreenStoryboard: 1

[Editor]
Bookmarks: 19314,36010,69401,86097,102792,119488,152879,186271,202966,219662,236358,244705
DistanceSpacing: 1.1
BeatDivisor: 4
GridSize: 8
TimelineZoom: 1

[Metadata]
Title:Oedo Controller (feat. TORIENA)
TitleUnicode:大江戸コントローラー (feat. TORIENA)
Artist:Yunomi
ArtistUnicode:Yunomi
Creator:Mentai
Version:Normal
Source:
Tags:kanari enkrypton epicsteve2 cyndere impurepug future house ufo
BeatmapID:1698551
BeatmapSetID:759903

[Difficulty]
HPDrainRate:3
CircleSize:3
OverallDifficulty:3
ApproachRate:5
SliderMultiplier:1.6
SliderTickRate:1

[Events]
//Background and Video events
0,0,"wqerdfqwefg.jpg",0,0
//Break Periods
2,69669,76617
2,119756,126704
2,186539,193487
//Storyboard Layer 0 (Background)
//Storyboard Layer 1 (Fail)
//Storyboard Layer 2 (Pass)
//Storyboard Layer 3 (Foreground)
//Storyboard Sound Samples

[TimingPoints]
2687,521.739130434783,4,2,1,60,1,0
11034,-100,4,2,1,60,0,0
19382,-100,4,2,2,75,0,0
35034,-100,4,2,1,75,0,0
36078,-100,4,2,1,55,0,0
52773,-100,4,2,1,70,0,0
69469,-100,4,2,5,55,0,0
75730,-100,4,2,1,55,0,0
77817,-100,4,2,1,70,0,0
86165,-100,4,2,2,85,0,1
92426,-100,4,2,4,100,0,1
92687,-100,4,2,2,75,0,1
92947,-100,4,2,4,100,0,1
93208,-100,4,2,2,70,0,1
93469,-100,4,2,4,100,0,1
93730,-100,4,2,2,65,0,1
93991,-100,4,2,1,85,0,1
94513,-100,4,2,2,85,0,1
100773,-100,4,2,4,100,0,1
102600,-100,4,2,2,85,0,1
102860,-100,4,2,2,70,0,0
111208,-100,4,2,5,70,0,0
111991,-100,4,2,2,70,0,0
117469,-100,4,2,4,65,0,0
119556,-100,4,2,5,45,0,0
125817,-100,4,2,4,65,0,0
127904,-100,4,2,1,65,0,0
136252,-100,4,2,1,50,0,0
144600,-100,4,2,1,65,0,0
152947,-100,4,2,1,70,0,0
160252,-100,4,2,4,60,0,0
160773,-100,4,2,4,70,0,0
161295,-100,4,2,1,70,0,0
169643,-100,4,2,2,75,0,0
176947,-100,4,2,4,85,0,0
177469,-100,4,2,5,75,0,0
177991,-100,4,2,2,75,0,0
180078,-100,4,2,1,75,0,0
180339,-100,4,2,2,75,0,0
182165,-100,4,2,1,75,0,0
182426,-100,4,2,2,75,0,0
184252,-100,4,2,4,85,0,0
194687,-100,4,2,1,65,0,0
203034,-100,4,2,1,85,0,1
203556,-100,4,2,1,70,0,0
204078,-100,4,2,1,85,0,1
204600,-100,4,2,1,70,0,0
205121,-100,4,2,2,85,0,1
206295,-100,4,2,4,100,0,1
207208,-100,4,2,2,85,0,1
209295,-100,4,2,1,75,0,1
210860,-100,4,2,1,65,0,1
211382,-100,4,2,2,85,0,1
217643,-100,4,2,4,100,0,1
219469,-100,4,2,2,85,0,1
219730,-100,4,2,2,75,0,0
225991,-100,4,2,4,85,0,0
226252,-100,4,2,2,70,0,0
226513,-100,4,2,4,85,0,0
226773,-100,4,2,2,65,0,0
227034,-100,4,2,4,85,0,0
227295,-100,4,2,2,60,0,0
227556,-100,4,2,1,55,0,0
228078,-100,4,2,1,60,0,0
228600,-100,4,2,4,85,0,0
229121,-100,4,2,2,75,0,0
234339,-100,4,2,4,85,0,0
234600,-100,4,2,2,70,0,0
234860,-100,4,2,4,85,0,0
235121,-100,4,2,2,65,0,0
235382,-100,4,2,4,85,0,0
235643,-100,4,2,2,60,0,0
235904,-100,4,2,1,55,0,0
236426,-100,4,2,1,65,0,0
243991,-100,4,2,4,75,0,0
244773,-100,4,2,1,75,0,0
251034,-100,4,2,4,60,0,0
252078,-100,4,2,2,45,0,0

[Colours]
Combo1 : 248,16,160
Combo2 : 111,255,255
Combo3 : 69,87,245
Combo4 : 253,149,9
Combo5 : 240,71,47
Combo6 : 128,0,255

[HitObjects]
34,39,2687,53,0,0:0:0:0:
85,110,2947,2,0,L|83:277,1,160,0|0,0:0|0:0,0:0:0:0:
226,372,3991,2,0,P|304:359|396:372,1,160,0|0,0:0|0:0,0:0:0:0:
460,324,4773,1,0,0:0:0:0:
414,249,5034,2,0,B|413:192|413:192|425:150|425:150|424:61,1,160,0|0,0:0|0:0,0:0:0:0:
259,28,6078,2,0,L|261:195,1,160,0|0,0:0|0:0,0:0:0:0:
226,269,6860,69,8,0:0:0:0:
162,208,7121,2,0,P|81:196|1:222,1,160,8|8,0:0|0:0,0:0:0:0:
94,371,8165,2,0,P|175:383|255:357,1,160,8|8,0:0|0:0,0:0:0:0:
308,296,8947,1,8,0:0:0:0:
251,228,9208,2,0,L|256:59,1,160,8|8,0:0|0:0,0:0:0:0:
426,22,10252,2,0,L|431:191,1,160,8|8,0:0|0:0,0:0:0:0:
395,262,11034,6,0,B|386:296|386:296|395:388,2,120,2|2|2,1:2|0:0|1:2,0:0:0:0:
339,193,12078,2,0,P|296:192|254:201,1,80,10|0,1:2|0:0,0:0:0:0:
197,261,12600,2,0,P|154:262|112:253,1,80,10|2,1:2|1:2,0:0:0:0:
50,197,13121,2,0,P|41:117|51:76,2,120,2|2|2,1:2|0:0|1:2,0:0:0:0:
117,254,14165,2,0,L|115:346,2,80,10|0|10,1:2|0:0|1:2,0:0:0:0:
219,110,15208,69,2,1:2:0:0:
256,192,15339,12,0,17295,0:0:0:0:
24,343,19382,22,0,L|129:342,1,80,6|2,1:2|0:0,0:0:0:0:
175,290,19904,2,0,P|274:271|331:288,1,160,2|2,1:2|1:2,0:0:0:0:
398,341,20687,1,2,0:0:0:0:
463,282,20947,2,0,L|465:195,1,80,2|8,1:2|0:0,0:0:0:0:
406,135,21469,2,0,P|329:114|251:132,1,160,2|2,1:2|1:2,0:0:0:0:
186,191,22252,1,8,0:0:0:0:
239,260,22513,2,0,L|241:347,2,80,2|2|2,1:2|0:0|1:2,0:0:0:0:
311,99,23556,6,0,P|349:88|411:93,1,80,2|2,1:2|0:0,0:0:0:0:
467,129,24078,2,0,L|471:320,1,160,2|2,1:2|1:2,0:0:0:0:
421,361,24860,1,2,0:0:0:0:
345,315,25121,2,0,P|291:315|250:323,1,80,2|8,1:2|0:0,0:0:0:0:
183,351,25643,2,0,P|109:351|53:340,2,120,2|8|0,1:2|1:2|1:2,0:0:0:0:
265,319,26687,2,0,P|305:313|345:315,2,80,2|2|2,0:0|1:2|1:2,0:0:0:0:
113,230,27730,70,0,L|116:145,1,80,6|2,1:2|0:0,0:0:0:0:
54,84,28252,2,0,P|122:59|195:105,1,160,2|2,1:2|1:2,0:0:0:0:
236,177,29034,1,2,0:0:0:0:
307,125,29295,2,0,L|397:123,1,80,2|8,1:2|0:0,0:0:0:0:
463,167,29817,2,0,P|457:259|473:332,1,160,2|2,1:2|1:2,0:0:0:0:
401,380,30600,1,8,0:0:0:0:
325,335,30860,2,0,P|279:327|234:338,2,80,2|2|2,1:2|0:0|1:2,0:0:0:0:
469,233,31904,6,0,L|473:134,1,80,2|2,1:2|0:0,0:0:0:0:
420,81,32426,2,0,B|381:64|381:64|251:65,1,160,2|2,1:2|1:2,0:0:0:0:
175,59,33208,1,2,0:0:0:0:
176,147,33469,2,0,P|178:210|170:231,1,80,2|8,1:2|0:0,0:0:0:0:
93,185,33991,2,0,P|62:128|68:30,1,160,2|2,1:2|1:2,0:0:0:0:
146,0,34773,1,8,0:0:0:0:
223,41,35034,2,0,L|313:42,2,80,2|10|10,0:0|0:0|0:0,0:0:0:0:
180,212,36078,6,0,L|185:385,1,160,4|2,1:2|1:2,0:0:0:0:
339,288,37121,2,0,L|344:115,1,160,2|2,1:2|1:2,0:0:0:0:
406,66,37904,1,2,0:0:0:0:
465,131,38165,2,0,P|466:211|470:304,1,160,2|2,1:2|1:2,0:0:0:0:
307,359,39208,2,0,P|240:364|200:357,1,80,2|2,1:2|0:0,0:0:0:0:
146,326,39730,1,2,1:2:0:0:
76,164,40252,6,0,P|166:148|233:176,1,160,0|2,1:2|1:2,0:0:0:0:
375,268,41295,2,0,B|395:231|395:231|390:89,1,160,2|2,1:2|1:2,0:0:0:0:
344,37,42078,1,2,0:0:0:0:
261,67,42339,2,0,L|68:70,1,160,2|0,1:2|1:2,0:0:0:0:
33,232,43382,2,0,P|84:240|120:232,1,80,0|0,1:2|0:0,0:0:0:0:
184,185,43904,2,0,P|235:177|271:185,1,80,0|0,0:0|0:0,0:0:0:0:
334,233,44426,70,0,P|437:249|511:233,1,160,4|2,1:2|1:2,0:0:0:0:
380,102,45469,2,0,P|302:85|223:95,1,160,2|2,1:2|1:2,0:0:0:0:
157,154,46252,1,2,0:0:0:0:
219,216,46513,2,0,B|216:279|216:279|221:304|221:304|216:385,1,160,2|2,1:2|1:2,0:0:0:0:
387,331,47556,2,0,P|387:253|391:230,1,80,2|2,1:2|0:0,0:0:0:0:
432,175,48078,1,2,1:2:0:0:
505,15,48600,6,0,B|384:9|384:9|339:26,1,160,0|2,1:2|1:2,0:0:0:0:
300,192,49643,2,0,P|203:208|134:187,1,160,2|2,1:2|1:2,0:0:0:0:
78,133,50426,1,2,0:0:0:0:
17,196,50687,2,0,L|11:363,1,160,2|0,1:2|1:2,0:0:0:0:
184,324,51730,2,0,P|243:319|284:323,1,80,2|2,0:0|0:0,0:0:0:0:
349,340,52252,2,0,P|408:345|449:341,1,80,2|2,0:0|0:0,0:0:0:0:
504,298,52773,70,0,L|509:117,1,160,4|2,1:2|1:2,0:0:0:0:
462,62,53556,1,0,0:0:0:0:
407,131,53817,2,0,L|299:128,1,80,2|0,1:2|0:0,0:0:0:0:
266,193,54339,2,0,L|158:195,1,80,2|2,1:2|0:0,0:0:0:0:
122,132,54860,2,0,P|97:193|142:276,1,160,0|2,1:2|1:2,0:0:0:0:
296,348,55904,2,0,P|300:277|295:259,1,80,2|2,1:2|0:0,0:0:0:0:
249,195,56426,2,0,P|245:124|250:106,1,80,2|2,1:2|0:0,0:0:0:0:
285,37,56947,6,0,L|454:34,1,160,0|2,1:2|1:2,0:0:0:0:
435,210,57991,2,0,L|324:208,1,80,2|2,1:2|0:0,0:0:0:0:
286,152,58513,2,0,L|175:153,1,80,2|2,1:2|0:0,0:0:0:0:
124,186,59034,2,0,P|50:195|37:192,2,80,2|0|2,1:2|0:0|1:2,0:0:0:0:
216,35,60078,2,0,P|290:26|303:29,2,80,2|0|2,1:2|0:0|1:2,0:0:0:0:
54,104,61121,70,0,P|71:186|53:298,1,160,4|2,1:2|1:2,0:0:0:0:
24,340,61904,1,0,0:0:0:0:
107,368,62165,2,0,L|197:364,1,80,2|0,1:2|0:0,0:0:0:0:
258,311,62687,2,0,L|348:315,1,80,2|2,1:2|0:0,0:0:0:0:
396,380,63208,2,0,P|424:310|377:237,1,160,0|2,1:2|1:2,0:0:0:0:
217,256,64252,2,0,P|214:196|224:167,1,80,2|2,1:2|0:0,0:0:0:0:
293,129,64773,2,0,P|296:69|286:40,1,80,2|2,1:2|0:0,0:0:0:0:
210,13,65295,6,0,B|172:4|172:4|35:4,1,160,0|2,1:2|1:2,0:0:0:0:
12,175,66339,2,0,P|76:179|104:170,1,80,2|0,1:2|0:0,0:0:0:0:
159,120,66860,2,0,P|223:116|251:125,1,80,2|2,1:2|0:0,0:0:0:0:
298,184,67382,2,0,P|373:176|280:244,1,320,2|0,1:2|1:2,0:0:0:0:
109,212,68947,2,0,L|107:314,1,80,2|2,0:0|0:0,0:0:0:0:
162,361,69469,69,10,0:0:0:0:
51,46,77817,86,0,P|164:29|234:49,2,160,6|2|2,1:2|1:2|1:2,0:0:0:0:
15,126,79121,1,2,1:2:0:0:
72,192,79382,2,0,L|73:295,1,80,2|2,1:2|1:2,0:0:0:0:
22,345,79904,2,0,P|86:361|155:306,1,160,2|0,1:2|1:2,0:0:0:0:
242,153,80947,2,0,P|317:142|336:145,1,80,2|2,1:2|1:2,0:0:0:0:
397,186,81469,2,0,P|436:186|475:196,1,80,2|2,1:2|1:2,0:0:0:0:
505,279,81991,5,2,1:2:0:0:
256,192,82121,12,0,85121,0:0:0:0:
456,300,86165,38,0,B|438:254|438:254|446:128,2,160,6|2|2,1:2|1:2|1:2,0:0:0:0:
289,357,87730,2,0,P|237:361|200:357,1,80,2|10,1:2|0:0,0:0:0:0:
134,312,88252,2,0,L|131:142,1,160,2|2,1:2|1:2,0:0:0:0:
174,75,89034,1,8,0:0:0:0:
250,117,89295,2,0,P|299:122|336:114,2,80,2|2|2,1:2|0:0|1:2,0:0:0:0:
104,17,90339,6,0,P|73:89|81:168,2,160,2|2|2,1:2|1:2|1:2,0:0:0:0:
279,34,91904,2,0,L|375:32,1,80,2|10,1:2|0:0,0:0:0:0:
443,6,92426,1,0,1:2:0:0:
458,92,92687,2,0,P|449:189|456:253,1,160,2|2,0:0|0:0,0:0:0:0:
311,352,93730,2,0,P|320:272|313:193,1,160,2|0,0:0|0:0,0:0:0:0:
240,143,94513,70,0,B|191:134|191:134|57:153,2,160,6|2|2,1:2|1:2|1:2,0:0:0:0:
385,241,96078,2,0,P|386:317|383:333,1,80,2|10,1:2|0:0,0:0:0:0:
305,358,96600,2,0,L|139:363,1,160,2|2,1:2|1:2,0:0:0:0:
78,305,97382,1,8,0:0:0:0:
136,239,97643,2,0,P|144:195|137:156,2,80,2|2|2,1:2|0:0|1:2,0:0:0:0:
270,353,98687,6,0,P|295:263|293:194,2,160,2|2|2,1:2|1:2|1:2,0:0:0:0:
104,294,100252,2,0,L|97:192,1,80,2|10,1:2|0:0,0:0:0:0:
110,126,100773,1,10,1:2:0:0:
193,153,101034,2,0,P|270:158|353:118,1,160,0|0,0:0|0:0,0:0:0:0:
494,32,102078,2,0,L|491:215,1,160,0|0,0:0|1:2,0:0:0:0:
485,279,102860,70,0,P|407:281|396:278,1,80,6|2,1:2|0:0,0:0:0:0:
333,229,103382,2,0,P|177:225|155:230,1,160,2|2,1:2|1:2,0:0:0:0:
109,285,104165,1,2,0:0:0:0:
41,228,104426,1,2,1:2:0:0:
147,88,104947,2,0,L|329:85,1,160,2|2,1:2|1:2,0:0:0:0:
387,122,105730,1,10,0:0:0:0:
340,196,105991,2,0,P|336:258|343:289,2,80,2|2|2,1:2|0:0|1:2,0:0:0:0:
429,44,107034,6,0,P|400:27|320:23,1,80,2|2,1:2|0:0,0:0:0:0:
269,39,107556,2,0,B|222:51|222:51|87:43,1,160,2|2,1:2|1:2,0:0:0:0:
24,26,108339,1,2,0:0:0:0:
3,111,108600,1,2,1:2:0:0:
80,268,109121,2,0,P|162:274|245:327,1,160,2|2,1:2|1:2,0:0:0:0:
286,378,109904,1,10,0:0:0:0:
358,327,110165,2,0,L|448:324,2,80,2|2|0,1:2|0:0|1:2,0:0:0:0:
253,185,111208,70,0,B|265:143|246:105|246:105|291:90|304:41,1,160
375,7,111991,1,2,0:0:0:0:
447,57,112252,2,0,P|453:134|462:158,1,80,6|2,1:2|0:0,0:0:0:0:
496,213,112773,1,2,1:2:0:0:
347,307,113295,2,0,L|334:143,1,160,2|2,1:2|1:2,0:0:0:0:
284,74,114078,1,10,0:0:0:0:
218,133,114339,2,0,L|110:141,2,80,2|2|2,1:2|0:0|1:2,0:0:0:0:
347,13,115382,6,0,P|401:19|446:48,1,80,2|2,1:2|0:0,0:0:0:0:
475,101,115904,2,0,L|462:265,1,160,2|2,1:2|1:2,0:0:0:0:
421,338,116687,1,2,0:0:0:0:
349,287,116947,1,2,1:2:0:0:
189,361,117469,2,0,P|149:289|70:251,1,160,0|0,0:0|0:0,0:0:0:0:
0,223,118252,1,8,0:0:0:0:
41,145,118513,2,0,P|66:96|69:56,2,80,0|0|8,0:0|0:0|0:0,0:0:0:0:
9,318,119556,69,4,0:0:0:0:
493,358,127904,22,0,B|507:322|507:322|507:213,2,120,4|0|2,1:2|1:2|1:2,0:0:0:0:
317,376,129208,1,0,1:2:0:0:
247,322,129469,2,0,P|184:330|152:326,1,80,2|2,1:2|0:0,0:0:0:0:
98,274,129991,2,0,P|79:343|103:390,2,120,2|2|0,1:2|1:2|1:2,0:0:0:0:
211,144,131295,1,2,1:2:0:0:
281,196,131556,2,0,L|381:195,1,80,2|0,1:2|0:0,0:0:0:0:
432,143,132078,6,0,B|452:177|452:177|454:272,2,120,0|0|2,1:2|1:2|1:2,0:0:0:0:
341,0,133382,1,0,1:2:0:0:
279,63,133643,2,0,P|222:65|192:59,1,80,2|2,1:2|0:0,0:0:0:0:
124,14,134165,2,0,P|44:11|2:19,2,120,2|0|0,1:2|1:2|1:2,0:0:0:0:
199,60,135208,2,0,L|197:227,1,160,2|2,0:0|0:0,0:0:0:0:
307,357,136252,70,0,P|370:366|424:344,2,120,8|2|10,0:0|0:0|0:0,0:0:0:0:
132,336,137556,2,0,P|127:218|134:165,1,160,8|10,0:0|0:0,0:0:0:0:
182,104,138339,2,0,P|125:89|71:112,2,120,8|2|10,0:0|0:0|0:0,0:0:0:0:
276,253,139643,2,0,P|362:267|426:222,1,160,10|10,0:0|0:0,0:0:0:0:
472,158,140426,6,0,L|475:28,2,120,8|2|10,0:0|0:0|0:0,0:0:0:0:
397,317,141730,2,0,P|324:303|237:314,1,160,10|10,0:0|0:0,0:0:0:0:
153,334,142513,2,0,B|91:346|91:346|34:326,1,120,10|2,0:0|0:0,0:0:0:0:
12,197,143295,1,8,0:0:0:0:
89,155,143556,2,0,P|111:123|117:64,1,80,10|8,0:0|0:0,0:0:0:0:
196,41,144078,2,0,P|218:73|224:132,1,80,10|8,0:0|0:0,0:0:0:0:
219,200,144600,70,0,B|272:197|272:197|363:121,1,160,0|2,1:2|1:2,0:0:0:0:
510,47,145643,2,0,L|506:145,1,80,2|0,1:2|0:0,0:0:0:0:
444,190,146165,2,0,L|448:288,1,80,2|2,1:2|1:2,0:0:0:0:
495,344,146687,2,0,P|418:358|361:288,1,160,0|2,1:2|1:2,0:0:0:0:
300,140,147730,2,0,P|234:132|208:137,1,80,2|2,1:2|1:2,0:0:0:0:
158,196,148252,2,0,P|92:204|66:199,1,80,2|2,1:2|1:2,0:0:0:0:
6,152,148773,5,0,1:2:0:0:
256,192,148904,12,0,151839,0:0:0:0:
24,297,152947,38,0,P|1:241|0:181,2,120,6|0|0,1:2|1:2|1:2,0:0:0:0:
90,355,153991,1,10,0:0:0:0:
263,324,154513,2,0,P|268:278|266:238,1,80,2|0,0:0|1:2,0:0:0:0:
214,173,155034,2,0,P|268:157|335:186,2,120,2|0|0,1:2|1:2|1:2,0:0:0:0:
145,232,156078,1,8,0:0:0:0:
277,348,156600,2,0,P|340:353|372:338,1,80,2|0,0:0|0:0,0:0:0:0:
430,302,157121,6,0,B|449:264|449:264|450:152,2,120,2|0|0,1:2|1:2|1:2,0:0:0:0:
355,348,158165,1,10,0:0:0:0:
268,194,158687,2,0,L|271:85,1,80,2|0,0:0|1:2,0:0:0:0:
201,59,159208,2,0,L|74:57,2,120,2|0|0,1:2|1:2|1:2,0:0:0:0:
275,11,160252,2,0,B|320:1|348:3|348:3|386:17|441:13,1,160,0|0,0:0|0:0,0:0:0:0:
464,187,161295,70,0,B|476:245|476:245|454:328,2,120,2|0|0,1:2|1:2|1:2,0:0:0:0:
390,131,162339,2,0,P|430:102|513:109,2,120,10|0|0,0:0|1:2|1:2,0:0:0:0:
333,198,163382,2,0,L|329:331,2,120,2|0|0,1:2|1:2|1:2,0:0:0:0:
281,125,164426,1,10,0:0:0:0:
133,28,164947,2,0,P|79:26|49:34,1,80,8|0,0:0|1:2,0:0:0:0:
95,110,165469,6,0,P|163:112|207:77,2,120,2|0|0,1:2|1:2|1:2,0:0:0:0:
6,110,166513,2,0,L|2:243,2,120,10|0|0,0:0|1:2|1:2,0:0:0:0:
54,36,167556,2,0,B|111:18|111:18|179:26,1,120,6|0,1:2|1:2,0:0:0:0:
280,98,168339,1,6,1:2:0:0:
225,167,168600,2,0,L|222:285,1,80,0|6,0:0|1:2,0:0:0:0:
181,324,169121,2,0,P|257:328|282:313,1,80,6|0,1:2|0:0,0:0:0:0:
309,255,169643,70,0,P|396:242|472:260,1,160,6|2,1:2|1:2,0:0:0:0:
483,81,170687,2,0,L|396:85,1,80,2|2,1:2|0:0,0:0:0:0:
326,41,171208,2,0,L|239:37,1,80,2|8,1:2|0:0,0:0:0:0:
171,84,171730,2,0,B|148:128|148:128|151:248,1,160,2|2,1:2|1:2,0:0:0:0:
302,327,172773,2,0,P|332:281|341:246,1,80,2|0,1:2|0:0,0:0:0:0:
405,199,173295,2,0,P|391:161|367:129,1,80,2|8,1:2|0:0,0:0:0:0:
276,129,173817,6,0,P|296:70|381:37,1,160,2|2,1:2|1:2,0:0:0:0:
462,193,174860,2,0,P|431:237|424:265,1,80,2|2,1:2|0:0,0:0:0:0:
349,307,175382,2,0,P|318:263|311:235,1,80,2|8,1:2|0:0,0:0:0:0:
276,157,175904,2,0,L|102:155,1,160,2|2,1:2|1:2,0:0:0:0:
38,113,176687,1,10,0:0:0:0:
95,46,176947,2,0,B|151:37|181:19|181:19|271:20,1,160,0|0,0:0|0:0,0:0:0:0:
322,180,177991,70,0,L|321:350,1,160,6|2,1:2|1:2,0:0:0:0:
474,253,179034,2,0,L|474:173,1,80,2|2,1:2|0:0,0:0:0:0:
400,123,179556,2,0,L|399:43,1,80,0|8,1:2|0:0,0:0:0:0:
317,9,180078,2,0,P|229:5|150:26,1,160,2|2,1:2|1:2,0:0:0:0:
245,175,181121,2,0,P|249:219|272:265,1,80,2|0,1:2|0:0,0:0:0:0:
346,278,181643,2,0,P|331:314|328:354,1,80,2|8,1:2|0:0,0:0:0:0:
422,340,182165,6,0,P|444:279|395:191,1,160,2|2,1:2|1:2,0:0:0:0:
228,205,183208,2,0,P|181:208|146:218,1,80,2|2,1:2|0:0,0:0:0:0:
87,280,183730,2,0,P|40:277|5:267,1,80,0|8,1:2|0:0,0:0:0:0:
0,180,184252,2,0,B|17:134|17:134|14:33,2,120,0|8|8,0:0|0:0|0:0,0:0:0:0:
116,311,185556,1,0,0:0:0:0:
189,262,185817,2,0,L|291:259,1,80,8|0,0:0|0:0,0:0:0:0:
342,308,186339,21,6,0:0:0:0:
478,75,194687,70,0,P|496:143|485:245,2,160,2|2|0,1:2|1:2|1:2,0:0:0:0:
405,25,195991,1,2,1:2:0:0:
344,88,196252,2,0,L|239:83,1,80,2|2,1:2|1:2,0:0:0:0:
194,30,196773,2,0,L|25:38,1,160,2|0,1:2|1:2,0:0:0:0:
15,213,197817,2,0,P|90:224|109:221,1,80,2|2,1:2|1:2,0:0:0:0:
170,180,198339,2,0,P|209:180|248:170,1,80,2|2,1:2|1:2,0:0:0:0:
307,104,198861,5,2,1:2:0:0:
256,192,198991,12,0,200947,0:0:0:0:
27,38,203034,38,0,B|117:25|95:62|200:37,1,160,6|0,1:2|0:0,0:0:0:0:
361,30,204078,2,0,B|356:76|383:113|383:113|396:152|379:194,1,160,6|0,1:2|0:0,0:0:0:0:
286,331,205121,2,0,P|190:343|136:313,1,160,6|6,1:2|1:2,0:0:0:0:
78,248,205904,1,8,0:0:0:0:
134,180,206165,2,0,L|131:82,2,80,6|8|8,1:2|0:0|0:0,0:0:0:0:
307,210,207208,6,0,B|355:222|355:222|479:200,2,160,6|2|2,1:2|1:2|1:2,0:0:0:0:
158,115,208773,2,0,P|105:113|62:125,1,80,2|10,1:2|0:0,0:0:0:0:
12,176,209295,1,2,0:0:0:0:
66,244,209556,2,0,P|110:284|137:381,1,160,2|2,0:0|0:0,0:0:0:0:
308,336,210600,2,0,B|388:311|386:360|475:323,1,160,2|0,0:0|0:0,0:0:0:0:
496,244,211382,70,0,L|504:65,2,160,6|2|2,1:2|1:2|1:2,0:0:0:0:
338,322,212947,2,0,P|265:324|247:317,1,80,2|10,1:2|0:0,0:0:0:0:
179,358,213469,2,0,P|179:280|244:236,1,160,2|2,1:2|1:2,0:0:0:0:
329,229,214252,1,8,0:0:0:0:
316,141,214513,2,0,P|320:93|337:51,2,80,2|2|2,1:2|0:0|1:2,0:0:0:0:
201,274,215556,6,0,B|121:291|121:291|24:272,2,160,2|2|2,1:2|1:2|1:2,0:0:0:0:
329,154,217121,2,0,L|334:60,1,80,2|10,1:2|0:0,0:0:0:0:
393,9,217643,1,10,1:2:0:0:
450,75,217904,2,0,L|459:246,1,160,0|0,0:0|0:0,0:0:0:0:
318,341,218947,2,0,L|326:181,1,160,0|0,0:0|1:2,0:0:0:0:
285,102,219730,70,0,P|239:91|188:93,1,80,6|2,1:2|0:0,0:0:0:0:
134,141,220252,2,0,L|125:300,1,160,2|2,1:2|1:2,0:0:0:0:
61,361,221034,1,2,0:0:0:0:
8,289,221295,1,2,1:2:0:0:
33,114,221817,2,0,P|72:52|177:40,1,160,2|2,1:2|1:2,0:0:0:0:
229,76,222600,1,8,0:0:0:0:
306,34,222860,2,0,L|419:31,2,80,2|2|2,1:2|0:0|1:2,0:0:0:0:
156,127,223904,6,0,P|145:196|149:231,1,80,2|2,1:2|0:0,0:0:0:0:
83,267,224426,2,0,P|145:294|223:244,1,160,2|2,1:2|1:2,0:0:0:0:
271,179,225208,1,2,0:0:0:0:
344,227,225469,1,2,1:2:0:0:
464,98,225991,1,0,0:0:0:0:
496,179,226252,2,0,L|493:346,1,160,2|2,0:0|0:0,0:0:0:0:
346,241,227295,2,0,L|343:74,1,160,2|0,0:0|0:0,0:0:0:0:
265,38,228078,70,0,B|218:38|190:15|190:15|161:41|84:42,1,160,0|8,0:0|0:0,0:0:0:0:
29,23,228860,1,8,0:0:0:0:
53,107,229121,2,0,P|58:161|46:209,1,80,6|2,1:2|0:0,0:0:0:0:
21,268,229643,1,2,1:2:0:0:
172,357,230165,2,0,B|222:345|222:345|359:348,1,160,2|2,1:2|1:2,0:0:0:0:
415,370,230947,1,8,0:0:0:0:
463,296,231208,2,0,P|457:244|464:206,2,80,2|2|2,1:2|0:0|1:2,0:0:0:0:
295,350,232252,6,0,P|261:333|191:328,1,80,2|2,1:2|0:0,0:0:0:0:
126,358,232773,2,0,P|128:288|203:229,1,160,2|2,1:2|1:2,0:0:0:0:
281,252,233556,1,2,0:0:0:0:
339,186,233817,1,2,1:2:0:0:
244,37,234339,1,0,0:0:0:0:
166,79,234600,2,0,P|100:83|19:24,1,160,2|2,0:0|0:0,0:0:0:0:
49,206,235643,2,0,P|127:205|190:252,1,160,2|0,0:0|0:0,0:0:0:0:
221,335,236426,70,0,B|288:343|288:343|318:340|318:340|385:349,1,160,6|2,1:2|1:2,0:0:0:0:
496,216,237469,2,0,L|491:42,1,160,2|0,1:2|1:2,0:0:0:0:
422,0,238252,1,2,0:0:0:0:
353,55,238513,2,0,P|351:137|348:229,1,160,2|2,1:2|1:2,0:0:0:0:
224,340,239556,2,0,P|126:341|53:302,1,160,2|2,1:2|1:2,0:0:0:0:
18,244,240339,1,2,0:0:0:0:
76,178,240600,6,0,B|92:135|92:135|96:19,1,160,2|2,1:2|1:2,0:0:0:0:
268,54,241643,2,0,P|360:73|437:50,1,160,2|0,1:2|1:2,0:0:0:0:
505,27,242426,1,2,0:0:0:0:
512,113,242687,2,0,L|511:281,1,160,2|2,1:2|1:2,0:0:0:0:
344,339,243730,2,0,P|274:344|261:340,2,80,0|0|0,1:2|0:0|0:0,0:0:0:0:
394,266,244513,1,0,1:2:0:0:
330,205,244773,70,0,B|315:165|315:165|319:68,2,120,2|2|2,1:2|1:2|1:2,0:0:0:0:
232,351,246078,1,2,1:2:0:0:
170,288,246339,2,0,L|76:287,1,80,2|0,1:2|0:0,0:0:0:0:
17,236,246860,2,0,P|1:300|25:355,2,120,2|2|2,1:2|1:2|1:2,0:0:0:0:
96,78,248165,1,2,1:2:0:0:
159,139,248426,2,0,P|210:141|242:133,1,80,2|0,1:2|0:0,0:0:0:0:
296,68,248947,6,0,P|385:64|441:78,2,120,2|2|2,1:2|1:2|1:2,0:0:0:0:
129,127,250252,1,2,1:2:0:0:
182,197,250513,2,0,P|190:247|183:286,1,80,2|0,1:2|0:0,0:0:0:0:
125,340,251034,2,0,P|193:363|267:310,1,160,10|10,0:0|0:0,0:0:0:0:
308,147,252078,21,0,0:0:0:0:
