osu file format v14

[General]
AudioFilename: audio.mp3
AudioLeadIn: 0
PreviewTime: 85059
Countdown: 0
SampleSet: Normal
StackLeniency: 0.3
Mode: 0
LetterboxInBreaks: 0
WidescreenStoryboard: 0

[Editor]
Bookmarks: 18277
DistanceSpacing: 3.3
BeatDivisor: 4
GridSize: 8
TimelineZoom: 1.5

[Metadata]
Title:Oedo Controller (feat. TORIENA)
TitleUnicode:大江戸コントローラー (feat. TORIENA)
Artist:Yunomi
ArtistUnicode:Yunomi
Creator:Captain
Version:Expert
Source:大江戸コントローラー
Tags:J-pop Long Version
BeatmapID:1696124
BeatmapSetID:808247

[Difficulty]
HPDrainRate:6
CircleSize:4
OverallDifficulty:8.3
ApproachRate:9.6
SliderMultiplier:1.7
SliderTickRate:1

[Events]
//Background and Video events
0,0,"background.jpg",0,0
//Break Periods
//Storyboard Layer 0 (Background)
//Storyboard Layer 1 (Fail)
//Storyboard Layer 2 (Pass)
//Storyboard Layer 3 (Foreground)
//Storyboard Sound Samples

[TimingPoints]
2625,260.869565217391,4,2,1,65,1,0
2625,-100,4,2,1,65,0,0
10972,-83.3333333333333,4,1,1,80,0,0
18277,-71.4285714285714,4,3,1,90,0,0
19320,-76.9230769230769,4,1,1,85,0,0
36277,-100,4,1,1,75,0,0
42277,-133.333333333333,4,1,1,75,0,0
42798,-100,4,1,1,75,0,0
50624,-133.333333333333,4,1,1,75,0,0
51146,-100,4,1,1,75,0,0
69668,-100,4,2,1,70,0,0
75668,-100,4,3,1,70,0,0
77233,-83.3333333333333,4,1,1,70,0,0
79059,-100,4,1,1,70,0,0
79320,-83.3333333333333,4,1,1,70,0,0
81146,-100,4,1,1,70,0,0
81407,-83.3333333333333,4,1,1,70,0,0
82451,-71.4285714285714,4,1,1,70,0,0
85451,-71.4285714285714,4,3,1,80,0,0
86103,-66.6666666666667,4,1,1,80,0,0

[Colours]
Combo1 : 240,240,240
Combo2 : 245,201,252
Combo3 : 238,253,134
Combo4 : 183,251,244

[HitObjects]
256,192,538,12,0,2364,0:0:0:0:
348,187,2625,5,0,0:0:0:0:
451,211,2755,1,0,0:0:0:0:
481,334,2885,2,0,P|407:311|380:319,1,85
282,342,3146,1,0,0:0:0:0:
89,243,3407,6,0,P|131:265|174:267,1,85
286,267,3668,1,0,0:0:0:0:
375,228,3798,1,0,0:0:0:0:
411,142,3929,1,0,0:0:0:0:
379,56,4059,1,0,0:0:0:0:
292,17,4190,1,0,0:0:0:0:
181,107,4451,5,0,0:0:0:0:
243,252,4711,5,0,0:0:0:0:
104,207,4842,1,0,0:0:0:0:
52,224,4907,1,0,0:0:0:0:
20,259,4972,2,0,P|53:302|87:323,1,85
173,371,5233,1,0,0:0:0:0:
484,131,5494,5,0,0:0:0:0:
396,89,5624,1,0,0:0:0:0:
294,89,5755,2,0,P|228:113|189:149,1,85
186,153,5951,1,0,0:0:0:0:
188,203,6016,1,0,0:0:0:0:
250,315,6146,1,0,0:0:0:0:
375,350,6277,1,0,0:0:0:0:
271,181,6538,5,0,0:0:0:0:
58,85,6798,5,0,0:0:0:0:
152,54,6929,1,0,0:0:0:0:
255,79,7059,2,0,P|281:152|275:174,1,85
264,274,7320,1,0,0:0:0:0:
469,214,7581,2,0,P|426:285|417:286,1,85
333,329,7842,1,0,0:0:0:0:
217,329,7972,1,0,0:0:0:0:
119,231,8103,1,0,0:0:0:0:
219,203,8233,1,0,0:0:0:0:
303,132,8364,1,0,0:0:0:0:
184,62,8624,5,0,0:0:0:0:
89,154,8885,5,0,0:0:0:0:
201,230,9016,1,0,0:0:0:0:
244,251,9081,1,0,0:0:0:0:
284,265,9146,2,0,P|327:278|378:285,1,85
484,289,9407,1,0,0:0:0:0:
444,55,9668,1,0,0:0:0:0:
345,112,9798,1,0,0:0:0:0:
229,131,9929,2,0,P|183:188|176:231,1,85
176,248,10124,1,0,0:0:0:0:
201,292,10190,1,0,0:0:0:0:
317,347,10320,1,0,0:0:0:0:
432,316,10451,1,0,0:0:0:0:
377,125,10711,5,0,0:0:0:0:
208,147,10972,6,8,P|265:225|305:245,1,101.999996887207
431,343,11364,1,0,0:0:0:0:
467,315,11429,1,0,0:0:0:0:
487,272,11494,1,8,0:0:0:0:
439,88,11755,1,8,0:0:0:0:
339,68,11885,1,8,0:0:0:0:
245,97,12016,5,8,0:0:0:0:
86,196,12211,1,0,0:0:0:0:
249,225,12407,1,8,0:0:0:0:
308,314,12538,1,8,0:0:0:0:
479,160,12798,5,0,0:0:0:0:
412,66,13059,6,8,P|345:134|337:173,1,101.999996887207
173,220,13451,1,0,0:0:0:0:
139,189,13516,1,0,0:0:0:0:
140,143,13581,1,8,0:0:0:0:
328,42,13842,1,8,0:0:0:0:
430,112,13972,1,8,0:0:0:0:
455,263,14103,5,8,0:0:0:0:
263,204,14298,1,0,0:0:0:0:
98,288,14494,1,8,0:0:0:0:
208,340,14624,1,8,0:0:0:0:
419,329,14885,5,0,0:0:0:0:
466,222,15146,6,8,P|384:173|373:154,1,101.999996887207
283,41,15538,1,0,0:0:0:0:
239,51,15603,1,0,0:0:0:0:
216,87,15668,1,8,0:0:0:0:
198,192,15798,1,0,0:0:0:0:
258,272,15929,1,0,0:0:0:0:
349,294,16059,1,8,0:0:0:0:
429,246,16190,5,0,0:0:0:0:
426,198,16255,1,0,0:0:0:0:
391,159,16320,1,0,0:0:0:0:
348,139,16385,1,0,0:0:0:0:
305,131,16451,2,0,L|254:142,3,50.9999984436036
136,84,16711,5,8,0:0:0:0:
53,252,16907,1,8,0:0:0:0:
263,229,17103,1,8,0:0:0:0:
208,192,18277,6,0,L|148:192,1,59.4999981842042
304,192,18407,2,0,L|386:191,1,59.4999981842042
473,196,18603,1,0,0:0:0:0:
413,316,18798,1,0,0:0:0:0:
413,316,19059,1,0,0:0:0:0:
198,120,19320,5,4,0:0:0:0:
325,83,19451,1,0,0:0:0:0:
374,92,19516,1,0,0:0:0:0:
416,120,19581,2,0,P|448:176|448:240,1,110.499994941712
405,320,19842,2,0,P|309:344|196:298,1,220.999989883423
170,198,20233,5,0,0:0:0:0:
198,86,20364,2,0,P|250:74|345:99,1,110.499994941712
421,245,20624,2,0,P|381:292|297:313,1,110.499994941712
72,240,20885,2,0,B|157:334|281:254,1,220.999989883423
341,53,21407,5,4,0:0:0:0:
261,154,21538,1,0,0:0:0:0:
248,205,21603,1,0,0:0:0:0:
263,240,21668,2,0,P|306:266|372:270,1,110.499994941712
480,312,21929,2,0,P|375:355|261:324,1,220.999989883423
164,266,22320,5,0,0:0:0:0:
137,141,22451,2,0,P|163:75|223:48,1,110.499994941712
226,45,22646,1,0,0:0:0:0:
265,46,22711,1,0,0:0:0:0:
386,72,22842,1,0,0:0:0:0:
470,179,22972,2,2,B|486:318|349:350,1,220.999989883423
38,213,23494,5,4,0:0:0:0:
92,68,23624,1,0,0:0:0:0:
126,42,23690,1,0,0:0:0:0:
168,32,23755,2,0,P|272:48|312:64,1,110.499994941712
413,136,24016,2,0,P|447:226|356:317,1,220.999989883423
270,347,24407,5,0,0:0:0:0:
162,314,24538,2,0,P|98:258|91:223,1,110.499994941712
195,54,24798,2,0,P|265:71|324:113,1,110.499994941712
448,200,25059,2,0,B|380:279|354:283|257:236,1,220.999989883423
10,124,25581,5,4,0:0:0:0:
73,276,25711,1,0,0:0:0:0:
108,305,25777,1,0,0:0:0:0:
151,323,25842,2,0,P|192:338|283:340,1,110.499994941712
374,326,26103,2,0,P|425:271|380:141,1,220.999989883423
287,92,26494,1,0,0:0:0:0:
173,71,26625,1,0,0:0:0:0:
63,140,26755,1,0,0:0:0:0:
52,181,26820,1,0,0:0:0:0:
58,223,26885,2,0,P|102:284|152:291,1,110.499994941712
306,307,27146,2,2,P|426:278|490:198,1,220.999989883423
379,78,27668,5,4,0:0:0:0:
354,114,27733,1,0,0:0:0:0:
323,140,27798,1,0,0:0:0:0:
288,160,27864,1,0,0:0:0:0:
254,172,27929,2,0,P|223:178|138:167,1,110.499994941712
63,32,28190,2,0,B|144:114|273:81,1,220.999989883423
359,76,28581,5,0,0:0:0:0:
475,113,28711,2,0,P|470:175|427:220,1,110.499994941712
248,324,28972,2,0,P|227:256|195:218,1,110.499994941712
43,119,29233,2,0,B|104:174|161:167|254:122,1,220.999989883423
433,114,29755,5,4,0:0:0:0:
451,147,29820,1,0,0:0:0:0:
462,187,29885,1,0,0:0:0:0:
471,228,29951,1,0,0:0:0:0:
469,270,30016,2,0,B|467:359|383:363,1,110.499994941712
285,362,30277,2,0,P|174:329|134:296,1,165.749992412568
95,241,30538,6,0,P|88:163|137:113,1,110.499994941712
193,44,30798,2,0,P|270:54|302:75,1,110.499994941712
331,111,30994,1,0,0:0:0:0:
340,157,31059,1,0,0:0:0:0:
240,243,31190,1,0,0:0:0:0:
120,262,31320,2,2,B|13:157|119:39,1,220.999989883423
302,302,31842,5,4,0:0:0:0:
260,290,31907,1,0,0:0:0:0:
222,268,31972,1,0,0:0:0:0:
197,238,32038,1,0,0:0:0:0:
176,201,32103,2,0,P|158:132|181:85,1,110.499994941712
331,15,32364,2,0,P|436:114|442:189,1,220.999989883423
388,302,32755,5,0,0:0:0:0:
274,332,32885,2,0,P|219:297|187:227,1,110.499994941712
150,20,33146,2,0,P|211:84|214:133,1,110.499994941712
189,243,33407,2,0,B|41:212|94:44,1,220.999989883423
399,58,33929,5,4,0:0:0:0:
415,101,33994,1,0,0:0:0:0:
425,143,34059,1,0,0:0:0:0:
430,188,34124,1,0,0:0:0:0:
431,229,34190,2,0,P|417:299|366:341,1,110.499994941712
162,336,34451,2,0,P|234:306|251:204,1,165.749992412568
245,151,34711,6,0,P|240:98|263:41,1,110.499994941712
336,0,34972,1,0,0:0:0:0:
411,44,35103,1,0,0:0:0:0:
431,74,35168,1,0,0:0:0:0:
443,111,35233,1,0,0:0:0:0:
423,236,35364,1,0,0:0:0:0:
303,187,35494,1,0,0:0:0:0:
102,70,35755,6,0,B|50:136|123:195|52:260,1,165.749992412568
69,258,36016,1,4,0:0:0:0:
400,206,36277,5,0,0:0:0:0:
473,131,36407,1,0,0:0:0:0:
473,24,36538,2,0,P|371:44|297:97,1,170
253,175,36929,1,0,0:0:0:0:
234,289,37059,2,0,P|160:306|87:249,1,170
62,151,37451,1,0,0:0:0:0:
126,52,37581,6,0,P|163:55|217:82,1,85
293,340,37842,2,0,P|352:333|385:307,1,85
484,220,38103,2,0,P|363:230|300:243,1,170
189,264,38494,1,0,0:0:0:0:
79,185,38624,2,0,P|200:175|263:162,1,170
325,107,39016,1,0,0:0:0:0:
410,29,39146,5,0,0:0:0:0:
496,120,39277,1,0,0:0:0:0:
414,198,39407,1,0,0:0:0:0:
325,107,39538,2,0,P|264:71|215:78,1,85
83,68,39929,1,0,0:0:0:0:
103,285,40190,5,4,0:0:0:0:
348,300,40451,1,0,0:0:0:0:
435,248,40581,1,0,0:0:0:0:
460,145,40711,2,0,P|431:72|346:44,1,170
225,58,41103,1,0,0:0:0:0:
125,127,41233,6,0,P|85:204|91:284,1,170
191,337,41624,1,0,0:0:0:0:
303,312,41755,1,0,0:0:0:0:
375,231,41885,1,0,0:0:0:0:
375,123,42016,1,0,0:0:0:0:
292,52,42146,1,0,0:0:0:0:
183,39,42277,2,0,B|141:134|45:137|28:234,1,255.000009727478
463,336,43320,6,0,P|389:309|364:293,1,85
304,222,43581,1,0,0:0:0:0:
278,115,43711,1,0,0:0:0:0:
332,5,43842,2,0,P|378:41|398:88,1,85
183,305,44103,2,0,P|137:269|117:222,1,85
83,142,44364,1,4,0:0:0:0:
335,51,44624,5,0,0:0:0:0:
432,83,44755,1,0,0:0:0:0:
498,174,44885,2,0,P|409:177|326:202,1,170
250,266,45277,1,0,0:0:0:0:
159,339,45407,2,0,P|158:241|98:163,1,170
26,52,45798,6,0,P|68:78|111:80,1,85
197,66,46059,1,0,0:0:0:0:
295,55,46190,1,0,0:0:0:0:
395,67,46320,1,0,0:0:0:0:
478,113,46451,2,0,P|483:189|423:272,1,170
340,319,46842,5,0,0:0:0:0:
226,325,46972,2,0,P|138:279|95:211,1,170
67,119,47364,1,0,0:0:0:0:
154,38,47494,2,0,P|235:43|270:62,1,85
463,255,47755,2,0,P|427:280|385:287,1,85
90,280,48016,2,0,P|102:198|201:153,1,170
464,129,48538,5,4,0:0:0:0:
336,323,48798,1,0,0:0:0:0:
246,351,48929,1,0,0:0:0:0:
151,349,49059,2,0,P|74:318|29:232,1,170
32,140,49451,1,0,0:0:0:0:
72,44,49581,2,0,P|205:21|259:50,1,170
324,68,49972,5,0,0:0:0:0:
415,116,50103,1,0,0:0:0:0:
470,205,50233,2,0,P|475:270|464:301,1,85
330,312,50624,2,0,B|269:202|117:324|89:216,1,255.000009727478,0|0,3:3|3:3,3:3:0:0:
100,96,51407,1,0,3:3:0:0:
295,27,51668,6,0,P|384:83|412:152,1,170
348,283,52059,1,0,0:0:0:0:
217,357,52190,2,0,P|128:301|100:232,1,170
147,72,52711,5,4,0:0:0:0:
189,48,52777,1,0,0:0:0:0:
242,35,52842,1,0,0:0:0:0:
292,34,52907,1,0,0:0:0:0:
341,35,52972,2,0,P|408:73|435:101,1,85
484,161,53233,1,0,0:0:0:0:
255,117,53494,6,0,P|199:119|160:163,1,85
116,215,53755,1,0,0:0:0:0:
85,310,53885,1,0,0:0:0:0:
259,304,54016,1,0,0:0:0:0:
215,216,54146,1,0,0:0:0:0:
223,116,54277,2,0,P|255:64|366:49,1,170
426,184,54798,5,4,0:0:0:0:
404,224,54864,1,0,0:0:0:0:
369,259,54929,1,0,0:0:0:0:
329,285,54994,1,0,0:0:0:0:
287,304,55059,2,0,P|213:325|177:328,1,85
104,325,55320,2,0,P|31:278|65:189,1,170
112,114,55711,5,0,0:0:0:0:
419,168,55842,1,0,0:0:0:0:
236,262,55973,1,0,0:0:0:0:
439,294,56103,1,0,0:0:0:0:
293,148,56233,1,0,0:0:0:0:
326,352,56364,1,0,0:0:0:0:
326,352,56624,1,0,0:0:0:0:
129,216,56885,5,4,0:0:0:0:
145,167,56951,1,0,0:0:0:0:
170,128,57016,1,0,0:0:0:0:
207,91,57081,1,0,0:0:0:0:
242,67,57146,2,0,P|308:40|340:40,1,85
443,37,57407,1,0,0:0:0:0:
475,223,57668,6,0,P|433:277|411:284,1,85
313,274,57929,1,0,0:0:0:0:
115,89,58059,1,0,0:0:0:0:
124,317,58190,1,0,0:0:0:0:
258,121,58320,1,0,0:0:0:0:
33,206,58451,1,0,0:0:0:0:
257,276,58711,1,0,0:0:0:0:
433,285,58972,6,0,P|479:221|466:127,1,170
387,46,59364,1,0,0:0:0:0:
302,118,59494,2,0,P|281:192|316:289,1,170
239,333,60016,6,0,P|173:330|78:285,1,170
35,187,60407,1,0,0:0:0:0:
107,112,60538,2,0,P|202:98|266:49,1,170
488,201,61059,5,4,0:0:0:0:
486,250,61124,1,0,0:0:0:0:
464,293,61190,1,0,0:0:0:0:
439,329,61255,1,0,0:0:0:0:
403,350,61320,2,0,P|358:359|287:351,1,85
223,356,61581,6,0,P|123:328|73:257,1,170
124,182,61972,1,0,0:0:0:0:
226,219,62103,2,0,L|340:253,1,85
478,115,62364,2,0,L|376:89,1,85
288,64,62624,1,0,0:0:0:0:
105,83,62885,2,0,P|80:128|78:167,1,85
175,319,63146,5,4,0:0:0:0:
214,341,63211,1,0,0:0:0:0:
259,350,63277,1,0,0:0:0:0:
305,351,63342,1,0,0:0:0:0:
347,339,63407,2,0,P|395:315|421:288,1,85
483,205,63668,1,0,0:0:0:0:
442,44,63929,6,0,P|378:28|347:40,1,85
150,116,64190,1,0,0:0:0:0:
396,189,64320,1,0,0:0:0:0:
159,259,64451,1,0,0:0:0:0:
257,32,64581,1,0,0:0:0:0:
266,187,64711,1,0,0:0:0:0:
434,317,64972,2,0,P|379:336|329:330,1,85
134,257,65233,5,4,0:0:0:0:
103,228,65298,1,0,0:0:0:0:
75,193,65364,1,0,0:0:0:0:
63,155,65429,1,0,0:0:0:0:
61,110,65494,2,0,P|78:59|115:46,1,85
200,38,65755,6,0,P|279:47|364:87,1,170
454,158,66146,1,0,0:0:0:0:
470,269,66277,2,0,P|440:315|397:336,1,85
310,340,66538,1,0,0:0:0:0:
119,158,66668,1,0,0:0:0:0:
341,123,66798,1,0,0:0:0:0:
158,291,66929,1,0,0:0:0:0:
209,65,67059,6,0,P|279:37|387:51,1,170
408,60,67385,1,0,0:0:0:0:
443,88,67451,1,0,0:0:0:0:
466,133,67516,1,0,0:0:0:0:
472,176,67581,2,0,P|458:232|427:262,1,85
360,332,67842,1,0,0:0:0:0:
53,290,68103,6,0,B|92:288|92:288|123:218,1,85
165,138,68364,1,0,0:0:0:0:
289,81,68494,1,0,0:0:0:0:
331,90,68559,1,0,0:0:0:0:
368,115,68624,1,0,0:0:0:0:
416,239,68755,1,0,0:0:0:0:
286,309,68885,1,0,0:0:0:0:
112,108,69146,5,0,0:0:0:0:
202,76,69277,1,0,0:0:0:0:
298,52,69407,1,4,0:0:0:0:
449,128,69668,5,8,0:0:0:0:
379,212,69929,1,8,0:0:0:0:
312,124,70190,1,8,0:0:0:0:
244,208,70451,1,8,0:0:0:0:
175,119,70711,1,8,0:0:0:0:
135,162,70842,1,8,0:0:0:0:
98,205,70972,1,10,0:0:0:0:
38,118,71233,1,8,0:0:0:0:
56,23,71494,6,8,P|154:7|251:39,1,170
470,122,72016,2,8,P|386:127|298:153,1,170
61,191,72538,1,8,0:0:0:0:
127,247,72668,1,8,0:0:0:0:
217,245,72798,1,10,0:0:0:0:
392,234,73059,2,8,P|445:204|481:87,1,170
440,34,73451,1,10,0:0:0:0:
358,19,73581,1,4,0:0:0:0:
195,79,73842,5,8,0:0:0:0:
96,174,74103,1,8,0:0:0:0:
196,269,74364,1,8,0:0:0:0:
292,174,74624,1,8,0:0:0:0:
389,78,74885,1,8,0:0:0:0:
452,131,75016,1,8,0:0:0:0:
477,208,75146,1,10,0:0:0:0:
406,330,75407,1,8,0:0:0:0:
203,311,75668,6,0,L|158:274,5,56.6666666666667
58,122,76190,6,0,L|109:164,5,56.6666666666667
266,46,76711,6,0,L|208:92,5,56.6666666666667
349,34,77233,6,0,P|412:75|390:307,1,305.999990661621
330,337,77755,1,12,0:0:0:0:
195,286,77885,1,8,0:0:0:0:
209,59,78146,1,0,0:0:0:0:
249,40,78211,1,0,0:0:0:0:
295,39,78277,1,8,0:0:0:0:
408,168,78538,1,8,0:0:0:0:
284,222,78668,1,8,0:0:0:0:
132,199,78798,6,8,P|189:120|261:95,1,152.999995330811
276,86,79059,2,8,P|333:80|372:90,2,85
292,222,79581,1,4,0:0:0:0:
162,352,79842,5,8,0:0:0:0:
301,290,79972,1,8,0:0:0:0:
452,112,80233,1,0,0:0:0:0:
421,137,80298,1,0,0:0:0:0:
389,151,80364,1,8,0:0:0:0:
170,223,80624,1,8,0:0:0:0:
271,301,80755,1,8,0:0:0:0:
390,317,80885,6,8,B|421:310|480:274|446:177,1,152.999995330811
438,161,81146,2,8,P|399:117|371:109,2,85
263,239,81668,1,4,0:0:0:0:
54,183,81929,6,8,P|76:258|114:277,1,101.999996887207
335,222,82190,2,0,P|332:158|304:123,1,101.999996887207
66,90,82451,2,8,P|41:187|65:235,1,118.999996368408
319,310,82711,2,8,P|345:250|340:190,1,118.999996368408
280,64,82972,5,8,0:0:0:0:
102,152,83103,1,8,0:0:0:0:
392,168,83233,1,0,0:0:0:0:
120,64,83364,1,8,0:0:0:0:
344,256,83494,1,8,0:0:0:0:
192,32,83624,1,0,0:0:0:0:
96,272,83755,1,8,0:0:0:0:
352,112,83885,1,8,0:0:0:0:
205,314,84016,6,0,P|176:249|176:245,3,59.4999981842042
170,235,84277,2,0,P|175:168|182:152,3,59.4999981842042
180,136,84538,5,0,0:0:0:0:
199,97,84603,1,0,0:0:0:0:
227,73,84668,1,0,0:0:0:0:
267,65,84733,1,0,0:0:0:0:
306,77,84798,1,0,0:0:0:0:
335,103,84864,1,0,0:0:0:0:
349,141,84929,1,0,0:0:0:0:
350,178,84994,1,0,0:0:0:0:
349,219,85059,5,0,0:0:0:0:
65,187,85451,5,0,0:0:0:0:
65,187,85516,1,0,0:0:0:0:
65,187,85581,2,0,B|152:144|152:144|192:168|296:184,1,237.999992736817
448,184,86103,1,4,0:0:0:0:
