osu file format v14

[General]
AudioFilename: audio.mp3
AudioLeadIn: 0
PreviewTime: -1
Countdown: 0
SampleSet: Soft
StackLeniency: 0.7
Mode: 0
LetterboxInBreaks: 0
WidescreenStoryboard: 0

[Editor]
Bookmarks: 10972,18277,19320,36016,52711,69407,77755,86103,102798,119494,127842,136190,152885,169581,186277,202972,219668,236364,252538
DistanceSpacing: 1.5
BeatDivisor: 4
GridSize: 8
TimelineZoom: 2.3

[Metadata]
Title:Oedo Controller (feat. TORIENA)
TitleUnicode:Oedo Controller (feat. TORIENA)
Artist:Yunomi
ArtistUnicode:Yunomi
Creator:[ Turtle ]
Version:tantan
Source:
Tags:
BeatmapID:1187229
BeatmapSetID:561551

[Difficulty]
HPDrainRate:7
CircleSize:4.2
OverallDifficulty:7
ApproachRate:9.4
SliderMultiplier:1.4
SliderTickRate:1

[Events]
//Background and Video events
0,0,"osu map bg.jpg",0,0
//Break Periods
//Storyboard Layer 0 (Background)
//Storyboard Layer 1 (Fail)
//Storyboard Layer 2 (Pass)
//Storyboard Layer 3 (Foreground)
//Storyboard Sound Samples

[TimingPoints]
2625,260.869565217391,4,1,0,100,1,0
18277,-133.333333333333,4,2,0,100,0,0
19320,-100,4,1,0,100,0,1
36016,-100,4,2,0,100,0,0

[Colours]
Combo1 : 192,192,192
Combo2 : 0,128,255
Combo3 : 192,192,192
Combo4 : 0,128,255

[HitObjects]
368,152,2625,6,0,P|368:192|360:232,1,70
360,240,2885,1,0,0:0:0:0:
240,320,3016,1,0,0:0:0:0:
240,320,3081,1,0,0:0:0:0:
240,320,3146,1,0,0:0:0:0:
192,160,3277,2,0,P|185:125|166:96,1,70
48,64,3538,1,0,0:0:0:0:
40,192,3668,2,0,P|40:256|48:288,1,70
48,288,3929,1,0,0:0:0:0:
192,168,4059,1,0,0:0:0:0:
288,312,4190,2,0,P|328:272|344:240,1,70
352,232,4451,1,0,0:0:0:0:
464,120,4581,1,0,0:0:0:0:
432,304,4711,6,0,P|392:296|360:280,1,70
304,232,4972,1,0,0:0:0:0:
264,160,5103,2,0,P|248:112|224:80,1,70
168,32,5364,1,0,0:0:0:0:
96,48,5494,2,0,B|72:88|72:88|64:120,1,70
72,256,5755,2,0,P|104:208|120:192,1,70
200,104,6016,2,0,P|224:144|232:176,1,70
288,288,6277,2,0,P|320:240|328:200,1,70
328,192,6538,1,0,0:0:0:0:
304,56,6668,1,0,0:0:0:0:
216,160,6798,6,0,P|184:208|160:224,1,70
48,232,7059,1,0,0:0:0:0:
168,320,7190,2,0,P|224:304|256:304,1,70
344,304,7451,1,0,0:0:0:0:
456,288,7581,2,0,P|432:240|400:208,1,70
336,144,7842,2,0,P|312:112|304:64,1,70
304,56,8103,1,0,0:0:0:0:
200,176,8233,1,0,0:0:0:0:
224,32,8364,1,0,0:0:0:0:
80,80,8494,1,0,0:0:0:0:
80,80,8559,1,0,0:0:0:0:
80,80,8624,1,0,0:0:0:0:
184,176,8755,1,0,0:0:0:0:
56,288,8885,6,0,P|96:320|136:336,1,70
224,320,9146,1,0,0:0:0:0:
224,320,9277,1,0,0:0:0:0:
288,208,9407,2,0,P|312:240|328:288,1,70
336,296,9668,1,0,0:0:0:0:
464,224,9798,2,0,P|472:168|464:136,1,70
424,48,10059,1,0,0:0:0:0:
328,168,10190,1,0,0:0:0:0:
256,64,10320,2,0,P|224:24|192:0,1,70
192,152,10581,1,0,0:0:0:0:
96,64,10711,6,0,P|64:120|64:144,1,70
80,240,10972,2,0,P|80:296|72:320,1,70
64,344,11233,1,0,0:0:0:0:
192,208,11364,1,0,0:0:0:0:
232,352,11494,1,0,0:0:0:0:
384,88,11755,2,0,P|408:144|408:168,1,70
352,256,12016,1,0,0:0:0:0:
272,128,12146,1,0,0:0:0:0:
248,88,12211,1,0,0:0:0:0:
208,72,12277,1,0,0:0:0:0:
112,152,12407,2,0,P|80:192|72:224,1,70
176,208,12798,2,0,P|232:160|256:160,1,70
280,328,13059,6,0,P|232:288|224:272,1,70
200,168,13320,1,0,0:0:0:0:
360,256,13451,1,0,0:0:0:0:
304,88,13581,1,0,0:0:0:0:
448,216,13842,2,0,P|416:176|392:160,1,70
288,104,14103,1,0,0:0:0:0:
272,264,14233,1,0,0:0:0:0:
240,304,14298,1,0,0:0:0:0:
192,320,14364,1,0,0:0:0:0:
80,288,14494,2,0,P|32:248|0:232,1,70
144,48,15146,6,0,P|168:88|176:136,1,70
144,256,15407,1,0,0:0:0:0:
296,104,15538,1,0,0:0:0:0:
296,104,15603,1,0,0:0:0:0:
296,104,15668,1,0,0:0:0:0:
376,288,15929,1,0,0:0:0:0:
200,144,16059,1,0,0:0:0:0:
144,304,16190,1,0,0:0:0:0:
168,320,16255,1,0,0:0:0:0:
192,320,16320,1,0,0:0:0:0:
216,304,16385,1,0,0:0:0:0:
232,280,16451,1,0,0:0:0:0:
248,264,16516,1,0,0:0:0:0:
272,256,16581,1,0,0:0:0:0:
296,256,16646,1,0,0:0:0:0:
320,256,16711,2,0,P|360:264|400:240,1,70
400,240,16907,1,0,0:0:0:0:
440,152,17103,1,0,0:0:0:0:
336,48,18277,6,0,P|312:80|312:104,1,52.5000020027161
312,128,18472,2,0,P|304:168|280:184,1,52.5000020027161
272,192,18668,2,0,P|240:208|224:240,1,52.5000020027161
192,344,19059,1,0,0:0:0:0:
48,64,19320,6,0,B|88:96|48:152|88:192,1,105
88,184,19581,1,0,0:0:0:0:
248,72,19711,2,0,L|224:104,1,35
136,256,19842,2,0,B|176:232|208:248|256:208,1,105
256,216,20103,1,0,0:0:0:0:
216,352,20233,1,0,0:0:0:0:
272,192,20364,1,0,0:0:0:0:
448,224,20494,2,0,L|424:184,1,35
312,48,20624,2,0,L|264:80,1,35
256,96,20755,2,0,L|224:144,1,35
216,160,20885,1,0,0:0:0:0:
144,24,21146,1,0,0:0:0:0:
64,248,21407,6,0,B|112:224|120:192|176:192,1,105
176,192,21668,1,0,0:0:0:0:
128,352,21798,1,0,0:0:0:0:
288,192,21929,2,0,P|280:144|240:96,1,105
216,80,22190,1,0,0:0:0:0:
88,256,22320,2,0,L|120:216,1,35
176,136,22451,1,0,0:0:0:0:
288,184,22581,1,0,0:0:0:0:
320,208,22646,1,0,0:0:0:0:
344,248,22711,1,0,0:0:0:0:
400,96,22842,1,0,0:0:0:0:
352,248,22972,1,0,0:0:0:0:
224,200,23233,1,0,0:0:0:0:
384,96,23494,6,0,B|384:136|344:152|352:200,1,105
360,216,23755,1,0,0:0:0:0:
256,72,23885,1,0,0:0:0:0:
192,232,24016,2,0,B|168:272|128:280|120:320,1,105
120,328,24277,1,0,0:0:0:0:
304,256,24407,1,0,0:0:0:0:
96,200,24538,1,0,0:0:0:0:
240,96,24668,1,0,0:0:0:0:
248,96,24798,2,0,P|283:116|289:133,1,35,0|0,0:0|0:0,0:0:0:0:
295,138,24928,2,0,P|325:176|342:180,1,35,0|0,0:0|0:0,0:0:0:0:
337,187,25059,1,0,0:0:0:0:
392,320,25320,1,0,0:0:0:0:
72,80,25581,6,0,B|112:112|112:144|152:160,1,105
152,160,25842,1,0,0:0:0:0:
136,24,25972,1,0,0:0:0:0:
256,136,26103,2,0,B|296:80|288:64|312:40,1,105
320,40,26364,1,0,0:0:0:0:
424,184,26494,2,0,L|400:216,1,35
384,232,26624,1,0,0:0:0:0:
288,336,26755,1,0,0:0:0:0:
256,360,26820,1,0,0:0:0:0:
208,360,26885,1,0,0:0:0:0:
104,272,27016,2,0,P|40:240|24:240,1,70
43,240,27407,1,0,0:0:0:0:
208,328,27668,5,0,0:0:0:0:
232,320,27733,1,0,0:0:0:0:
256,304,27798,1,0,0:0:0:0:
272,280,27864,1,0,0:0:0:0:
280,256,27929,1,0,0:0:0:0:
296,232,27994,1,0,0:0:0:0:
312,208,28059,2,0,P|344:192|360:192,1,35
368,176,28190,2,0,B|392:152|384:104|440:88,1,105
440,80,28451,5,0,0:0:0:0:
288,120,28581,1,0,0:0:0:0:
200,16,28711,2,0,P|176:24|152:40,1,35
136,48,28842,2,0,L|112:80,1,35
96,112,28972,2,0,L|88:160,1,35
88,184,29103,1,0,0:0:0:0:
224,120,29233,1,0,0:0:0:0:
160,256,29494,1,0,0:0:0:0:
328,16,29755,5,0,0:0:0:0:
248,120,29885,1,0,0:0:0:0:
240,160,29951,1,0,0:0:0:0:
256,192,30016,1,0,0:0:0:0:
352,264,30146,2,0,P|368:304|368:344,1,70
472,216,30407,1,0,0:0:0:0:
360,144,30538,2,0,P|304:128|264:144,1,70
192,192,30798,1,0,0:0:0:0:
96,128,30929,1,0,0:0:0:0:
64,104,30994,1,0,0:0:0:0:
48,64,31059,1,0,0:0:0:0:
176,8,31190,2,0,P|232:32|272:32,1,70
352,88,31581,5,0,0:0:0:0:
208,208,31842,5,0,0:0:0:0:
200,232,31907,1,0,0:0:0:0:
200,256,31972,1,0,0:0:0:0:
208,288,32038,1,0,0:0:0:0:
232,312,32103,1,0,0:0:0:0:
264,320,32168,1,0,0:0:0:0:
296,304,32233,1,0,0:0:0:0:
328,280,32298,1,0,0:0:0:0:
352,264,32364,2,0,B|384:256|392:224|416:208,1,70
496,120,32624,5,0,0:0:0:0:
368,16,32755,1,0,0:0:0:0:
344,160,32885,1,0,0:0:0:0:
440,48,33016,1,0,0:0:0:0:
416,176,33146,1,0,0:0:0:0:
312,80,33277,2,0,P|272:72|232:80,1,70
96,160,33668,1,0,0:0:0:0:
130,58,33929,6,0,P|170:82|193:139,1,105
192,133,34190,1,0,0:0:0:0:
235,266,34320,1,0,0:0:0:0:
286,119,34451,2,0,P|323:89|388:86,1,105
378,83,34711,1,0,0:0:0:0:
293,217,34842,1,0,0:0:0:0:
418,286,34972,1,0,0:0:0:0:
310,338,35103,1,0,0:0:0:0:
277,359,35168,1,0,0:0:0:0:
233,362,35233,1,0,0:0:0:0:
109,315,35364,2,0,P|80:284|55:267,1,70
