osu file format v14

[General]
AudioFilename: audio.mp3
AudioLeadIn: 0
PreviewTime: 78498
Countdown: 0
SampleSet: Normal
StackLeniency: 0.7
Mode: 1
LetterboxInBreaks: 0
WidescreenStoryboard: 0

[Editor]
Bookmarks: 5746
DistanceSpacing: 1.2
BeatDivisor: 4
GridSize: 4
TimelineZoom: 2.2

[Metadata]
Title:Mitarashi Platonic (feat. nicamoq)
TitleUnicode:みたらしプラトニック (feat. nicamoq)
Artist:Yunomi
ArtistUnicode:Yunomi
Creator:komasy
Version:Oni
Source:MÚSECA 1+1/2
Tags:jubeat clan MUSECA
BeatmapID:1417326
BeatmapSetID:670088

[Difficulty]
HPDrainRate:5
CircleSize:2
OverallDifficulty:5
ApproachRate:5
SliderMultiplier:1.4
SliderTickRate:1

[Events]
//Background and Video events
0,0,"bg.jpg",0,70
//Break Periods
//Storyboard Layer 0 (Background)
//Storyboard Layer 1 (Fail)
//Storyboard Layer 2 (Pass)
//Storyboard Layer 3 (Foreground)
//Storyboard Sound Samples

[TimingPoints]
592,375,4,1,0,70,1,0
6498,-100,4,1,0,85,0,0
18498,-100,4,1,0,95,0,0
18592,-100,4,1,0,95,0,1
30217,-100,4,1,0,95,0,0
30592,-100,4,1,0,95,0,1
42592,-100,4,1,0,80,0,0
54592,-100,4,1,0,85,0,0
72592,-100,4,1,0,95,0,0
77092,-100,4,1,0,75,0,0
78123,-100,4,1,0,85,0,0
78498,-100,4,1,0,95,0,0
78592,-100,4,1,0,95,0,1
90029,-100,4,1,0,95,0,0
90592,-100,4,1,0,95,0,1
102217,-100,4,1,0,95,0,0
102592,-100,4,1,0,95,0,1
113842,-100,4,1,0,95,0,0

[HitObjects]
248,188,592,5,0,0:0:0:0:
208,208,1342,1,0,0:0:0:0:
208,208,2092,1,0,0:0:0:0:
208,208,2467,1,0,0:0:0:0:
208,208,2842,1,0,0:0:0:0:
228,232,3592,1,8,0:0:0:0:
228,232,4342,1,8,0:0:0:0:
400,276,5092,1,8,0:0:0:0:
332,244,5279,1,8,0:0:0:0:
368,192,5373,1,8,0:0:0:0:
400,276,5467,1,8,0:0:0:0:
344,216,5654,1,8,0:0:0:0:
400,276,5842,1,0,0:0:0:0:
252,208,6217,1,8,0:0:0:0:
200,128,6592,1,8,0:0:0:0:
200,128,6967,1,8,0:0:0:0:
264,76,7154,1,0,0:0:0:0:
200,128,7342,1,8,0:0:0:0:
200,128,7717,1,8,0:0:0:0:
264,76,7904,1,0,0:0:0:0:
200,128,8092,1,8,0:0:0:0:
256,80,8279,1,0,0:0:0:0:
292,52,8373,1,0,0:0:0:0:
324,92,8467,1,8,0:0:0:0:
276,64,8654,1,0,0:0:0:0:
200,128,8842,1,8,0:0:0:0:
276,64,9217,1,0,0:0:0:0:
200,128,9592,1,8,0:0:0:0:
200,128,9967,1,8,0:0:0:0:
264,76,10154,1,0,0:0:0:0:
200,128,10342,1,8,0:0:0:0:
200,128,10717,1,8,0:0:0:0:
264,76,10904,1,0,0:0:0:0:
200,128,11092,1,8,0:0:0:0:
256,80,11279,1,0,0:0:0:0:
292,52,11373,1,0,0:0:0:0:
316,68,11467,1,8,0:0:0:0:
276,64,11654,1,0,0:0:0:0:
200,128,11842,1,8,0:0:0:0:
236,64,12029,1,0,0:0:0:0:
260,24,12217,1,12,0:0:0:0:
200,128,12592,1,0,0:0:0:0:
288,32,12873,1,8,0:0:0:0:
208,128,13154,1,8,0:0:0:0:
260,64,13342,1,0,0:0:0:0:
276,48,13623,1,8,0:0:0:0:
276,48,13904,1,8,0:0:0:0:
276,48,14092,1,0,0:0:0:0:
276,48,14373,1,0,0:0:0:0:
304,120,14467,1,8,0:0:0:0:
276,48,14654,1,8,0:0:0:0:
276,48,14842,1,0,0:0:0:0:
276,48,15123,1,8,0:0:0:0:
304,120,15217,1,0,0:0:0:0:
336,128,15404,1,8,0:0:0:0:
132,204,15592,1,0,0:0:0:0:
136,188,15685,1,0,0:0:0:0:
172,152,15779,1,8,0:0:0:0:
192,132,15873,1,8,0:0:0:0:
216,108,15967,1,0,0:0:0:0:
260,68,16154,1,8,0:0:0:0:
228,124,16342,1,0,0:0:0:0:
296,116,16435,1,8,0:0:0:0:
320,120,16529,1,8,0:0:0:0:
296,116,16623,1,0,0:0:0:0:
320,120,16717,1,8,0:0:0:0:
320,120,16904,1,8,0:0:0:0:
320,120,16998,1,8,0:0:0:0:
328,140,17092,1,0,0:0:0:0:
416,260,18217,1,12,0:0:0:0:
300,140,18592,1,4,0:0:0:0:
348,152,19154,1,0,0:0:0:0:
348,152,19342,1,8,0:0:0:0:
356,116,19717,1,0,0:0:0:0:
328,192,19904,1,8,0:0:0:0:
252,132,20092,1,0,0:0:0:0:
252,132,20279,1,0,0:0:0:0:
252,132,20467,1,8,0:0:0:0:
264,264,20654,1,0,0:0:0:0:
320,208,20842,1,8,0:0:0:0:
288,268,21029,1,0,0:0:0:0:
288,268,21123,1,0,0:0:0:0:
308,232,21217,1,8,0:0:0:0:
216,216,21404,1,8,0:0:0:0:
140,208,21592,1,0,0:0:0:0:
292,148,21967,1,8,0:0:0:0:
340,72,22154,1,0,0:0:0:0:
276,120,22342,1,8,0:0:0:0:
408,24,22717,1,0,0:0:0:0:
344,68,22904,1,8,0:0:0:0:
292,124,22998,1,8,0:0:0:0:
284,104,23092,1,0,0:0:0:0:
296,116,23279,1,0,0:0:0:0:
376,136,23467,1,8,0:0:0:0:
268,108,23654,1,0,0:0:0:0:
268,108,23748,1,0,0:0:0:0:
268,108,23842,1,8,0:0:0:0:
312,224,24217,1,12,0:0:0:0:
300,140,24592,1,4,0:0:0:0:
348,152,25154,1,0,0:0:0:0:
348,152,25342,1,8,0:0:0:0:
356,116,25717,1,0,0:0:0:0:
328,192,25904,1,8,0:0:0:0:
256,148,26092,1,0,0:0:0:0:
184,104,26279,1,0,0:0:0:0:
252,148,26467,1,8,0:0:0:0:
264,264,26654,1,0,0:0:0:0:
320,208,26842,1,8,0:0:0:0:
288,268,27029,1,0,0:0:0:0:
288,268,27123,1,0,0:0:0:0:
308,232,27217,1,8,0:0:0:0:
392,220,27404,1,8,0:0:0:0:
140,208,27592,1,0,0:0:0:0:
264,124,27967,1,8,0:0:0:0:
340,72,28154,1,0,0:0:0:0:
276,120,28342,1,8,0:0:0:0:
408,24,28717,1,0,0:0:0:0:
344,68,28904,1,8,0:0:0:0:
284,104,29092,1,0,0:0:0:0:
268,108,29279,1,8,0:0:0:0:
268,108,29373,1,0,0:0:0:0:
268,108,29467,5,8,0:0:0:0:
268,108,29654,1,0,0:0:0:0:
268,108,29842,1,8,0:0:0:0:
292,124,29935,1,8,0:0:0:0:
308,136,30029,1,0,0:0:0:0:
312,224,30217,1,12,0:0:0:0:
200,108,30592,1,4,0:0:0:0:
380,224,30967,1,8,0:0:0:0:
360,200,31154,1,8,0:0:0:0:
360,200,31342,1,0,0:0:0:0:
328,212,31717,1,0,0:0:0:0:
328,212,31904,1,8,0:0:0:0:
260,164,32092,1,0,0:0:0:0:
332,216,32279,1,8,0:0:0:0:
300,188,32373,1,8,0:0:0:0:
300,188,32467,1,0,0:0:0:0:
300,188,32654,1,8,0:0:0:0:
300,188,32842,1,0,0:0:0:0:
348,244,33029,1,8,0:0:0:0:
348,244,33123,1,0,0:0:0:0:
320,232,33217,1,8,0:0:0:0:
236,200,33404,1,8,0:0:0:0:
296,136,33592,5,0,0:0:0:0:
380,224,33967,1,0,0:0:0:0:
360,200,34154,1,8,0:0:0:0:
360,200,34342,1,0,0:0:0:0:
328,212,34717,1,0,0:0:0:0:
328,212,34904,1,8,0:0:0:0:
260,164,35092,1,0,0:0:0:0:
332,216,35279,1,8,0:0:0:0:
300,188,35373,1,0,0:0:0:0:
300,188,35467,1,0,0:0:0:0:
300,188,35654,1,8,0:0:0:0:
300,188,35842,1,0,0:0:0:0:
348,244,36029,1,8,0:0:0:0:
348,244,36123,1,0,0:0:0:0:
320,232,36217,1,8,0:0:0:0:
236,200,36404,1,0,0:0:0:0:
296,136,36592,5,4,0:0:0:0:
380,224,36967,1,8,0:0:0:0:
360,200,37154,1,8,0:0:0:0:
360,200,37342,1,0,0:0:0:0:
328,212,37717,1,0,0:0:0:0:
328,212,37904,1,8,0:0:0:0:
260,164,38092,1,0,0:0:0:0:
332,216,38279,1,8,0:0:0:0:
300,188,38373,1,8,0:0:0:0:
300,188,38467,1,0,0:0:0:0:
300,188,38654,1,8,0:0:0:0:
300,188,38842,1,0,0:0:0:0:
348,244,39029,1,8,0:0:0:0:
348,244,39123,1,0,0:0:0:0:
320,232,39217,1,8,0:0:0:0:
236,200,39404,1,8,0:0:0:0:
296,136,39592,5,4,0:0:0:0:
348,244,39967,1,8,0:0:0:0:
272,180,40342,1,4,0:0:0:0:
412,244,40717,1,8,0:0:0:0:
300,196,41092,1,4,0:0:0:0:
436,272,41467,1,4,0:0:0:0:
304,196,41654,1,8,0:0:0:0:
304,196,41842,1,4,0:0:0:0:
456,260,42217,1,12,0:0:0:0:
288,228,44092,1,0,0:0:0:0:
172,268,44373,1,0,0:0:0:0:
276,232,44654,1,0,0:0:0:0:
204,256,44842,1,0,0:0:0:0:
160,188,45029,1,8,0:0:0:0:
372,248,45217,1,8,0:0:0:0:
216,164,45592,1,4,0:0:0:0:
368,248,45967,1,8,0:0:0:0:
432,284,46154,1,8,0:0:0:0:
436,288,46342,1,0,0:0:0:0:
464,304,46717,1,0,0:0:0:0:
464,304,46904,1,8,0:0:0:0:
464,304,47092,1,0,0:0:0:0:
388,268,47279,1,0,0:0:0:0:
312,228,47467,1,8,0:0:0:0:
272,168,47654,1,8,0:0:0:0:
272,168,47842,1,0,0:0:0:0:
376,204,48123,1,0,0:0:0:0:
336,188,48217,1,8,0:0:0:0:
336,188,48404,1,0,0:0:0:0:
264,144,48592,1,0,0:0:0:0:
424,168,48967,1,8,0:0:0:0:
276,144,49342,1,0,0:0:0:0:
352,156,49529,1,0,0:0:0:0:
352,156,49717,1,8,0:0:0:0:
240,272,50092,1,0,0:0:0:0:
340,268,50279,1,8,0:0:0:0:
392,268,50373,1,8,0:0:0:0:
436,264,50467,1,0,0:0:0:0:
436,264,50654,1,0,0:0:0:0:
436,264,50842,1,8,0:0:0:0:
364,156,51123,1,0,0:0:0:0:
348,128,51217,1,8,0:0:0:0:
300,40,51404,1,8,0:0:0:0:
344,120,51592,1,0,0:0:0:0:
320,76,51967,1,8,0:0:0:0:
320,76,52154,1,8,0:0:0:0:
320,76,52342,1,0,0:0:0:0:
320,76,52717,1,0,0:0:0:0:
320,76,52904,1,8,0:0:0:0:
320,76,53092,1,0,0:0:0:0:
320,76,53373,1,0,0:0:0:0:
320,76,53467,1,0,0:0:0:0:
320,76,53654,1,0,0:0:0:0:
324,80,53842,1,8,0:0:0:0:
336,176,54029,1,0,0:0:0:0:
380,184,54123,1,0,0:0:0:0:
412,160,54217,1,8,0:0:0:0:
440,140,54592,1,4,0:0:0:0:
272,180,54967,1,0,0:0:0:0:
352,200,55154,1,8,0:0:0:0:
280,168,55342,1,0,0:0:0:0:
188,156,55529,1,0,0:0:0:0:
348,184,55717,1,8,0:0:0:0:
348,184,56092,1,0,0:0:0:0:
348,184,56279,1,8,0:0:0:0:
348,184,56373,1,8,0:0:0:0:
348,184,56467,1,0,0:0:0:0:
348,184,56654,1,0,0:0:0:0:
260,184,56842,1,8,0:0:0:0:
304,208,57123,1,0,0:0:0:0:
304,208,57217,1,8,0:0:0:0:
312,144,57404,1,8,0:0:0:0:
300,220,57592,1,0,0:0:0:0:
460,204,57967,1,0,0:0:0:0:
392,208,58154,1,8,0:0:0:0:
472,204,58342,1,0,0:0:0:0:
472,300,58717,1,0,0:0:0:0:
408,248,58904,1,8,0:0:0:0:
340,192,59092,1,0,0:0:0:0:
304,120,59279,1,8,0:0:0:0:
304,120,59373,1,8,0:0:0:0:
304,120,59467,1,0,0:0:0:0:
332,192,59654,1,8,0:0:0:0:
308,128,59842,1,0,0:0:0:0:
408,248,60029,1,8,0:0:0:0:
408,248,60123,1,8,0:0:0:0:
408,248,60217,1,8,0:0:0:0:
488,292,60404,1,0,0:0:0:0:
508,304,60498,1,0,0:0:0:0:
508,304,60592,1,0,0:0:0:0:
396,240,60967,1,0,0:0:0:0:
396,240,61154,1,8,0:0:0:0:
396,240,61342,1,0,0:0:0:0:
328,200,61529,1,0,0:0:0:0:
396,240,61717,1,8,0:0:0:0:
396,240,62092,1,0,0:0:0:0:
396,240,62279,1,8,0:0:0:0:
396,240,62373,1,8,0:0:0:0:
396,240,62467,1,0,0:0:0:0:
396,240,62654,1,0,0:0:0:0:
396,240,62842,1,8,0:0:0:0:
396,240,63123,1,0,0:0:0:0:
396,240,63217,1,8,0:0:0:0:
396,240,63404,1,8,0:0:0:0:
396,240,63592,1,0,0:0:0:0:
320,248,63967,1,0,0:0:0:0:
408,240,64154,1,8,0:0:0:0:
308,252,64342,1,0,0:0:0:0:
360,244,64717,1,0,0:0:0:0:
360,244,64904,1,8,0:0:0:0:
360,244,65092,1,0,0:0:0:0:
304,204,65279,1,8,0:0:0:0:
360,244,65373,1,0,0:0:0:0:
360,244,65467,1,0,0:0:0:0:
288,216,65654,1,8,0:0:0:0:
364,236,65842,1,0,0:0:0:0:
288,212,66029,1,8,0:0:0:0:
316,220,66123,1,8,0:0:0:0:
296,196,66217,1,8,0:0:0:0:
316,220,66404,1,8,0:0:0:0:
300,200,66498,1,8,0:0:0:0:
316,220,66592,1,0,0:0:0:0:
160,228,66967,1,8,0:0:0:0:
320,220,67342,1,8,0:0:0:0:
156,228,67717,1,8,0:0:0:0:
224,180,67904,1,0,0:0:0:0:
300,292,68092,1,8,0:0:0:0:
300,292,68467,1,8,0:0:0:0:
300,292,68842,1,8,0:0:0:0:
140,352,69217,1,0,0:0:0:0:
304,292,69592,1,8,0:0:0:0:
144,348,69967,1,8,0:0:0:0:
196,296,70154,1,0,0:0:0:0:
324,312,70342,1,8,0:0:0:0:
160,344,70717,1,8,0:0:0:0:
236,328,70904,1,0,0:0:0:0:
304,316,71092,1,8,0:0:0:0:
192,256,71373,1,0,0:0:0:0:
304,316,71467,1,8,0:0:0:0:
192,256,71654,1,0,0:0:0:0:
304,316,71842,1,8,0:0:0:0:
304,316,72217,1,12,0:0:0:0:
344,160,72592,1,0,0:0:0:0:
312,284,72873,1,0,0:0:0:0:
312,284,72967,1,8,0:0:0:0:
328,208,73154,1,8,0:0:0:0:
348,128,73342,1,0,0:0:0:0:
328,196,73623,1,8,0:0:0:0:
320,232,73717,1,0,0:0:0:0:
352,132,73904,1,8,0:0:0:0:
320,212,74092,1,0,0:0:0:0:
376,176,74373,1,0,0:0:0:0:
420,148,74467,1,8,0:0:0:0:
376,176,74654,1,8,0:0:0:0:
376,176,74842,1,0,0:0:0:0:
376,176,75123,1,8,0:0:0:0:
368,148,75217,1,0,0:0:0:0:
376,176,75404,1,8,0:0:0:0:
376,176,75592,1,0,0:0:0:0:
392,216,75685,1,0,0:0:0:0:
396,256,75779,1,8,0:0:0:0:
396,256,75873,1,8,0:0:0:0:
396,256,75967,1,0,0:0:0:0:
396,256,76154,1,8,0:0:0:0:
352,192,76342,1,0,0:0:0:0:
332,164,76435,1,8,0:0:0:0:
316,144,76529,1,8,0:0:0:0:
304,124,76623,1,0,0:0:0:0:
284,96,76717,1,8,0:0:0:0:
284,96,76904,1,8,0:0:0:0:
284,96,76998,1,8,0:0:0:0:
372,100,77092,1,0,0:0:0:0:
368,288,77467,1,8,0:0:0:0:
368,288,77654,1,0,0:0:0:0:
368,288,77748,1,0,0:0:0:0:
400,292,77842,1,8,0:0:0:0:
480,308,78029,1,0,0:0:0:0:
480,308,78217,1,12,0:0:0:0:
416,148,78592,1,4,0:0:0:0:
336,224,78967,1,0,0:0:0:0:
412,276,79154,1,8,0:0:0:0:
488,320,79342,1,0,0:0:0:0:
416,280,79717,1,0,0:0:0:0:
416,280,79904,1,8,0:0:0:0:
372,208,80092,1,0,0:0:0:0:
392,240,80279,1,8,0:0:0:0:
392,240,80373,1,8,0:0:0:0:
392,240,80467,1,0,0:0:0:0:
392,240,80654,1,8,0:0:0:0:
392,240,80842,1,0,0:0:0:0:
392,240,81029,1,8,0:0:0:0:
392,240,81123,1,0,0:0:0:0:
392,240,81217,1,8,0:0:0:0:
388,228,81404,1,8,0:0:0:0:
392,240,81592,1,0,0:0:0:0:
400,336,81967,1,0,0:0:0:0:
472,308,82154,1,8,0:0:0:0:
472,308,82342,1,0,0:0:0:0:
472,308,82717,1,8,0:0:0:0:
472,308,82904,1,8,0:0:0:0:
472,308,83092,1,0,0:0:0:0:
420,244,83279,1,8,0:0:0:0:
388,208,83373,1,8,0:0:0:0:
372,184,83467,1,0,0:0:0:0:
372,184,83654,1,0,0:0:0:0:
372,184,83842,1,8,0:0:0:0:
336,304,84123,1,0,0:0:0:0:
348,268,84217,1,8,0:0:0:0:
352,188,84404,1,8,0:0:0:0:
416,148,84592,1,4,0:0:0:0:
336,224,84967,1,0,0:0:0:0:
412,276,85154,1,8,0:0:0:0:
488,320,85342,1,0,0:0:0:0:
416,280,85717,1,0,0:0:0:0:
416,280,85904,1,8,0:0:0:0:
372,208,86092,1,0,0:0:0:0:
392,240,86279,1,8,0:0:0:0:
392,240,86373,1,8,0:0:0:0:
392,240,86467,1,0,0:0:0:0:
392,240,86654,1,8,0:0:0:0:
392,240,86842,1,0,0:0:0:0:
392,240,87029,1,8,0:0:0:0:
392,240,87123,1,0,0:0:0:0:
392,240,87217,1,8,0:0:0:0:
388,228,87404,1,0,0:0:0:0:
392,240,87592,1,4,0:0:0:0:
288,124,88154,1,8,0:0:0:0:
220,168,88342,1,4,0:0:0:0:
376,140,88717,1,8,0:0:0:0:
416,276,88904,1,8,0:0:0:0:
252,164,89092,1,4,0:0:0:0:
252,164,89467,1,4,0:0:0:0:
224,80,89654,1,8,0:0:0:0:
252,164,89842,1,4,0:0:0:0:
364,48,90217,1,12,0:0:0:0:
456,188,90592,1,4,0:0:0:0:
384,160,90779,1,8,0:0:0:0:
360,164,90873,1,8,0:0:0:0:
324,140,90967,1,0,0:0:0:0:
262,191,91154,1,8,0:0:0:0:
488,320,91342,1,0,0:0:0:0:
448,268,91529,1,8,0:0:0:0:
404,264,91623,1,8,0:0:0:0:
416,280,91717,1,0,0:0:0:0:
334,261,91904,1,8,0:0:0:0:
372,208,92092,1,0,0:0:0:0:
392,240,92279,1,8,0:0:0:0:
392,240,92373,1,8,0:0:0:0:
392,240,92467,1,8,0:0:0:0:
392,240,92654,1,8,0:0:0:0:
392,240,92842,1,0,0:0:0:0:
392,240,93029,1,8,0:0:0:0:
392,240,93123,1,0,0:0:0:0:
392,240,93217,1,8,0:0:0:0:
388,228,93404,1,8,0:0:0:0:
392,240,93592,1,0,0:0:0:0:
400,336,93967,1,0,0:0:0:0:
472,308,94154,1,8,0:0:0:0:
472,308,94342,1,0,0:0:0:0:
348,204,94717,1,8,0:0:0:0:
472,308,94904,1,8,0:0:0:0:
472,308,95092,1,0,0:0:0:0:
312,148,95279,1,8,0:0:0:0:
280,156,95373,1,8,0:0:0:0:
328,140,95467,1,0,0:0:0:0:
328,140,95654,1,0,0:0:0:0:
280,80,95842,1,8,0:0:0:0:
336,304,96123,1,0,0:0:0:0:
348,268,96217,1,8,0:0:0:0:
352,188,96404,1,0,0:0:0:0:
416,148,96592,1,4,0:0:0:0:
424,228,96779,1,8,0:0:0:0:
304,204,96873,1,0,0:0:0:0:
336,224,96967,1,0,0:0:0:0:
253,217,97154,1,8,0:0:0:0:
352,80,97342,1,0,0:0:0:0:
416,280,97529,1,8,0:0:0:0:
416,280,97623,1,0,0:0:0:0:
304,204,97717,1,0,0:0:0:0:
219,212,97904,1,8,0:0:0:0:
372,208,98092,1,0,0:0:0:0:
392,240,98279,1,8,0:0:0:0:
392,240,98373,1,8,0:0:0:0:
392,240,98467,1,0,0:0:0:0:
392,240,98654,1,8,0:0:0:0:
392,240,98842,1,0,0:0:0:0:
392,240,99029,1,8,0:0:0:0:
392,240,99123,1,0,0:0:0:0:
392,240,99217,1,8,0:0:0:0:
388,228,99404,1,0,0:0:0:0:
392,240,99592,1,4,0:0:0:0:
176,148,100154,1,8,0:0:0:0:
92,100,100342,1,4,0:0:0:0:
248,124,100717,1,8,0:0:0:0:
92,100,100904,1,8,0:0:0:0:
396,252,101092,1,4,0:0:0:0:
248,176,101467,1,4,0:0:0:0:
248,176,101842,1,4,0:0:0:0:
404,232,102217,1,12,0:0:0:0:
192,128,102404,1,12,0:0:0:0:
288,156,102592,1,4,0:0:0:0:
400,284,103154,1,0,0:0:0:0:
332,324,103342,1,8,0:0:0:0:
508,320,103717,1,0,0:0:0:0:
424,324,103904,1,8,0:0:0:0:
368,272,104092,1,0,0:0:0:0:
340,284,104279,1,0,0:0:0:0:
292,232,104467,1,8,0:0:0:0:
392,340,104654,1,0,0:0:0:0:
340,264,104842,1,8,0:0:0:0:
388,200,105029,1,8,0:0:0:0:
376,220,105123,1,8,0:0:0:0:
376,220,105217,1,0,0:0:0:0:
376,220,105404,1,8,0:0:0:0:
392,144,105592,1,0,0:0:0:0:
336,324,105967,1,8,0:0:0:0:
400,284,106154,1,0,0:0:0:0:
332,324,106342,1,8,0:0:0:0:
508,320,106717,1,0,0:0:0:0:
424,324,106904,1,8,0:0:0:0:
392,340,107092,1,8,0:0:0:0:
356,280,107279,1,0,0:0:0:0:
320,212,107467,1,8,0:0:0:0:
392,340,107654,1,0,0:0:0:0:
380,308,107748,1,0,0:0:0:0:
340,264,107842,1,8,0:0:0:0:
332,184,108029,1,8,0:0:0:0:
328,132,108123,1,8,0:0:0:0:
328,132,108217,1,0,0:0:0:0:
264,200,108404,1,8,0:0:0:0:
208,260,108592,1,4,0:0:0:0:
264,200,109154,1,0,0:0:0:0:
320,140,109342,1,8,0:0:0:0:
316,144,109717,1,0,0:0:0:0:
316,144,109904,1,8,0:0:0:0:
316,144,110092,1,0,0:0:0:0:
320,140,110279,1,0,0:0:0:0:
316,144,110467,1,8,0:0:0:0:
316,144,110654,1,0,0:0:0:0:
316,144,110748,1,0,0:0:0:0:
316,144,110842,1,8,0:0:0:0:
316,144,111029,1,8,0:0:0:0:
308,192,111123,1,0,0:0:0:0:
320,140,111217,1,8,0:0:0:0:
316,144,111404,1,0,0:0:0:0:
316,144,111592,1,0,0:0:0:0:
292,156,111685,1,0,0:0:0:0:
308,192,111779,1,8,0:0:0:0:
308,192,111873,1,8,0:0:0:0:
308,192,111967,1,0,0:0:0:0:
348,176,112154,1,8,0:0:0:0:
464,128,112342,1,8,0:0:0:0:
348,176,112435,1,0,0:0:0:0:
348,176,112529,1,8,0:0:0:0:
348,176,112623,1,0,0:0:0:0:
348,176,112717,1,0,0:0:0:0:
348,176,112904,1,0,0:0:0:0:
264,164,113092,1,12,0:0:0:0:
264,164,113467,1,12,0:0:0:0:
264,164,113842,1,4,0:0:0:0:
