osu file format v14

[General]
AudioFilename: audio.mp3
AudioLeadIn: 0
PreviewTime: 78498
Countdown: 0
SampleSet: Normal
StackLeniency: 0.7
Mode: 1
LetterboxInBreaks: 0
WidescreenStoryboard: 0

[Editor]
DistanceSpacing: 1.2
BeatDivisor: 4
GridSize: 16
TimelineZoom: 0.5999999

[Metadata]
Title:Mitarashi Platonic (feat. nicamoq)
TitleUnicode:みたらしプラトニック (feat. nicamoq)
Artist:Yunomi
ArtistUnicode:Yunomi
Creator:komasy
Version:Kantan
Source:MÚSECA 1+1/2
Tags:jubeat clan MUSECA
BeatmapID:1417324
BeatmapSetID:670088

[Difficulty]
HPDrainRate:8
CircleSize:2
OverallDifficulty:3
ApproachRate:5
SliderMultiplier:1.4
SliderTickRate:1

[Events]
//Background and Video events
0,0,"bg.jpg",0,70
//Break Periods
//Storyboard Layer 0 (Background)
//Storyboard Layer 1 (Fail)
//Storyboard Layer 2 (Pass)
//Storyboard Layer 3 (Foreground)
//Storyboard Sound Samples

[TimingPoints]
592,375,4,1,0,70,1,0
6498,-100,4,1,0,85,0,0
18498,-100,4,1,0,95,0,0
18592,-100,4,1,0,95,0,1
30217,-100,4,1,0,95,0,0
30592,-100,4,1,0,95,0,1
42592,-100,4,1,0,80,0,0
54592,-100,4,1,0,85,0,0
72592,-100,4,1,0,95,0,0
77092,-100,4,1,0,75,0,0
78123,-100,4,1,0,85,0,0
78498,-100,4,1,0,95,0,0
78592,-100,4,1,0,95,0,1
90029,-100,4,1,0,95,0,0
90592,-100,4,1,0,95,0,1
102217,-100,4,1,0,95,0,0
102592,-100,4,1,0,95,0,1
113842,-100,4,1,0,95,0,0

[HitObjects]
248,188,592,5,0,0:0:0:0:
208,208,2092,1,0,0:0:0:0:
228,232,3592,1,8,0:0:0:0:
400,276,5092,1,8,0:0:0:0:
200,128,6592,1,0,0:0:0:0:
200,128,7342,1,0,0:0:0:0:
200,128,8092,1,0,0:0:0:0:
200,128,9592,1,8,0:0:0:0:
200,128,10342,1,8,0:0:0:0:
200,128,11092,1,8,0:0:0:0:
200,128,12592,1,0,0:0:0:0:
260,64,13342,1,0,0:0:0:0:
276,48,14092,1,8,0:0:0:0:
276,48,14842,1,8,0:0:0:0:
132,204,15592,1,0,0:0:0:0:
358,23,16342,1,8,0:0:0:0:
320,120,16717,1,8,0:0:0:0:
160,144,17092,1,0,0:0:0:0:
300,140,18592,1,4,0:0:0:0:
348,152,19342,1,8,0:0:0:0:
206,114,20092,1,0,0:0:0:0:
363,143,20467,1,0,0:0:0:0:
433,157,20842,1,8,0:0:0:0:
140,208,21592,1,0,0:0:0:0:
276,120,22342,1,8,0:0:0:0:
314,219,22717,1,0,0:0:0:0:
419,72,23092,1,8,0:0:0:0:
300,140,24592,1,4,0:0:0:0:
348,152,25342,1,8,0:0:0:0:
198,103,26092,1,0,0:0:0:0:
345,70,26467,1,0,0:0:0:0:
320,208,26842,1,8,0:0:0:0:
140,208,27592,1,0,0:0:0:0:
276,120,28342,1,8,0:0:0:0:
209,152,28717,1,0,0:0:0:0:
344,68,29092,1,8,0:0:0:0:
200,108,30592,1,4,0:0:0:0:
360,200,31342,1,8,0:0:0:0:
260,164,32092,1,0,0:0:0:0:
240,104,32467,1,8,0:0:0:0:
300,188,32842,1,8,0:0:0:0:
296,136,33592,5,0,0:0:0:0:
360,200,34342,1,8,0:0:0:0:
260,164,34717,1,8,0:0:0:0:
300,188,35092,1,0,0:0:0:0:
296,136,36592,5,4,0:0:0:0:
360,200,37342,1,8,0:0:0:0:
260,164,38092,1,0,0:0:0:0:
300,188,38467,1,8,0:0:0:0:
174,87,38842,1,8,0:0:0:0:
296,136,39592,5,4,0:0:0:0:
272,180,40342,1,4,0:0:0:0:
300,196,41092,1,12,0:0:0:0:
432,128,41467,1,12,0:0:0:0:
432,128,41842,1,12,0:0:0:0:
288,228,44092,1,0,0:0:0:0:
304,192,44842,1,0,0:0:0:0:
206,12,45217,1,8,0:0:0:0:
216,164,45592,1,4,0:0:0:0:
436,288,46342,1,8,0:0:0:0:
464,304,47092,1,0,0:0:0:0:
264,144,48592,1,0,0:0:0:0:
276,144,49342,1,8,0:0:0:0:
240,272,50092,1,8,0:0:0:0:
344,120,51592,1,0,0:0:0:0:
320,76,52342,1,8,0:0:0:0:
320,76,53092,1,4,0:0:0:0:
440,140,54592,1,4,0:0:0:0:
280,168,55342,1,0,0:0:0:0:
348,184,56092,1,8,0:0:0:0:
300,220,57592,1,0,0:0:0:0:
472,204,58342,1,8,0:0:0:0:
304,176,58717,1,8,0:0:0:0:
340,192,59092,1,0,0:0:0:0:
508,304,60592,1,0,0:0:0:0:
396,240,61342,1,0,0:0:0:0:
396,240,62092,1,8,0:0:0:0:
396,240,63592,1,0,0:0:0:0:
308,252,64342,1,0,0:0:0:0:
360,244,64717,1,8,0:0:0:0:
360,244,65092,1,0,0:0:0:0:
268,121,66592,1,0,0:0:0:0:
320,220,67342,1,0,0:0:0:0:
300,292,68092,1,0,0:0:0:0:
300,292,68467,1,0,0:0:0:0:
300,292,68842,1,0,0:0:0:0:
304,292,69592,1,8,0:0:0:0:
324,312,70342,1,8,0:0:0:0:
304,316,71092,1,8,0:0:0:0:
304,316,71467,1,8,0:0:0:0:
212,200,71842,1,8,0:0:0:0:
344,160,72592,1,0,0:0:0:0:
348,128,73342,1,0,0:0:0:0:
320,212,74092,1,8,0:0:0:0:
376,176,74842,1,8,0:0:0:0:
376,176,75592,1,0,0:0:0:0:
396,256,75967,1,8,0:0:0:0:
352,192,76342,1,0,0:0:0:0:
240,80,76717,1,8,0:0:0:0:
480,308,78217,1,12,0:0:0:0:
416,148,78592,1,4,0:0:0:0:
488,320,79342,1,8,0:0:0:0:
372,208,80092,1,0,0:0:0:0:
392,240,80467,1,8,0:0:0:0:
392,240,80842,1,0,0:0:0:0:
392,240,81592,1,0,0:0:0:0:
472,308,82342,1,8,0:0:0:0:
472,308,83092,1,0,0:0:0:0:
372,184,83467,1,0,0:0:0:0:
372,184,83842,1,8,0:0:0:0:
416,148,84592,1,4,0:0:0:0:
488,320,85342,1,8,0:0:0:0:
372,208,86092,1,0,0:0:0:0:
392,240,86467,1,8,0:0:0:0:
392,240,86842,1,0,0:0:0:0:
392,240,87592,1,4,0:0:0:0:
220,168,88342,1,4,0:0:0:0:
252,164,89092,1,12,0:0:0:0:
456,188,90592,1,4,0:0:0:0:
488,320,91342,1,8,0:0:0:0:
372,208,92092,1,0,0:0:0:0:
392,240,92467,1,8,0:0:0:0:
392,240,92842,1,8,0:0:0:0:
392,240,93592,1,0,0:0:0:0:
472,308,94342,1,8,0:0:0:0:
472,308,95092,1,0,0:0:0:0:
384,204,95467,1,0,0:0:0:0:
280,80,95842,1,8,0:0:0:0:
310,109,96592,1,4,0:0:0:0:
352,80,97342,1,8,0:0:0:0:
372,208,98092,1,0,0:0:0:0:
392,240,98467,1,8,0:0:0:0:
392,240,98842,1,8,0:0:0:0:
392,240,99592,1,4,0:0:0:0:
92,100,100342,1,4,0:0:0:0:
396,252,101092,1,12,0:0:0:0:
288,156,102592,1,4,0:0:0:0:
332,324,103342,1,8,0:0:0:0:
179,126,104092,1,0,0:0:0:0:
292,232,104467,1,0,0:0:0:0:
340,264,104842,1,8,0:0:0:0:
392,144,105592,1,0,0:0:0:0:
332,324,106342,1,8,0:0:0:0:
320,212,106717,1,0,0:0:0:0:
238,187,107092,1,8,0:0:0:0:
208,260,108592,1,4,0:0:0:0:
320,140,109342,1,8,0:0:0:0:
165,100,110092,1,0,0:0:0:0:
316,144,110467,1,0,0:0:0:0:
363,100,110842,1,8,0:0:0:0:
316,144,111592,1,4,0:0:0:0:
338,170,112342,1,4,0:0:0:0:
264,164,113092,1,12,0:0:0:0:
301,9,113467,1,12,0:0:0:0:
264,164,113842,1,4,0:0:0:0:
