osu file format v14

[General]
AudioFilename: Yunomi - Mentai Cosmic.mp3
AudioLeadIn: 0
PreviewTime: 16621
Countdown: 0
SampleSet: None
StackLeniency: 0.7
Mode: 1
LetterboxInBreaks: 0
WidescreenStoryboard: 1

[Editor]
Bookmarks: 550,17692,34835,51978,69121,86264,103407,120550,137692,154835,169032,189121,206264,223407
DistanceSpacing: 0.6
BeatDivisor: 6
GridSize: 4
TimelineZoom: 5.200003

[Metadata]
Title:Mentai Cosmic
TitleUnicode:めんたいコズミック
Artist:Yunomi
ArtistUnicode:Yunomi
Creator:lop
Version:Oni
Source:
Tags:
BeatmapID:1130748
BeatmapSetID:533735

[Difficulty]
HPDrainRate:5
CircleSize:4
OverallDifficulty:6
ApproachRate:10
SliderMultiplier:1.4
SliderTickRate:1

[Events]
//Background and Video events
0,0,"59452194_p0.png",0,0
//Break Periods
//Storyboard Layer 0 (Background)
//Storyboard Layer 1 (Fail)
//Storyboard Layer 2 (Pass)
//Storyboard Layer 3 (Foreground)
//Storyboard Sound Samples

[TimingPoints]
550,267.857142857143,4,1,0,78,1,0
17692,-100,4,1,0,78,0,1
34300,-100,4,1,0,78,0,0
86264,-100,4,1,0,78,0,1
102871,-100,4,1,0,78,0,0
171978,-100,4,1,0,78,0,1
188585,-100,4,1,0,78,0,0

[HitObjects]
184,128,550,5,8,0:0:0:0:
184,128,817,1,8,0:0:0:0:
184,128,951,1,0,0:0:0:0:
184,128,1085,1,8,0:0:0:0:
184,128,1353,1,8,0:0:0:0:
184,128,1621,1,8,0:0:0:0:
184,128,1889,1,8,0:0:0:0:
184,128,2023,1,8,0:0:0:0:
184,128,2157,1,0,0:0:0:0:
184,128,2425,1,8,0:0:0:0:
184,128,2558,1,0,0:0:0:0:
184,128,2692,1,8,0:0:0:0:
184,128,2960,1,8,0:0:0:0:
184,128,3228,1,8,0:0:0:0:
184,128,3496,1,8,0:0:0:0:
184,128,3630,1,0,0:0:0:0:
184,128,3764,1,8,0:0:0:0:
184,128,4032,1,0,0:0:0:0:
184,128,4166,1,8,0:0:0:0:
184,128,4300,1,8,0:0:0:0:
184,128,4567,1,8,0:0:0:0:
184,128,4701,1,0,0:0:0:0:
184,128,4835,1,8,0:0:0:0:
184,128,5103,1,8,0:0:0:0:
184,128,5371,1,8,0:0:0:0:
184,128,5639,1,8,0:0:0:0:
184,128,5773,1,0,0:0:0:0:
184,128,5907,1,8,0:0:0:0:
184,128,6175,1,8,0:0:0:0:
184,128,6308,1,8,0:0:0:0:
184,128,6442,1,0,0:0:0:0:
184,128,6710,1,8,0:0:0:0:
184,128,6844,1,0,0:0:0:0:
184,128,6978,1,8,0:0:0:0:
184,128,7246,1,8,0:0:0:0:
184,128,7514,1,8,0:0:0:0:
184,128,7782,1,8,0:0:0:0:
184,128,7916,1,0,0:0:0:0:
184,128,8183,1,0,0:0:0:0:
184,128,8317,1,8,0:0:0:0:
184,128,8451,1,0,0:0:0:0:
184,128,8585,1,8,0:0:0:0:
184,128,8719,1,8,0:0:0:0:
184,128,8853,1,0,0:0:0:0:
184,128,8987,1,8,0:0:0:0:
184,128,9121,1,8,0:0:0:0:
184,128,9255,1,0,0:0:0:0:
184,128,9322,1,0,0:0:0:0:
184,128,9389,1,8,0:0:0:0:
184,128,9523,1,8,0:0:0:0:
184,128,9657,1,0,0:0:0:0:
184,128,9791,1,0,0:0:0:0:
184,128,9925,1,8,0:0:0:0:
184,128,9991,1,0,0:0:0:0:
184,128,10058,1,8,0:0:0:0:
184,128,10192,1,0,0:0:0:0:
184,128,10326,1,0,0:0:0:0:
184,128,10393,1,0,0:0:0:0:
184,128,10460,1,8,0:0:0:0:
184,128,10527,1,0,0:0:0:0:
184,128,10594,1,8,0:0:0:0:
184,128,10728,1,0,0:0:0:0:
184,128,10862,1,8,0:0:0:0:
184,128,10929,1,8,0:0:0:0:
184,128,10996,1,8,0:0:0:0:
184,128,11130,1,8,0:0:0:0:
184,128,11264,1,0,0:0:0:0:
184,128,11398,1,0,0:0:0:0:
184,128,11465,1,0,0:0:0:0:
184,128,11532,1,8,0:0:0:0:
184,128,11666,1,0,0:0:0:0:
184,128,11800,1,8,0:0:0:0:
184,128,11934,1,0,0:0:0:0:
184,128,12068,1,8,0:0:0:0:
184,128,12134,1,8,0:0:0:0:
184,128,12201,1,0,0:0:0:0:
184,128,12335,1,8,0:0:0:0:
184,128,12469,1,0,0:0:0:0:
184,128,12536,1,0,0:0:0:0:
184,128,12603,1,8,0:0:0:0:
184,128,12670,1,0,0:0:0:0:
184,128,12737,1,8,0:0:0:0:
184,128,12871,1,0,0:0:0:0:
180,148,12938,1,0,0:0:0:0:
184,128,13005,1,8,0:0:0:0:
180,148,13072,1,0,0:0:0:0:
184,128,13139,1,8,0:0:0:0:
180,148,13206,1,8,0:0:0:0:
184,128,13273,1,8,0:0:0:0:
180,148,13340,1,8,0:0:0:0:
180,148,13407,1,0,0:0:0:0:
184,128,13541,1,8,0:0:0:0:
184,128,13608,1,8,0:0:0:0:
180,148,13675,1,8,0:0:0:0:
180,148,13808,1,0,0:0:0:0:
180,148,13942,1,8,0:0:0:0:
180,148,14076,1,0,0:0:0:0:
180,148,14143,1,0,0:0:0:0:
180,148,14210,1,8,0:0:0:0:
180,148,14344,1,8,0:0:0:0:
180,148,14478,1,0,0:0:0:0:
180,148,14612,1,0,0:0:0:0:
180,148,14679,1,0,0:0:0:0:
180,148,14746,1,8,0:0:0:0:
180,148,14880,1,8,0:0:0:0:
180,148,15014,1,0,0:0:0:0:
256,192,15148,12,0,16353,0:0:0:0:
184,128,16621,5,0,0:0:0:0:
184,128,17157,1,0,0:0:0:0:
184,128,17692,1,12,0:0:0:0:
184,128,17826,1,0,0:0:0:0:
184,128,17893,1,0,0:0:0:0:
184,128,17960,1,8,0:0:0:0:
184,128,18094,1,0,0:0:0:0:
180,148,18228,1,8,0:0:0:0:
180,148,18362,1,0,0:0:0:0:
180,148,18429,1,0,0:0:0:0:
180,148,18496,1,8,0:0:0:0:
184,128,18630,1,0,0:0:0:0:
180,148,18764,1,8,0:0:0:0:
180,148,18831,1,0,0:0:0:0:
180,148,18898,1,8,0:0:0:0:
180,148,18965,1,8,0:0:0:0:
180,148,19032,1,0,0:0:0:0:
180,148,19166,1,0,0:0:0:0:
180,148,19300,1,8,0:0:0:0:
180,148,19433,1,0,0:0:0:0:
180,148,19500,1,0,0:0:0:0:
180,148,19567,1,0,0:0:0:0:
180,148,19701,1,0,0:0:0:0:
180,148,19835,1,8,0:0:0:0:
180,148,19969,1,0,0:0:0:0:
180,148,20036,1,0,0:0:0:0:
180,148,20103,1,8,0:0:0:0:
180,148,20170,1,8,0:0:0:0:
180,148,20237,1,0,0:0:0:0:
180,148,20371,1,8,0:0:0:0:
180,148,20438,1,0,0:0:0:0:
180,148,20505,1,8,0:0:0:0:
180,148,20639,1,0,0:0:0:0:
180,148,20773,1,8,0:0:0:0:
180,148,20907,1,8,0:0:0:0:
180,148,21041,1,0,0:0:0:0:
180,148,21108,1,0,0:0:0:0:
180,148,21175,1,8,0:0:0:0:
180,148,21308,1,0,0:0:0:0:
180,148,21442,1,8,0:0:0:0:
180,148,21576,1,0,0:0:0:0:
180,148,21643,1,0,0:0:0:0:
180,148,21710,1,8,0:0:0:0:
180,148,21777,1,0,0:0:0:0:
180,148,21844,1,8,0:0:0:0:
180,148,21911,1,8,0:0:0:0:
180,148,21978,1,0,0:0:0:0:
180,148,22112,1,8,0:0:0:0:
180,148,22246,1,0,0:0:0:0:
180,148,22313,1,0,0:0:0:0:
180,148,22380,1,8,0:0:0:0:
180,148,22447,1,8,0:0:0:0:
180,148,22514,1,0,0:0:0:0:
180,148,22648,1,8,0:0:0:0:
180,148,22782,1,0,0:0:0:0:
180,148,22849,1,0,0:0:0:0:
180,148,22916,1,8,0:0:0:0:
180,148,23050,1,0,0:0:0:0:
180,148,23116,1,0,0:0:0:0:
180,148,23183,1,8,0:0:0:0:
172,168,23250,1,0,0:0:0:0:
180,148,23317,1,8,0:0:0:0:
180,148,23384,1,8,0:0:0:0:
180,148,23451,1,0,0:0:0:0:
180,148,23585,1,8,0:0:0:0:
180,148,23719,1,0,0:0:0:0:
180,148,23786,1,0,0:0:0:0:
180,148,23853,1,8,0:0:0:0:
172,168,23987,1,0,0:0:0:0:
180,148,24121,1,8,0:0:0:0:
180,148,24255,1,0,0:0:0:0:
180,148,24322,1,0,0:0:0:0:
180,148,24389,1,8,0:0:0:0:
180,148,24456,1,8,0:0:0:0:
180,148,24523,1,0,0:0:0:0:
172,168,24657,1,8,0:0:0:0:
180,148,24791,1,0,0:0:0:0:
180,148,24858,1,0,0:0:0:0:
180,148,24925,1,8,0:0:0:0:
180,148,24991,1,0,0:0:0:0:
180,148,25058,1,8,0:0:0:0:
180,148,25192,1,0,0:0:0:0:
172,168,25326,1,8,0:0:0:0:
172,168,25393,1,0,0:0:0:0:
172,168,25460,1,8,0:0:0:0:
180,148,25527,1,8,0:0:0:0:
180,148,25594,1,0,0:0:0:0:
180,148,25728,1,0,0:0:0:0:
180,148,25996,1,8,0:0:0:0:
180,148,26130,1,0,0:0:0:0:
184,128,26264,1,12,0:0:0:0:
184,128,26398,1,0,0:0:0:0:
184,128,26465,1,0,0:0:0:0:
184,128,26532,1,8,0:0:0:0:
184,128,26666,1,0,0:0:0:0:
180,148,26800,1,8,0:0:0:0:
180,148,26934,1,0,0:0:0:0:
180,148,27001,1,0,0:0:0:0:
180,148,27068,1,8,0:0:0:0:
184,128,27202,1,0,0:0:0:0:
180,148,27336,1,8,0:0:0:0:
180,148,27403,1,0,0:0:0:0:
180,148,27470,1,8,0:0:0:0:
180,148,27537,1,8,0:0:0:0:
180,148,27604,1,0,0:0:0:0:
180,148,27738,1,0,0:0:0:0:
180,148,27872,1,8,0:0:0:0:
180,148,28005,1,0,0:0:0:0:
180,148,28072,1,0,0:0:0:0:
180,148,28139,1,0,0:0:0:0:
180,148,28273,1,0,0:0:0:0:
180,148,28407,1,8,0:0:0:0:
180,148,28541,1,0,0:0:0:0:
180,148,28608,1,0,0:0:0:0:
180,148,28675,1,8,0:0:0:0:
180,148,28742,1,8,0:0:0:0:
180,148,28809,1,0,0:0:0:0:
180,148,28943,1,8,0:0:0:0:
180,148,29010,1,0,0:0:0:0:
180,148,29077,1,8,0:0:0:0:
180,148,29211,1,0,0:0:0:0:
180,148,29345,1,8,0:0:0:0:
180,148,29479,1,8,0:0:0:0:
180,148,29613,1,0,0:0:0:0:
180,148,29680,1,0,0:0:0:0:
180,148,29747,1,8,0:0:0:0:
180,148,29880,1,0,0:0:0:0:
180,148,30014,1,8,0:0:0:0:
180,148,30148,1,0,0:0:0:0:
180,148,30215,1,0,0:0:0:0:
180,148,30282,1,8,0:0:0:0:
180,148,30349,1,0,0:0:0:0:
180,148,30416,1,8,0:0:0:0:
180,148,30483,1,8,0:0:0:0:
180,148,30550,1,0,0:0:0:0:
180,148,30684,1,8,0:0:0:0:
180,148,30818,1,0,0:0:0:0:
180,148,30885,1,0,0:0:0:0:
180,148,30952,1,8,0:0:0:0:
180,148,31019,1,8,0:0:0:0:
180,148,31086,1,0,0:0:0:0:
180,148,31220,1,8,0:0:0:0:
180,148,31354,1,0,0:0:0:0:
180,148,31421,1,0,0:0:0:0:
180,148,31488,1,8,0:0:0:0:
180,148,31622,1,0,0:0:0:0:
180,148,31688,1,0,0:0:0:0:
180,148,31755,1,8,0:0:0:0:
172,168,31822,1,0,0:0:0:0:
180,148,31889,1,8,0:0:0:0:
180,148,31956,1,8,0:0:0:0:
180,148,32023,1,0,0:0:0:0:
180,148,32157,1,8,0:0:0:0:
180,148,32291,1,0,0:0:0:0:
180,148,32358,1,0,0:0:0:0:
180,148,32425,1,8,0:0:0:0:
172,168,32559,1,0,0:0:0:0:
180,148,32693,1,8,0:0:0:0:
180,148,32827,1,0,0:0:0:0:
180,148,32894,1,0,0:0:0:0:
180,148,32961,1,8,0:0:0:0:
180,148,33028,1,8,0:0:0:0:
180,148,33095,1,0,0:0:0:0:
172,168,33229,1,8,0:0:0:0:
180,148,33363,1,0,0:0:0:0:
180,148,33430,1,0,0:0:0:0:
180,148,33497,1,8,0:0:0:0:
180,148,33563,1,0,0:0:0:0:
180,148,33630,1,8,0:0:0:0:
180,148,33764,1,0,0:0:0:0:
172,168,34032,1,8,0:0:0:0:
180,148,34300,1,0,0:0:0:0:
180,148,34567,5,8,0:0:0:0:
180,148,34835,1,0,0:0:0:0:
180,148,34969,1,0,0:0:0:0:
180,148,35036,1,0,0:0:0:0:
180,148,35103,1,8,0:0:0:0:
180,148,35237,1,0,0:0:0:0:
180,148,35371,1,8,0:0:0:0:
180,148,35639,1,8,0:0:0:0:
180,148,35773,1,0,0:0:0:0:
180,148,35907,1,8,0:0:0:0:
180,148,35940,1,8,0:0:0:0:
180,148,36041,1,0,0:0:0:0:
180,148,36074,1,8,0:0:0:0:
180,148,36175,1,8,0:0:0:0:
180,148,36208,1,0,0:0:0:0:
180,148,36308,1,8,0:0:0:0:
180,148,36342,1,8,0:0:0:0:
180,148,36442,1,0,0:0:0:0:
180,148,36710,1,8,0:0:0:0:
180,148,36844,1,0,0:0:0:0:
180,148,36978,1,8,0:0:0:0:
180,148,37045,1,8,0:0:0:0:
180,148,37112,1,0,0:0:0:0:
180,148,37246,1,8,0:0:0:0:
180,148,37380,1,0,0:0:0:0:
180,148,37447,1,0,0:0:0:0:
180,148,37514,1,8,0:0:0:0:
180,148,37648,1,0,0:0:0:0:
180,148,37782,1,8,0:0:0:0:
140,132,37916,1,8,0:0:0:0:
180,148,38050,1,0,0:0:0:0:
180,148,38083,1,8,0:0:0:0:
180,148,38184,1,8,0:0:0:0:
180,148,38217,1,0,0:0:0:0:
180,148,38318,1,8,0:0:0:0:
180,148,38351,1,8,0:0:0:0:
180,148,38451,1,0,0:0:0:0:
180,148,38485,1,8,0:0:0:0:
180,148,38585,1,8,0:0:0:0:
96,152,38853,1,8,0:0:0:0:
136,148,38987,1,0,0:0:0:0:
180,148,39121,1,8,0:0:0:0:
180,148,39255,1,0,0:0:0:0:
180,148,39322,1,0,0:0:0:0:
180,148,39389,1,8,0:0:0:0:
180,148,39523,1,8,0:0:0:0:
180,148,39657,1,0,0:0:0:0:
116,204,39925,1,8,0:0:0:0:
116,204,40058,1,8,0:0:0:0:
180,148,40192,1,8,0:0:0:0:
180,148,40225,1,8,0:0:0:0:
180,148,40326,1,0,0:0:0:0:
180,148,40359,1,8,0:0:0:0:
180,148,40460,1,8,0:0:0:0:
180,148,40493,1,0,0:0:0:0:
180,148,40593,1,8,0:0:0:0:
180,148,40627,1,8,0:0:0:0:
180,148,40727,1,0,0:0:0:0:
116,204,40996,1,8,0:0:0:0:
116,164,41130,1,0,0:0:0:0:
116,164,41264,1,0,0:0:0:0:
116,164,41398,1,0,0:0:0:0:
116,164,41465,1,0,0:0:0:0:
116,164,41532,1,8,0:0:0:0:
116,164,41666,1,0,0:0:0:0:
116,164,41800,1,8,0:0:0:0:
116,164,42067,1,8,0:0:0:0:
116,164,42201,1,0,0:0:0:0:
180,148,42335,1,0,0:0:0:0:
180,148,42368,1,8,0:0:0:0:
180,148,42469,1,8,0:0:0:0:
180,148,42502,1,0,0:0:0:0:
180,148,42603,1,8,0:0:0:0:
180,148,42636,1,8,0:0:0:0:
180,148,42736,1,0,0:0:0:0:
180,148,42770,1,8,0:0:0:0:
180,148,42870,1,8,0:0:0:0:
180,148,43139,1,8,0:0:0:0:
180,148,43273,1,8,0:0:0:0:
180,148,43407,1,8,0:0:0:0:
180,148,43541,1,0,0:0:0:0:
180,148,43608,1,0,0:0:0:0:
180,148,43675,1,8,0:0:0:0:
180,148,43809,1,0,0:0:0:0:
180,148,43943,1,8,0:0:0:0:
180,148,44211,1,8,0:0:0:0:
180,148,44345,1,0,0:0:0:0:
180,148,44479,1,8,0:0:0:0:
180,148,44512,1,8,0:0:0:0:
180,148,44613,1,0,0:0:0:0:
180,148,44646,1,8,0:0:0:0:
180,148,44747,1,8,0:0:0:0:
180,148,44780,1,0,0:0:0:0:
180,148,44880,1,8,0:0:0:0:
180,148,44914,1,8,0:0:0:0:
180,148,45014,1,0,0:0:0:0:
180,148,45282,1,8,0:0:0:0:
180,148,45416,1,0,0:0:0:0:
180,148,45550,1,8,0:0:0:0:
180,148,45617,1,8,0:0:0:0:
180,148,45684,1,0,0:0:0:0:
180,148,45818,1,8,0:0:0:0:
180,148,45952,1,0,0:0:0:0:
180,148,46019,1,0,0:0:0:0:
180,148,46086,1,8,0:0:0:0:
180,148,46220,1,0,0:0:0:0:
180,148,46354,1,8,0:0:0:0:
140,132,46488,1,8,0:0:0:0:
180,148,46622,1,0,0:0:0:0:
180,148,46655,1,8,0:0:0:0:
180,148,46756,1,8,0:0:0:0:
180,148,46789,1,0,0:0:0:0:
180,148,46890,1,8,0:0:0:0:
180,148,46923,1,8,0:0:0:0:
180,148,47023,1,0,0:0:0:0:
180,148,47057,1,8,0:0:0:0:
180,148,47157,1,8,0:0:0:0:
96,152,47425,1,8,0:0:0:0:
136,148,47559,1,0,0:0:0:0:
180,148,47693,1,0,0:0:0:0:
180,148,47827,1,0,0:0:0:0:
180,148,47894,1,0,0:0:0:0:
180,148,47961,1,8,0:0:0:0:
180,148,48095,1,0,0:0:0:0:
180,148,48229,1,8,0:0:0:0:
116,204,48497,1,8,0:0:0:0:
116,204,48630,1,8,0:0:0:0:
180,148,48764,1,0,0:0:0:0:
180,148,48797,1,0,0:0:0:0:
180,148,48898,1,8,0:0:0:0:
180,148,48931,1,8,0:0:0:0:
180,148,49032,1,8,0:0:0:0:
180,148,49065,1,8,0:0:0:0:
180,148,49165,1,0,0:0:0:0:
180,148,49199,1,0,0:0:0:0:
180,148,49299,1,8,0:0:0:0:
116,204,49568,1,8,0:0:0:0:
116,164,49702,1,0,0:0:0:0:
116,164,49836,1,0,0:0:0:0:
116,164,49970,1,0,0:0:0:0:
116,164,50037,1,0,0:0:0:0:
116,164,50104,1,8,0:0:0:0:
116,164,50238,1,0,0:0:0:0:
116,164,50372,1,8,0:0:0:0:
116,164,50639,1,8,0:0:0:0:
116,164,50773,1,0,0:0:0:0:
180,148,50907,1,0,0:0:0:0:
180,148,51108,1,0,0:0:0:0:
180,148,51308,1,0,0:0:0:0:
180,148,51375,1,0,0:0:0:0:
180,148,51442,1,8,0:0:0:0:
180,148,51711,1,8,0:0:0:0:
180,148,51845,1,0,0:0:0:0:
180,148,51978,1,8,0:0:0:0:
180,148,52246,1,8,0:0:0:0:
264,144,52514,1,8,0:0:0:0:
180,148,52782,1,8,0:0:0:0:
180,148,53050,1,8,0:0:0:0:
180,148,53317,1,8,0:0:0:0:
180,148,53451,1,8,0:0:0:0:
180,148,53585,1,8,0:0:0:0:
180,148,53853,1,0,0:0:0:0:
180,148,54121,1,8,0:0:0:0:
180,148,54389,1,8,0:0:0:0:
180,148,54657,1,8,0:0:0:0:
180,148,54925,1,8,0:0:0:0:
180,148,55192,1,8,0:0:0:0:
180,148,55460,1,8,0:0:0:0:
180,148,55594,1,8,0:0:0:0:
180,148,55728,1,8,0:0:0:0:
180,148,55996,1,0,0:0:0:0:
180,148,56264,1,8,0:0:0:0:
180,148,56532,1,8,0:0:0:0:
180,148,56800,1,8,0:0:0:0:
180,148,57067,1,8,0:0:0:0:
180,148,57335,1,8,0:0:0:0:
100,172,57603,1,8,0:0:0:0:
60,188,57737,1,8,0:0:0:0:
100,176,57871,1,8,0:0:0:0:
180,148,58139,1,0,0:0:0:0:
100,172,58407,1,8,0:0:0:0:
184,156,58675,1,8,0:0:0:0:
100,172,58942,1,8,0:0:0:0:
184,156,59210,1,8,0:0:0:0:
100,172,59478,1,0,0:0:0:0:
184,156,59746,1,8,0:0:0:0:
184,156,59779,1,8,0:0:0:0:
144,164,59880,1,0,0:0:0:0:
184,156,59913,1,0,0:0:0:0:
144,164,60014,1,8,0:0:0:0:
184,156,60047,1,8,0:0:0:0:
144,164,60282,1,8,0:0:0:0:
144,164,60416,1,0,0:0:0:0:
144,164,60550,1,8,0:0:0:0:
184,156,60683,1,0,0:0:0:0:
184,156,60750,1,0,0:0:0:0:
228,172,60817,1,8,0:0:0:0:
184,156,60951,1,0,0:0:0:0:
184,156,61085,1,8,0:0:0:0:
184,156,61219,1,8,0:0:0:0:
184,156,61286,1,0,0:0:0:0:
188,168,61353,1,8,0:0:0:0:
184,156,61487,1,0,0:0:0:0:
184,156,61621,1,8,0:0:0:0:
188,168,61889,1,8,0:0:0:0:
188,168,62023,1,0,0:0:0:0:
188,168,62157,1,8,0:0:0:0:
188,168,62425,1,0,0:0:0:0:
188,168,62692,1,0,0:0:0:0:
188,168,62826,1,8,0:0:0:0:
188,168,62893,1,8,0:0:0:0:
188,168,62960,1,0,0:0:0:0:
188,168,63094,1,8,0:0:0:0:
188,168,63228,1,0,0:0:0:0:
188,168,63362,1,0,0:0:0:0:
188,168,63496,1,8,0:0:0:0:
188,168,63630,1,0,0:0:0:0:
188,168,63697,1,0,0:0:0:0:
188,168,63764,1,8,0:0:0:0:
188,168,64032,1,8,0:0:0:0:
188,168,64166,1,0,0:0:0:0:
188,168,64300,1,8,0:0:0:0:
188,168,64567,1,0,0:0:0:0:
188,168,64835,1,8,0:0:0:0:
188,168,64969,1,0,0:0:0:0:
188,168,65036,1,0,0:0:0:0:
188,168,65103,1,8,0:0:0:0:
188,168,65237,1,0,0:0:0:0:
188,168,65371,1,8,0:0:0:0:
188,168,65505,1,0,0:0:0:0:
188,168,65572,1,0,0:0:0:0:
188,168,65639,1,8,0:0:0:0:
188,168,65773,1,8,0:0:0:0:
188,168,65907,1,0,0:0:0:0:
188,168,66175,1,8,0:0:0:0:
188,168,66308,1,8,0:0:0:0:
188,168,66442,1,0,0:0:0:0:
188,168,66576,1,0,0:0:0:0:
188,168,66643,1,0,0:0:0:0:
188,168,66710,1,8,0:0:0:0:
188,168,66844,1,0,0:0:0:0:
188,168,66978,1,8,0:0:0:0:
188,168,67045,1,8,0:0:0:0:
188,168,67112,1,8,0:0:0:0:
188,168,67246,1,0,0:0:0:0:
188,168,67380,1,8,0:0:0:0:
188,168,67514,1,0,0:0:0:0:
188,168,67648,1,0,0:0:0:0:
188,168,67782,1,8,0:0:0:0:
188,168,67916,1,8,0:0:0:0:
188,168,68050,1,0,0:0:0:0:
188,168,68116,1,8,0:0:0:0:
188,168,68183,1,8,0:0:0:0:
188,168,68250,1,8,0:0:0:0:
188,168,68317,1,8,0:0:0:0:
188,168,68451,1,0,0:0:0:0:
188,168,68585,1,8,0:0:0:0:
188,168,68719,1,0,0:0:0:0:
188,168,68786,1,0,0:0:0:0:
188,168,68853,1,8,0:0:0:0:
188,168,68987,1,0,0:0:0:0:
188,168,69121,1,8,0:0:0:0:
188,168,69389,1,8,0:0:0:0:
188,168,69523,1,8,0:0:0:0:
188,168,69657,1,0,0:0:0:0:
188,168,69925,1,8,0:0:0:0:
188,168,70192,1,0,0:0:0:0:
188,168,70460,1,8,0:0:0:0:
188,168,70594,1,0,0:0:0:0:
188,168,70728,1,8,0:0:0:0:
188,168,70996,1,8,0:0:0:0:
188,168,71130,1,8,0:0:0:0:
188,168,71264,1,0,0:0:0:0:
188,168,71532,1,8,0:0:0:0:
188,168,71800,1,0,0:0:0:0:
188,168,72067,1,0,0:0:0:0:
188,168,72201,1,0,0:0:0:0:
188,168,72335,1,8,0:0:0:0:
188,168,72603,1,0,0:0:0:0:
188,168,72871,1,8,0:0:0:0:
188,168,73005,1,8,0:0:0:0:
188,168,73139,1,0,0:0:0:0:
188,168,73407,1,8,0:0:0:0:
188,168,73675,1,0,0:0:0:0:
188,168,73808,1,0,0:0:0:0:
188,168,73942,1,8,0:0:0:0:
188,168,74210,1,0,0:0:0:0:
188,168,74478,1,8,0:0:0:0:
188,168,74746,1,8,0:0:0:0:
188,168,74880,1,0,0:0:0:0:
188,168,75014,1,8,0:0:0:0:
188,168,75282,1,8,0:0:0:0:
188,168,75416,1,8,0:0:0:0:
188,168,75550,1,0,0:0:0:0:
188,168,75683,1,0,0:0:0:0:
188,168,75817,1,8,0:0:0:0:
188,168,76085,1,8,0:0:0:0:
188,168,76353,1,0,0:0:0:0:
188,168,76487,1,0,0:0:0:0:
188,168,76621,1,8,0:0:0:0:
196,156,76666,1,8,0:0:0:0:
196,156,76710,1,8,0:0:0:0:
188,168,76889,1,8,0:0:0:0:
188,168,77023,1,0,0:0:0:0:
180,120,77157,5,8,0:0:0:0:
180,120,77201,1,8,0:0:0:0:
180,120,77246,1,8,0:0:0:0:
180,120,77425,1,0,0:0:0:0:
180,120,77469,1,0,0:0:0:0:
180,120,77514,1,0,0:0:0:0:
180,120,77692,1,8,0:0:0:0:
180,120,78228,1,8,0:0:0:0:
180,120,78764,1,8,0:0:0:0:
180,120,79300,1,8,0:0:0:0:
180,120,79567,1,0,0:0:0:0:
180,120,79657,1,0,0:0:0:0:
180,120,79746,1,0,0:0:0:0:
180,120,79835,1,8,0:0:0:0:
180,120,80371,1,8,0:0:0:0:
180,120,80907,1,8,0:0:0:0:
180,120,81442,1,8,0:0:0:0:
180,120,81710,1,0,0:0:0:0:
180,120,81800,1,0,0:0:0:0:
180,120,81889,1,0,0:0:0:0:
180,120,81978,1,8,0:0:0:0:
180,120,82246,1,8,0:0:0:0:
180,120,82514,1,8,0:0:0:0:
180,120,82782,1,8,0:0:0:0:
180,120,83050,1,0,0:0:0:0:
180,120,83317,1,8,0:0:0:0:
180,120,83585,1,0,0:0:0:0:
180,120,83853,1,8,0:0:0:0:
180,120,84121,1,0,0:0:0:0:
180,120,84188,1,0,0:0:0:0:
180,120,84255,1,8,0:0:0:0:
160,112,84322,1,8,0:0:0:0:
160,112,84389,1,8,0:0:0:0:
160,112,84456,1,0,0:0:0:0:
160,112,84523,1,0,0:0:0:0:
160,112,84590,1,8,0:0:0:0:
180,120,84657,1,0,0:0:0:0:
180,120,84724,1,8,0:0:0:0:
180,120,84791,1,8,0:0:0:0:
180,120,84858,1,8,0:0:0:0:
180,120,84925,1,0,0:0:0:0:
180,120,84991,1,0,0:0:0:0:
160,112,85058,1,8,0:0:0:0:
160,112,85125,1,0,0:0:0:0:
180,120,85192,1,8,0:0:0:0:
180,120,85460,1,0,0:0:0:0:
180,120,85594,1,8,0:0:0:0:
180,120,85728,1,0,0:0:0:0:
180,120,85996,1,0,0:0:0:0:
184,128,86264,1,12,0:0:0:0:
184,128,86398,1,0,0:0:0:0:
184,128,86465,1,0,0:0:0:0:
184,128,86532,1,8,0:0:0:0:
184,128,86666,1,0,0:0:0:0:
180,148,86800,1,8,0:0:0:0:
180,148,86934,1,0,0:0:0:0:
180,148,87001,1,0,0:0:0:0:
180,148,87068,1,8,0:0:0:0:
184,128,87202,1,0,0:0:0:0:
180,148,87336,1,0,0:0:0:0:
180,148,87403,1,0,0:0:0:0:
180,148,87470,1,8,0:0:0:0:
180,148,87537,1,0,0:0:0:0:
180,148,87604,1,8,0:0:0:0:
180,148,87670,1,8,0:0:0:0:
180,148,87738,1,0,0:0:0:0:
180,148,87872,1,8,0:0:0:0:
180,148,88005,1,0,0:0:0:0:
180,148,88072,1,0,0:0:0:0:
180,148,88139,1,0,0:0:0:0:
180,148,88273,1,0,0:0:0:0:
180,148,88407,1,8,0:0:0:0:
180,148,88541,1,0,0:0:0:0:
180,148,88608,1,0,0:0:0:0:
180,148,88675,1,8,0:0:0:0:
180,148,88742,1,8,0:0:0:0:
180,148,88809,1,0,0:0:0:0:
180,148,88943,1,8,0:0:0:0:
180,148,89010,1,0,0:0:0:0:
180,148,89077,1,8,0:0:0:0:
180,148,89211,1,0,0:0:0:0:
180,148,89345,1,8,0:0:0:0:
180,148,89479,1,8,0:0:0:0:
180,148,89613,1,0,0:0:0:0:
180,148,89680,1,0,0:0:0:0:
180,148,89747,1,8,0:0:0:0:
180,148,89813,1,0,0:0:0:0:
180,148,89880,1,8,0:0:0:0:
180,148,90014,1,0,0:0:0:0:
180,148,90148,1,8,0:0:0:0:
180,148,90215,1,0,0:0:0:0:
180,148,90282,1,8,0:0:0:0:
180,148,90349,1,0,0:0:0:0:
180,148,90416,1,8,0:0:0:0:
180,148,90483,1,8,0:0:0:0:
180,148,90550,1,0,0:0:0:0:
180,148,90684,1,8,0:0:0:0:
180,148,90818,1,0,0:0:0:0:
180,148,90885,1,0,0:0:0:0:
180,148,90952,1,8,0:0:0:0:
180,148,91019,1,8,0:0:0:0:
180,148,91086,1,0,0:0:0:0:
180,148,91220,1,8,0:0:0:0:
180,148,91354,1,0,0:0:0:0:
180,148,91421,1,0,0:0:0:0:
180,148,91488,1,8,0:0:0:0:
180,148,91622,1,0,0:0:0:0:
180,148,91688,1,8,0:0:0:0:
180,148,91755,1,8,0:0:0:0:
172,168,91822,1,0,0:0:0:0:
180,148,91889,1,8,0:0:0:0:
180,148,91956,1,0,0:0:0:0:
180,148,92023,1,8,0:0:0:0:
180,148,92157,1,8,0:0:0:0:
180,148,92291,1,0,0:0:0:0:
180,148,92358,1,0,0:0:0:0:
180,148,92425,1,8,0:0:0:0:
172,168,92559,1,0,0:0:0:0:
180,148,92693,1,8,0:0:0:0:
180,148,92827,1,0,0:0:0:0:
180,148,92894,1,0,0:0:0:0:
180,148,92961,1,8,0:0:0:0:
180,148,93028,1,8,0:0:0:0:
180,148,93095,1,0,0:0:0:0:
172,168,93229,1,8,0:0:0:0:
180,148,93363,1,0,0:0:0:0:
180,148,93430,1,0,0:0:0:0:
180,148,93497,1,8,0:0:0:0:
180,148,93563,1,0,0:0:0:0:
180,148,93630,1,8,0:0:0:0:
180,148,93764,1,0,0:0:0:0:
172,168,93898,1,8,0:0:0:0:
172,168,93965,1,0,0:0:0:0:
172,168,94032,1,8,0:0:0:0:
180,148,94099,1,8,0:0:0:0:
180,148,94166,1,0,0:0:0:0:
180,148,94300,1,0,0:0:0:0:
180,148,94568,1,8,0:0:0:0:
180,148,94702,1,0,0:0:0:0:
184,128,94836,1,12,0:0:0:0:
184,128,94970,1,0,0:0:0:0:
184,128,95037,1,0,0:0:0:0:
184,128,95104,1,8,0:0:0:0:
184,128,95238,1,0,0:0:0:0:
180,148,95372,1,8,0:0:0:0:
180,148,95506,1,0,0:0:0:0:
180,148,95573,1,0,0:0:0:0:
180,148,95640,1,8,0:0:0:0:
184,128,95774,1,0,0:0:0:0:
180,148,95908,1,8,0:0:0:0:
180,148,95975,1,0,0:0:0:0:
180,148,96042,1,8,0:0:0:0:
180,148,96109,1,8,0:0:0:0:
180,148,96176,1,0,0:0:0:0:
180,148,96241,1,8,0:0:0:0:
180,148,96310,1,0,0:0:0:0:
180,148,96444,1,8,0:0:0:0:
180,148,96577,1,0,0:0:0:0:
180,148,96644,1,0,0:0:0:0:
180,148,96711,1,0,0:0:0:0:
180,148,96845,1,0,0:0:0:0:
180,148,96979,1,8,0:0:0:0:
180,148,97113,1,0,0:0:0:0:
180,148,97180,1,0,0:0:0:0:
180,148,97247,1,8,0:0:0:0:
180,148,97314,1,8,0:0:0:0:
180,148,97381,1,0,0:0:0:0:
180,148,97515,1,8,0:0:0:0:
180,148,97582,1,0,0:0:0:0:
180,148,97649,1,8,0:0:0:0:
180,148,97783,1,0,0:0:0:0:
180,148,97917,1,8,0:0:0:0:
180,148,98051,1,8,0:0:0:0:
180,148,98185,1,0,0:0:0:0:
180,148,98252,1,0,0:0:0:0:
180,148,98319,1,8,0:0:0:0:
180,148,98452,1,0,0:0:0:0:
180,148,98586,1,8,0:0:0:0:
180,148,98720,1,0,0:0:0:0:
180,148,98854,1,8,0:0:0:0:
180,148,98921,1,0,0:0:0:0:
180,148,98988,1,8,0:0:0:0:
180,148,99055,1,8,0:0:0:0:
180,148,99122,1,0,0:0:0:0:
180,148,99256,1,8,0:0:0:0:
180,148,99390,1,0,0:0:0:0:
180,148,99457,1,0,0:0:0:0:
180,148,99524,1,8,0:0:0:0:
180,148,99591,1,8,0:0:0:0:
180,148,99658,1,0,0:0:0:0:
180,148,99792,1,8,0:0:0:0:
180,148,99926,1,0,0:0:0:0:
180,148,99993,1,0,0:0:0:0:
180,148,100060,1,8,0:0:0:0:
180,148,100194,1,0,0:0:0:0:
180,148,100260,1,0,0:0:0:0:
180,148,100327,1,8,0:0:0:0:
172,168,100394,1,0,0:0:0:0:
180,148,100461,1,8,0:0:0:0:
180,148,100528,1,8,0:0:0:0:
180,148,100595,1,0,0:0:0:0:
180,148,100729,1,8,0:0:0:0:
180,148,100863,1,0,0:0:0:0:
180,148,100930,1,0,0:0:0:0:
180,148,100997,1,8,0:0:0:0:
172,168,101131,1,0,0:0:0:0:
180,148,101265,1,8,0:0:0:0:
180,148,101399,1,0,0:0:0:0:
180,148,101466,1,0,0:0:0:0:
180,148,101533,1,8,0:0:0:0:
180,148,101600,1,8,0:0:0:0:
180,148,101667,1,0,0:0:0:0:
172,168,101801,1,8,0:0:0:0:
180,148,101935,1,0,0:0:0:0:
180,148,102002,1,0,0:0:0:0:
180,148,102069,1,8,0:0:0:0:
180,148,102135,1,0,0:0:0:0:
180,148,102202,1,8,0:0:0:0:
180,148,102336,1,0,0:0:0:0:
172,168,102604,1,8,0:0:0:0:
180,148,102872,1,0,0:0:0:0:
180,148,103139,5,8,0:0:0:0:
180,148,103407,1,0,0:0:0:0:
180,148,103541,1,0,0:0:0:0:
180,148,103608,1,0,0:0:0:0:
180,148,103675,1,8,0:0:0:0:
180,148,103809,1,0,0:0:0:0:
180,148,103943,1,8,0:0:0:0:
180,148,104211,1,8,0:0:0:0:
180,148,104345,1,0,0:0:0:0:
180,148,104479,1,8,0:0:0:0:
180,148,104512,1,8,0:0:0:0:
180,148,104613,1,0,0:0:0:0:
180,148,104646,1,8,0:0:0:0:
180,148,104747,1,8,0:0:0:0:
180,148,104780,1,0,0:0:0:0:
180,148,104880,1,8,0:0:0:0:
180,148,104914,1,8,0:0:0:0:
180,148,105014,1,0,0:0:0:0:
180,148,105282,1,8,0:0:0:0:
180,148,105416,1,0,0:0:0:0:
180,148,105550,1,8,0:0:0:0:
180,148,105617,1,8,0:0:0:0:
180,148,105684,1,0,0:0:0:0:
180,148,105818,1,8,0:0:0:0:
180,148,105952,1,0,0:0:0:0:
180,148,106019,1,0,0:0:0:0:
180,148,106086,1,8,0:0:0:0:
180,148,106220,1,0,0:0:0:0:
180,148,106354,1,8,0:0:0:0:
140,132,106488,1,8,0:0:0:0:
180,148,106622,1,0,0:0:0:0:
180,148,106655,1,8,0:0:0:0:
180,148,106756,1,8,0:0:0:0:
180,148,106789,1,0,0:0:0:0:
180,148,106890,1,8,0:0:0:0:
180,148,106923,1,8,0:0:0:0:
180,148,107023,1,0,0:0:0:0:
180,148,107057,1,8,0:0:0:0:
180,148,107157,1,8,0:0:0:0:
96,152,107425,1,8,0:0:0:0:
136,148,107559,1,0,0:0:0:0:
180,148,107693,1,8,0:0:0:0:
180,148,107827,1,0,0:0:0:0:
180,148,107894,1,0,0:0:0:0:
180,148,107961,1,8,0:0:0:0:
180,148,108095,1,8,0:0:0:0:
180,148,108229,1,0,0:0:0:0:
116,204,108497,1,8,0:0:0:0:
116,204,108630,1,8,0:0:0:0:
180,148,108764,1,8,0:0:0:0:
180,148,108797,1,8,0:0:0:0:
180,148,108898,1,0,0:0:0:0:
180,148,108931,1,8,0:0:0:0:
180,148,109032,1,8,0:0:0:0:
180,148,109065,1,0,0:0:0:0:
180,148,109165,1,8,0:0:0:0:
180,148,109199,1,8,0:0:0:0:
180,148,109299,1,0,0:0:0:0:
116,204,109568,1,8,0:0:0:0:
116,164,109702,1,0,0:0:0:0:
116,164,109836,1,0,0:0:0:0:
116,164,109970,1,0,0:0:0:0:
116,164,110037,1,0,0:0:0:0:
116,164,110104,1,8,0:0:0:0:
116,164,110238,1,0,0:0:0:0:
116,164,110372,1,8,0:0:0:0:
116,164,110639,1,8,0:0:0:0:
116,164,110773,1,0,0:0:0:0:
180,148,110907,1,0,0:0:0:0:
180,148,110940,1,8,0:0:0:0:
180,148,111041,1,8,0:0:0:0:
180,148,111074,1,0,0:0:0:0:
180,148,111175,1,8,0:0:0:0:
180,148,111208,1,8,0:0:0:0:
180,148,111308,1,0,0:0:0:0:
180,148,111342,1,8,0:0:0:0:
180,148,111442,1,8,0:0:0:0:
180,148,111711,1,8,0:0:0:0:
180,148,111845,1,8,0:0:0:0:
180,148,111979,1,8,0:0:0:0:
180,148,112113,1,0,0:0:0:0:
180,148,112180,1,0,0:0:0:0:
180,148,112247,1,8,0:0:0:0:
180,148,112381,1,0,0:0:0:0:
180,148,112515,1,8,0:0:0:0:
180,148,112783,1,8,0:0:0:0:
180,148,112917,1,0,0:0:0:0:
180,148,113051,1,8,0:0:0:0:
180,148,113084,1,8,0:0:0:0:
180,148,113185,1,0,0:0:0:0:
180,148,113218,1,8,0:0:0:0:
180,148,113319,1,8,0:0:0:0:
180,148,113352,1,0,0:0:0:0:
180,148,113452,1,8,0:0:0:0:
180,148,113486,1,8,0:0:0:0:
180,148,113586,1,0,0:0:0:0:
180,148,113854,1,8,0:0:0:0:
180,148,113988,1,0,0:0:0:0:
180,148,114122,1,8,0:0:0:0:
180,148,114189,1,8,0:0:0:0:
180,148,114256,1,0,0:0:0:0:
180,148,114390,1,8,0:0:0:0:
180,148,114524,1,0,0:0:0:0:
180,148,114591,1,0,0:0:0:0:
180,148,114658,1,8,0:0:0:0:
180,148,114792,1,0,0:0:0:0:
180,148,114926,1,8,0:0:0:0:
140,132,115060,1,8,0:0:0:0:
180,148,115194,1,0,0:0:0:0:
180,148,115227,1,8,0:0:0:0:
180,148,115328,1,8,0:0:0:0:
180,148,115361,1,0,0:0:0:0:
180,148,115462,1,8,0:0:0:0:
180,148,115495,1,8,0:0:0:0:
180,148,115595,1,0,0:0:0:0:
180,148,115629,1,8,0:0:0:0:
180,148,115729,1,8,0:0:0:0:
96,152,115997,1,8,0:0:0:0:
136,148,116131,1,0,0:0:0:0:
180,148,116265,1,0,0:0:0:0:
180,148,116399,1,0,0:0:0:0:
180,148,116466,1,0,0:0:0:0:
180,148,116533,1,8,0:0:0:0:
180,148,116667,1,0,0:0:0:0:
180,148,116801,1,8,0:0:0:0:
116,204,117069,1,8,0:0:0:0:
116,204,117202,1,8,0:0:0:0:
180,148,117336,1,0,0:0:0:0:
180,148,117369,1,0,0:0:0:0:
180,148,117470,1,8,0:0:0:0:
180,148,117503,1,8,0:0:0:0:
180,148,117604,1,8,0:0:0:0:
180,148,117637,1,8,0:0:0:0:
180,148,117737,1,0,0:0:0:0:
180,148,117771,1,0,0:0:0:0:
180,148,117871,1,8,0:0:0:0:
116,204,118140,1,8,0:0:0:0:
116,164,118274,1,0,0:0:0:0:
116,164,118408,1,0,0:0:0:0:
116,164,118542,1,0,0:0:0:0:
116,164,118609,1,0,0:0:0:0:
116,164,118676,1,8,0:0:0:0:
116,164,118810,1,0,0:0:0:0:
116,164,118944,1,8,0:0:0:0:
116,164,119211,1,8,0:0:0:0:
116,164,119345,1,0,0:0:0:0:
180,148,119479,1,0,0:0:0:0:
180,148,119680,1,0,0:0:0:0:
116,152,119880,1,0,0:0:0:0:
156,148,120014,1,0,0:0:0:0:
156,148,120148,1,8,0:0:0:0:
156,148,120215,1,8,0:0:0:0:
180,148,120282,1,8,0:0:0:0:
156,148,120416,1,8,0:0:0:0:
156,148,120550,1,0,0:0:0:0:
180,148,120818,1,8,0:0:0:0:
180,148,121085,1,0,0:0:0:0:
180,148,121353,1,0,0:0:0:0:
180,148,121622,1,8,0:0:0:0:
180,148,121889,1,0,0:0:0:0:
180,148,122023,1,0,0:0:0:0:
180,148,122157,1,8,0:0:0:0:
180,148,122425,1,0,0:0:0:0:
180,148,122693,1,0,0:0:0:0:
180,148,122961,1,8,0:0:0:0:
180,148,123229,1,0,0:0:0:0:
152,180,123362,1,0,0:0:0:0:
180,148,123497,1,8,0:0:0:0:
180,148,123764,1,0,0:0:0:0:
180,148,124032,1,8,0:0:0:0:
180,148,124166,1,8,0:0:0:0:
180,148,124300,1,0,0:0:0:0:
180,148,124568,1,8,0:0:0:0:
180,148,124836,1,0,0:0:0:0:
180,148,125104,1,8,0:0:0:0:
180,148,125372,1,8,0:0:0:0:
180,148,125639,1,0,0:0:0:0:
180,148,125907,1,8,0:0:0:0:
100,172,126175,1,8,0:0:0:0:
60,188,126309,1,8,0:0:0:0:
100,176,126443,1,0,0:0:0:0:
180,148,126711,1,8,0:0:0:0:
100,172,126979,1,8,0:0:0:0:
184,156,127247,1,0,0:0:0:0:
180,148,127380,1,0,0:0:0:0:
100,172,127514,1,8,0:0:0:0:
184,156,127782,1,0,0:0:0:0:
100,172,128050,1,8,0:0:0:0:
184,156,128318,1,8,0:0:0:0:
184,156,128351,1,8,0:0:0:0:
144,164,128452,1,0,0:0:0:0:
184,156,128485,1,0,0:0:0:0:
144,164,128586,1,8,0:0:0:0:
184,156,128619,1,8,0:0:0:0:
144,164,128854,1,8,0:0:0:0:
144,164,128988,1,0,0:0:0:0:
144,164,129122,1,8,0:0:0:0:
184,156,129255,1,0,0:0:0:0:
184,156,129322,1,0,0:0:0:0:
228,172,129389,1,8,0:0:0:0:
184,156,129523,1,8,0:0:0:0:
184,156,129657,1,0,0:0:0:0:
184,156,129791,1,0,0:0:0:0:
184,156,129858,1,0,0:0:0:0:
188,168,129925,1,8,0:0:0:0:
184,156,130059,1,0,0:0:0:0:
184,156,130193,1,8,0:0:0:0:
188,168,130461,1,8,0:0:0:0:
188,168,130595,1,0,0:0:0:0:
188,168,130729,1,8,0:0:0:0:
188,168,130997,1,8,0:0:0:0:
188,168,131130,1,0,0:0:0:0:
188,168,131197,1,0,0:0:0:0:
188,168,131264,1,8,0:0:0:0:
188,168,131331,1,0,0:0:0:0:
188,168,131398,1,8,0:0:0:0:
188,168,131532,1,0,0:0:0:0:
188,168,131666,1,8,0:0:0:0:
188,168,131800,1,0,0:0:0:0:
188,168,131934,1,0,0:0:0:0:
188,168,132000,1,0,0:0:0:0:
188,168,132068,1,8,0:0:0:0:
188,168,132202,1,0,0:0:0:0:
188,168,132336,1,8,0:0:0:0:
188,168,132604,1,8,0:0:0:0:
188,168,132738,1,0,0:0:0:0:
188,168,132872,1,8,0:0:0:0:
188,168,133139,1,0,0:0:0:0:
188,168,133407,1,8,0:0:0:0:
188,168,133541,1,0,0:0:0:0:
188,168,133608,1,0,0:0:0:0:
188,168,133675,1,8,0:0:0:0:
188,168,133809,1,0,0:0:0:0:
188,168,133943,1,8,0:0:0:0:
188,168,134077,1,0,0:0:0:0:
188,168,134144,1,0,0:0:0:0:
188,168,134211,1,8,0:0:0:0:
188,168,134345,1,0,0:0:0:0:
188,168,134478,1,8,0:0:0:0:
188,168,134747,1,8,0:0:0:0:
188,168,134880,1,8,0:0:0:0:
188,168,135014,1,0,0:0:0:0:
188,168,135148,1,0,0:0:0:0:
188,168,135215,1,0,0:0:0:0:
188,168,135282,1,8,0:0:0:0:
188,168,135349,1,0,0:0:0:0:
188,168,135416,1,8,0:0:0:0:
188,168,135550,1,0,0:0:0:0:
188,168,135684,1,8,0:0:0:0:
188,168,135818,1,0,0:0:0:0:
192,148,135884,1,0,0:0:0:0:
188,168,135952,1,8,0:0:0:0:
188,168,136086,1,0,0:0:0:0:
188,168,136220,1,0,0:0:0:0:
188,168,136354,1,8,0:0:0:0:
188,168,136488,1,8,0:0:0:0:
188,168,136622,1,0,0:0:0:0:
188,168,136688,1,8,0:0:0:0:
188,168,136755,1,8,0:0:0:0:
188,168,136822,1,8,0:0:0:0:
188,168,136889,1,8,0:0:0:0:
188,168,137023,1,0,0:0:0:0:
188,168,137157,1,8,0:0:0:0:
188,168,137291,1,0,0:0:0:0:
188,168,137358,1,0,0:0:0:0:
188,168,137425,1,8,0:0:0:0:
188,168,137559,1,0,0:0:0:0:
188,168,137693,1,8,0:0:0:0:
188,168,137961,1,8,0:0:0:0:
188,168,138095,1,8,0:0:0:0:
188,168,138229,1,0,0:0:0:0:
188,168,138497,1,8,0:0:0:0:
188,168,138764,1,0,0:0:0:0:
188,168,139032,1,8,0:0:0:0:
188,168,139166,1,0,0:0:0:0:
188,168,139300,1,8,0:0:0:0:
188,168,139568,1,8,0:0:0:0:
188,168,139702,1,8,0:0:0:0:
188,168,139836,1,0,0:0:0:0:
188,168,140104,1,8,0:0:0:0:
188,168,140372,1,0,0:0:0:0:
188,168,140639,1,0,0:0:0:0:
188,168,140773,1,0,0:0:0:0:
188,168,140907,1,8,0:0:0:0:
188,168,141175,1,0,0:0:0:0:
188,168,141443,1,8,0:0:0:0:
188,168,141577,1,8,0:0:0:0:
188,168,141711,1,0,0:0:0:0:
188,168,141979,1,8,0:0:0:0:
188,168,142247,1,0,0:0:0:0:
188,168,142380,1,0,0:0:0:0:
188,168,142514,1,8,0:0:0:0:
188,168,142782,1,0,0:0:0:0:
188,168,143050,1,8,0:0:0:0:
188,168,143318,1,8,0:0:0:0:
188,168,143452,1,0,0:0:0:0:
188,168,143586,1,8,0:0:0:0:
188,168,143854,1,8,0:0:0:0:
188,168,143988,1,8,0:0:0:0:
188,168,144122,1,0,0:0:0:0:
188,168,144255,1,0,0:0:0:0:
188,168,144389,1,8,0:0:0:0:
188,168,144657,1,8,0:0:0:0:
188,168,144925,1,0,0:0:0:0:
188,168,145059,1,0,0:0:0:0:
188,168,145193,1,8,0:0:0:0:
196,156,145238,1,8,0:0:0:0:
196,156,145282,1,8,0:0:0:0:
188,168,145461,1,8,0:0:0:0:
188,168,145595,1,0,0:0:0:0:
180,120,145729,5,8,0:0:0:0:
180,120,145795,1,8,0:0:0:0:
180,120,145862,1,0,0:0:0:0:
180,120,145929,1,8,0:0:0:0:
180,120,145996,1,8,0:0:0:0:
180,120,146063,1,0,0:0:0:0:
180,120,146130,1,8,0:0:0:0:
180,120,146264,1,0,0:0:0:0:
180,120,146800,1,8,0:0:0:0:
180,120,147336,1,8,0:0:0:0:
180,120,147872,1,8,0:0:0:0:
180,120,148139,1,8,0:0:0:0:
180,120,148273,1,8,0:0:0:0:
180,120,148407,1,0,0:0:0:0:
180,120,148943,1,8,0:0:0:0:
180,120,149479,1,8,0:0:0:0:
180,120,150014,1,8,0:0:0:0:
180,120,150282,1,0,0:0:0:0:
180,120,150416,1,0,0:0:0:0:
180,120,150550,1,0,0:0:0:0:
180,120,151085,1,8,0:0:0:0:
180,120,151621,1,8,0:0:0:0:
180,120,152157,1,0,0:0:0:0:
180,120,152425,1,8,0:0:0:0:
180,120,152558,1,0,0:0:0:0:
180,120,152692,1,0,0:0:0:0:
224,136,153764,1,0,0:0:0:0:
224,136,154300,1,8,0:0:0:0:
224,136,154835,1,8,0:0:0:0:
224,136,155103,1,8,0:0:0:0:
224,136,155237,1,0,0:0:0:0:
224,136,155371,1,8,0:0:0:0:
224,136,155639,1,8,0:0:0:0:
224,136,155773,1,8,0:0:0:0:
224,136,155907,1,0,0:0:0:0:
224,136,156175,1,8,0:0:0:0:
224,136,156308,1,8,0:0:0:0:
224,136,156442,1,8,0:0:0:0:
224,136,156710,1,8,0:0:0:0:
224,136,156978,1,8,0:0:0:0:
224,136,157246,1,8,0:0:0:0:
224,136,157380,1,0,0:0:0:0:
224,136,157514,1,8,0:0:0:0:
224,136,157782,1,8,0:0:0:0:
224,136,157916,1,8,0:0:0:0:
224,136,158050,1,0,0:0:0:0:
224,136,158317,1,8,0:0:0:0:
224,136,158451,1,8,0:0:0:0:
224,136,158585,1,8,0:0:0:0:
224,136,158853,1,0,0:0:0:0:
224,136,159121,1,8,0:0:0:0:
224,136,159389,1,8,0:0:0:0:
224,136,159523,1,0,0:0:0:0:
224,136,159657,1,8,0:0:0:0:
224,136,159925,1,8,0:0:0:0:
224,136,160058,1,8,0:0:0:0:
224,136,160192,1,0,0:0:0:0:
224,136,160460,1,8,0:0:0:0:
224,136,160594,1,8,0:0:0:0:
224,136,160728,1,8,0:0:0:0:
224,136,160996,1,8,0:0:0:0:
224,136,161264,1,0,0:0:0:0:
224,136,161532,1,8,0:0:0:0:
224,136,161666,1,0,0:0:0:0:
224,136,161800,1,8,0:0:0:0:
224,136,162067,1,0,0:0:0:0:
224,136,162201,1,8,0:0:0:0:
224,136,162335,1,8,0:0:0:0:
224,136,162402,1,0,0:0:0:0:
224,136,162469,1,8,0:0:0:0:
224,136,162536,1,0,0:0:0:0:
224,136,162603,1,8,0:0:0:0:
224,136,162670,1,8,0:0:0:0:
224,136,162737,1,8,0:0:0:0:
224,136,162804,1,8,0:0:0:0:
224,136,162871,1,0,0:0:0:0:
224,136,163139,1,8,0:0:0:0:
224,136,163407,1,0,0:0:0:0:
224,136,163675,1,8,0:0:0:0:
224,136,163808,1,0,0:0:0:0:
224,136,163875,1,0,0:0:0:0:
224,136,163942,1,8,0:0:0:0:
224,136,164210,1,8,0:0:0:0:
224,136,164478,1,0,0:0:0:0:
224,136,164746,1,8,0:0:0:0:
224,136,164880,1,8,0:0:0:0:
224,136,164947,1,8,0:0:0:0:
224,136,165014,1,0,0:0:0:0:
224,136,165282,1,8,0:0:0:0:
224,136,165349,1,8,0:0:0:0:
224,136,165416,1,8,0:0:0:0:
224,136,165483,1,8,0:0:0:0:
224,136,165550,1,0,0:0:0:0:
224,136,165817,1,8,0:0:0:0:
224,136,165951,1,0,0:0:0:0:
224,136,166018,1,0,0:0:0:0:
224,136,166085,1,8,0:0:0:0:
224,136,166353,1,8,0:0:0:0:
224,136,166621,1,0,0:0:0:0:
224,136,166889,1,8,0:0:0:0:
224,136,167023,1,8,0:0:0:0:
224,136,167090,1,8,0:0:0:0:
224,136,167157,1,0,0:0:0:0:
224,136,167425,1,8,0:0:0:0:
224,136,167558,1,8,0:0:0:0:
224,136,167692,1,0,0:0:0:0:
224,136,167826,1,8,0:0:0:0:
224,136,167960,1,0,0:0:0:0:
224,136,168094,1,0,0:0:0:0:
224,136,168228,1,8,0:0:0:0:
224,136,168362,1,0,0:0:0:0:
224,136,168496,1,8,0:0:0:0:
224,136,168630,1,8,0:0:0:0:
224,136,168764,1,0,0:0:0:0:
224,136,168898,1,0,0:0:0:0:
264,124,169032,1,8,0:0:0:0:
264,124,169166,1,8,0:0:0:0:
264,124,169300,1,0,0:0:0:0:
264,124,169433,1,0,0:0:0:0:
264,124,169567,1,8,0:0:0:0:
244,124,169634,1,0,0:0:0:0:
244,124,169701,1,8,0:0:0:0:
244,124,169768,1,8,0:0:0:0:
244,124,169835,1,0,0:0:0:0:
244,124,169902,1,0,0:0:0:0:
244,124,169969,1,0,0:0:0:0:
244,124,170036,1,0,0:0:0:0:
244,124,170103,1,8,0:0:0:0:
244,124,170170,1,0,0:0:0:0:
244,124,170237,1,8,0:0:0:0:
244,124,170304,1,8,0:0:0:0:
244,124,170371,1,0,0:0:0:0:
244,124,170438,1,8,0:0:0:0:
244,124,170505,1,8,0:0:0:0:
244,124,170572,1,0,0:0:0:0:
244,124,170639,1,8,0:0:0:0:
244,124,170706,1,0,0:0:0:0:
244,124,170773,1,8,0:0:0:0:
244,124,170840,1,8,0:0:0:0:
244,124,170907,1,0,0:0:0:0:
244,124,171175,1,0,0:0:0:0:
244,124,171442,1,8,0:0:0:0:
184,128,171978,1,12,0:0:0:0:
184,128,172112,1,0,0:0:0:0:
184,128,172179,1,0,0:0:0:0:
184,128,172246,1,8,0:0:0:0:
184,128,172380,1,0,0:0:0:0:
180,148,172514,1,8,0:0:0:0:
180,148,172648,1,0,0:0:0:0:
180,148,172715,1,0,0:0:0:0:
180,148,172782,1,8,0:0:0:0:
184,128,172916,1,0,0:0:0:0:
180,148,173050,1,8,0:0:0:0:
180,148,173117,1,0,0:0:0:0:
180,148,173184,1,8,0:0:0:0:
180,148,173251,1,8,0:0:0:0:
180,148,173318,1,0,0:0:0:0:
180,148,173452,1,0,0:0:0:0:
180,148,173586,1,8,0:0:0:0:
180,148,173719,1,0,0:0:0:0:
180,148,173786,1,0,0:0:0:0:
180,148,173853,1,0,0:0:0:0:
180,148,173987,1,0,0:0:0:0:
180,148,174121,1,8,0:0:0:0:
180,148,174255,1,0,0:0:0:0:
180,148,174322,1,0,0:0:0:0:
180,148,174389,1,8,0:0:0:0:
180,148,174456,1,8,0:0:0:0:
180,148,174523,1,0,0:0:0:0:
180,148,174657,1,0,0:0:0:0:
180,148,174791,1,8,0:0:0:0:
180,148,174858,1,0,0:0:0:0:
180,148,174925,1,8,0:0:0:0:
160,152,174991,1,8,0:0:0:0:
180,148,175058,1,0,0:0:0:0:
180,148,175193,1,8,0:0:0:0:
180,148,175327,1,0,0:0:0:0:
180,148,175394,1,0,0:0:0:0:
180,148,175461,1,8,0:0:0:0:
180,148,175594,1,0,0:0:0:0:
180,148,175728,1,8,0:0:0:0:
180,148,175862,1,0,0:0:0:0:
180,148,175929,1,0,0:0:0:0:
180,148,175996,1,8,0:0:0:0:
180,148,176063,1,0,0:0:0:0:
180,148,176130,1,8,0:0:0:0:
180,148,176197,1,8,0:0:0:0:
180,148,176264,1,0,0:0:0:0:
180,148,176398,1,8,0:0:0:0:
180,148,176532,1,0,0:0:0:0:
180,148,176599,1,0,0:0:0:0:
180,148,176666,1,8,0:0:0:0:
180,148,176733,1,8,0:0:0:0:
180,148,176800,1,0,0:0:0:0:
180,148,176934,1,8,0:0:0:0:
180,148,177068,1,0,0:0:0:0:
180,148,177135,1,0,0:0:0:0:
180,148,177202,1,8,0:0:0:0:
180,148,177336,1,0,0:0:0:0:
180,148,177402,1,0,0:0:0:0:
180,148,177469,1,8,0:0:0:0:
172,168,177536,1,0,0:0:0:0:
180,148,177603,1,8,0:0:0:0:
180,148,177670,1,8,0:0:0:0:
180,148,177737,1,0,0:0:0:0:
180,148,177871,1,8,0:0:0:0:
180,148,178005,1,0,0:0:0:0:
180,148,178072,1,0,0:0:0:0:
180,148,178139,1,8,0:0:0:0:
172,168,178273,1,0,0:0:0:0:
180,148,178407,1,8,0:0:0:0:
180,148,178541,1,0,0:0:0:0:
180,148,178608,1,0,0:0:0:0:
180,148,178675,1,8,0:0:0:0:
180,148,178742,1,8,0:0:0:0:
180,148,178809,1,0,0:0:0:0:
172,168,178943,1,8,0:0:0:0:
180,148,179077,1,0,0:0:0:0:
180,148,179144,1,0,0:0:0:0:
180,148,179211,1,8,0:0:0:0:
180,148,179277,1,0,0:0:0:0:
180,148,179344,1,8,0:0:0:0:
180,148,179478,1,0,0:0:0:0:
172,168,179612,1,8,0:0:0:0:
172,168,179679,1,0,0:0:0:0:
172,168,179746,1,8,0:0:0:0:
180,148,179813,1,8,0:0:0:0:
180,148,179880,1,0,0:0:0:0:
180,148,180014,1,0,0:0:0:0:
180,148,180282,1,8,0:0:0:0:
180,148,180416,1,0,0:0:0:0:
184,128,180550,1,12,0:0:0:0:
184,128,180684,1,0,0:0:0:0:
184,128,180751,1,0,0:0:0:0:
184,128,180818,1,8,0:0:0:0:
184,128,180952,1,0,0:0:0:0:
180,148,181086,1,8,0:0:0:0:
180,148,181220,1,0,0:0:0:0:
180,148,181287,1,0,0:0:0:0:
180,148,181354,1,8,0:0:0:0:
184,128,181488,1,0,0:0:0:0:
180,148,181622,1,8,0:0:0:0:
180,148,181689,1,0,0:0:0:0:
180,148,181756,1,8,0:0:0:0:
180,148,181823,1,8,0:0:0:0:
180,148,181890,1,0,0:0:0:0:
180,148,182024,1,0,0:0:0:0:
180,148,182158,1,8,0:0:0:0:
180,148,182291,1,0,0:0:0:0:
180,148,182358,1,0,0:0:0:0:
180,148,182425,1,0,0:0:0:0:
180,148,182559,1,0,0:0:0:0:
180,148,182693,1,8,0:0:0:0:
180,148,182827,1,0,0:0:0:0:
180,148,182894,1,0,0:0:0:0:
180,148,182961,1,8,0:0:0:0:
180,148,183028,1,8,0:0:0:0:
180,148,183095,1,0,0:0:0:0:
180,148,183229,1,8,0:0:0:0:
180,148,183296,1,0,0:0:0:0:
180,148,183363,1,8,0:0:0:0:
180,148,183497,1,0,0:0:0:0:
180,148,183631,1,8,0:0:0:0:
180,148,183765,1,8,0:0:0:0:
180,148,183899,1,0,0:0:0:0:
180,148,183966,1,0,0:0:0:0:
180,148,184033,1,8,0:0:0:0:
180,148,184166,1,0,0:0:0:0:
180,148,184300,1,8,0:0:0:0:
180,148,184434,1,0,0:0:0:0:
180,148,184501,1,0,0:0:0:0:
180,148,184568,1,8,0:0:0:0:
180,148,184635,1,0,0:0:0:0:
180,148,184702,1,8,0:0:0:0:
180,148,184769,1,8,0:0:0:0:
180,148,184836,1,0,0:0:0:0:
180,148,184970,1,8,0:0:0:0:
180,148,185104,1,0,0:0:0:0:
180,148,185171,1,0,0:0:0:0:
180,148,185238,1,8,0:0:0:0:
180,148,185305,1,8,0:0:0:0:
180,148,185372,1,0,0:0:0:0:
180,148,185506,1,8,0:0:0:0:
180,148,185640,1,0,0:0:0:0:
180,148,185707,1,0,0:0:0:0:
180,148,185774,1,8,0:0:0:0:
180,148,185908,1,0,0:0:0:0:
180,148,185974,1,0,0:0:0:0:
180,148,186041,1,8,0:0:0:0:
172,168,186108,1,0,0:0:0:0:
180,148,186175,1,8,0:0:0:0:
180,148,186242,1,8,0:0:0:0:
180,148,186309,1,0,0:0:0:0:
180,148,186443,1,8,0:0:0:0:
180,148,186577,1,0,0:0:0:0:
180,148,186644,1,0,0:0:0:0:
180,148,186711,1,8,0:0:0:0:
172,168,186845,1,0,0:0:0:0:
180,148,186979,1,8,0:0:0:0:
180,148,187113,1,0,0:0:0:0:
180,148,187180,1,0,0:0:0:0:
180,148,187247,1,8,0:0:0:0:
180,148,187314,1,8,0:0:0:0:
180,148,187381,1,0,0:0:0:0:
172,168,187515,1,8,0:0:0:0:
180,148,187649,1,0,0:0:0:0:
180,148,187716,1,0,0:0:0:0:
180,148,187783,1,8,0:0:0:0:
180,148,187849,1,0,0:0:0:0:
180,148,187916,1,8,0:0:0:0:
180,148,188050,1,0,0:0:0:0:
172,168,188318,1,8,0:0:0:0:
180,148,188586,1,0,0:0:0:0:
180,148,188853,5,8,0:0:0:0:
180,148,189121,1,0,0:0:0:0:
180,148,189255,1,0,0:0:0:0:
180,148,189322,1,0,0:0:0:0:
180,148,189389,1,8,0:0:0:0:
180,148,189523,1,0,0:0:0:0:
180,148,189657,1,8,0:0:0:0:
180,148,189925,1,8,0:0:0:0:
180,148,190059,1,0,0:0:0:0:
180,148,190193,1,8,0:0:0:0:
180,148,190226,1,8,0:0:0:0:
180,148,190327,1,0,0:0:0:0:
180,148,190360,1,8,0:0:0:0:
180,148,190461,1,8,0:0:0:0:
180,148,190494,1,0,0:0:0:0:
180,148,190594,1,8,0:0:0:0:
180,148,190628,1,8,0:0:0:0:
180,148,190728,1,0,0:0:0:0:
180,148,190996,1,8,0:0:0:0:
180,148,191130,1,0,0:0:0:0:
180,148,191264,1,8,0:0:0:0:
180,148,191331,1,8,0:0:0:0:
180,148,191398,1,0,0:0:0:0:
180,148,191532,1,8,0:0:0:0:
180,148,191666,1,0,0:0:0:0:
180,148,191733,1,0,0:0:0:0:
180,148,191800,1,8,0:0:0:0:
180,148,191934,1,0,0:0:0:0:
180,148,192068,1,8,0:0:0:0:
140,132,192202,1,8,0:0:0:0:
180,148,192336,1,0,0:0:0:0:
180,148,192369,1,8,0:0:0:0:
180,148,192470,1,8,0:0:0:0:
180,148,192503,1,0,0:0:0:0:
180,148,192604,1,8,0:0:0:0:
180,148,192637,1,8,0:0:0:0:
180,148,192737,1,0,0:0:0:0:
180,148,192771,1,8,0:0:0:0:
180,148,192871,1,8,0:0:0:0:
96,152,193139,1,8,0:0:0:0:
136,148,193273,1,0,0:0:0:0:
180,148,193407,1,8,0:0:0:0:
180,148,193541,1,0,0:0:0:0:
180,148,193608,1,0,0:0:0:0:
180,148,193675,1,8,0:0:0:0:
180,148,193809,1,8,0:0:0:0:
180,148,193943,1,0,0:0:0:0:
116,204,194211,1,8,0:0:0:0:
116,204,194344,1,8,0:0:0:0:
180,148,194478,1,8,0:0:0:0:
180,148,194511,1,8,0:0:0:0:
180,148,194612,1,0,0:0:0:0:
180,148,194645,1,8,0:0:0:0:
180,148,194746,1,8,0:0:0:0:
180,148,194779,1,0,0:0:0:0:
180,148,194879,1,8,0:0:0:0:
180,148,194913,1,8,0:0:0:0:
180,148,195013,1,0,0:0:0:0:
116,204,195282,1,8,0:0:0:0:
116,164,195416,1,0,0:0:0:0:
116,164,195550,1,0,0:0:0:0:
116,164,195684,1,0,0:0:0:0:
116,164,195751,1,0,0:0:0:0:
116,164,195818,1,8,0:0:0:0:
116,164,195952,1,0,0:0:0:0:
116,164,196086,1,8,0:0:0:0:
116,164,196353,1,8,0:0:0:0:
116,164,196487,1,0,0:0:0:0:
180,148,196621,1,0,0:0:0:0:
180,148,196654,1,8,0:0:0:0:
180,148,196755,1,8,0:0:0:0:
180,148,196788,1,0,0:0:0:0:
180,148,196889,1,8,0:0:0:0:
180,148,196922,1,8,0:0:0:0:
180,148,197022,1,0,0:0:0:0:
180,148,197056,1,8,0:0:0:0:
180,148,197156,1,8,0:0:0:0:
180,148,197425,1,8,0:0:0:0:
180,148,197559,1,8,0:0:0:0:
180,148,197693,1,8,0:0:0:0:
180,148,197827,1,0,0:0:0:0:
180,148,197894,1,0,0:0:0:0:
180,148,197961,1,8,0:0:0:0:
180,148,198095,1,0,0:0:0:0:
180,148,198229,1,8,0:0:0:0:
180,148,198497,1,8,0:0:0:0:
180,148,198631,1,0,0:0:0:0:
180,148,198765,1,8,0:0:0:0:
180,148,198798,1,8,0:0:0:0:
180,148,198899,1,0,0:0:0:0:
180,148,198932,1,8,0:0:0:0:
180,148,199033,1,8,0:0:0:0:
180,148,199066,1,0,0:0:0:0:
180,148,199166,1,8,0:0:0:0:
180,148,199200,1,8,0:0:0:0:
180,148,199300,1,0,0:0:0:0:
180,148,199568,1,8,0:0:0:0:
180,148,199702,1,0,0:0:0:0:
180,148,199836,1,8,0:0:0:0:
180,148,199903,1,8,0:0:0:0:
180,148,199970,1,0,0:0:0:0:
180,148,200104,1,8,0:0:0:0:
180,148,200238,1,0,0:0:0:0:
180,148,200305,1,0,0:0:0:0:
180,148,200372,1,8,0:0:0:0:
180,148,200506,1,0,0:0:0:0:
180,148,200640,1,8,0:0:0:0:
140,132,200774,1,8,0:0:0:0:
180,148,200908,1,0,0:0:0:0:
180,148,200941,1,8,0:0:0:0:
180,148,201042,1,8,0:0:0:0:
180,148,201075,1,0,0:0:0:0:
180,148,201176,1,8,0:0:0:0:
180,148,201209,1,8,0:0:0:0:
180,148,201309,1,0,0:0:0:0:
180,148,201343,1,8,0:0:0:0:
180,148,201443,1,8,0:0:0:0:
96,152,201711,1,8,0:0:0:0:
136,148,201845,1,0,0:0:0:0:
180,148,201978,1,8,0:0:0:0:
180,148,202112,1,0,0:0:0:0:
180,148,202179,1,0,0:0:0:0:
180,148,202246,1,8,0:0:0:0:
180,148,202380,1,8,0:0:0:0:
180,148,202514,1,0,0:0:0:0:
116,204,202782,1,8,0:0:0:0:
116,204,202915,1,8,0:0:0:0:
180,148,203049,1,8,0:0:0:0:
180,148,203082,1,8,0:0:0:0:
180,148,203183,1,0,0:0:0:0:
180,148,203216,1,8,0:0:0:0:
180,148,203317,1,8,0:0:0:0:
180,148,203350,1,0,0:0:0:0:
180,148,203450,1,8,0:0:0:0:
180,148,203484,1,8,0:0:0:0:
180,148,203584,1,0,0:0:0:0:
116,204,203853,1,8,0:0:0:0:
116,164,203987,1,0,0:0:0:0:
116,164,204121,1,0,0:0:0:0:
116,164,204255,1,0,0:0:0:0:
116,164,204322,1,0,0:0:0:0:
116,164,204389,1,8,0:0:0:0:
116,164,204523,1,0,0:0:0:0:
116,164,204657,1,8,0:0:0:0:
116,164,204924,1,8,0:0:0:0:
116,164,205058,1,0,0:0:0:0:
180,148,205192,1,0,0:0:0:0:
180,148,205225,1,8,0:0:0:0:
180,148,205326,1,8,0:0:0:0:
180,148,205359,1,0,0:0:0:0:
180,148,205460,1,8,0:0:0:0:
180,148,205493,1,8,0:0:0:0:
180,148,205593,1,0,0:0:0:0:
180,148,205627,1,8,0:0:0:0:
180,148,205727,1,8,0:0:0:0:
180,148,205817,1,0,0:0:0:0:
180,148,205907,1,8,0:0:0:0:
180,148,205996,1,8,0:0:0:0:
180,148,206085,1,0,0:0:0:0:
180,148,206175,1,0,0:0:0:0:
180,148,206264,1,8,0:0:0:0:
180,148,206532,1,8,0:0:0:0:
180,148,206666,1,0,0:0:0:0:
180,148,206800,1,8,0:0:0:0:
180,148,207067,1,8,0:0:0:0:
180,148,207201,1,8,0:0:0:0:
180,148,207335,1,0,0:0:0:0:
180,148,207603,1,8,0:0:0:0:
180,148,207737,1,0,0:0:0:0:
180,148,207871,1,8,0:0:0:0:
180,148,208139,1,8,0:0:0:0:
180,148,208407,1,0,0:0:0:0:
180,148,208675,1,8,0:0:0:0:
180,148,208808,1,8,0:0:0:0:
180,148,208942,1,0,0:0:0:0:
180,148,209210,1,8,0:0:0:0:
180,148,209344,1,0,0:0:0:0:
180,148,209478,1,8,0:0:0:0:
180,148,209746,1,8,0:0:0:0:
180,148,209880,1,8,0:0:0:0:
180,148,210014,1,8,0:0:0:0:
180,148,210282,1,0,0:0:0:0:
180,148,210550,1,8,0:0:0:0:
180,148,210817,1,8,0:0:0:0:
180,148,210951,1,8,0:0:0:0:
180,148,211085,1,0,0:0:0:0:
180,148,211353,1,0,0:0:0:0:
180,148,211487,1,8,0:0:0:0:
180,148,211621,1,0,0:0:0:0:
180,148,211889,1,8,0:0:0:0:
180,148,212023,1,8,0:0:0:0:
180,148,212157,1,0,0:0:0:0:
180,148,212425,1,8,0:0:0:0:
180,148,212692,1,0,0:0:0:0:
180,148,212960,1,8,0:0:0:0:
180,148,213094,1,8,0:0:0:0:
180,148,213228,1,0,0:0:0:0:
180,148,213496,1,0,0:0:0:0:
180,148,213630,1,8,0:0:0:0:
180,148,213764,1,8,0:0:0:0:
180,148,213831,1,8,0:0:0:0:
180,148,213898,1,8,0:0:0:0:
180,148,214032,1,8,0:0:0:0:
180,148,214166,1,8,0:0:0:0:
180,148,214300,1,0,0:0:0:0:
180,148,214567,1,8,0:0:0:0:
180,148,214835,1,0,0:0:0:0:
