osu file format v14

[General]
AudioFilename: Yunomi - Mentai Cosmic.mp3
AudioLeadIn: 0
PreviewTime: 16631
Countdown: 0
SampleSet: Soft
StackLeniency: 0.7
Mode: 0
LetterboxInBreaks: 0
WidescreenStoryboard: 0

[Editor]
Bookmarks: 120550,128050,154835,223407
DistanceSpacing: 1
BeatDivisor: 4
GridSize: 4
TimelineZoom: 1.200006

[Metadata]
Title:Mentai Cosmic
TitleUnicode:めんたいコズミック
Artist:Yunomi
ArtistUnicode:Yunomi
Creator:alacat
Version:Normal
Source:
Tags:SnowWhite hvick225 sukiNathan Amamiya Yuko Skystar Dailycare N_a_s_y_a Nasya 一二花 nica nicamoq
BeatmapID:1038611
BeatmapSetID:436773

[Difficulty]
HPDrainRate:3
CircleSize:3.5
OverallDifficulty:4
ApproachRate:5
SliderMultiplier:1.1
SliderTickRate:1

[Events]
//Background and Video events
0,0,"BG.jpg",0,0
//Break Periods
2,77902,80788
2,120492,127931
2,154845,162217
//Storyboard Layer 0 (Background)
//Storyboard Layer 1 (Fail)
//Storyboard Layer 2 (Pass)
//Storyboard Layer 3 (Foreground)
//Storyboard Sound Samples

[TimingPoints]
560,267.857142857143,4,2,20,50,1,0
9131,-100,4,2,20,60,0,0
16631,-100,4,2,20,40,0,0
17702,-100,4,2,1,70,0,1
33774,-100,4,2,20,50,0,1
34577,-100,4,2,1,30,0,1
34845,-100,4,1,1,70,0,0
50917,-100,4,2,20,40,0,0
51452,-100,4,1,1,40,0,0
51720,-100,4,2,20,40,0,0
55738,-100,4,2,1,50,0,0
56274,-100,4,2,20,40,0,0
59756,-100,4,2,1,50,0,0
60560,-100,4,2,1,50,0,0
61631,-100,4,2,1,60,0,0
62435,-100,4,2,1,50,0,0
64310,-100,4,2,1,60,0,0
64845,-100,4,2,1,50,0,0
65917,-100,4,2,1,60,0,0
66720,-100,4,2,1,50,0,0
77167,-100,4,2,1,60,0,0
77702,-100,4,2,1,40,0,0
81988,-100,4,2,1,50,0,0
82524,-100,4,2,1,60,0,0
83060,-100,4,2,1,70,0,0
83595,-100,4,2,1,80,0,0
84131,-100,4,2,22,60,0,0
85202,-100,4,2,1,60,0,0
86274,-100,4,2,1,70,0,1
102345,-100,4,2,20,50,0,1
103149,-100,4,2,1,50,0,1
103417,-100,4,1,1,70,0,0
119488,-100,4,2,20,50,0,0
120024,-100,4,2,1,50,0,0
120292,-100,4,2,1,30,0,0
128060,-100,4,2,1,40,0,0
129131,-100,4,2,1,50,0,0
130202,-100,4,2,1,60,0,0
131006,-100,4,2,1,50,0,0
132881,-100,4,2,1,60,0,0
133417,-100,4,2,1,50,0,0
134488,-100,4,2,1,60,0,0
135292,-100,4,2,1,50,0,0
145738,-100,4,2,22,50,0,0
146006,-100,4,2,22,30,0,0
146274,-100,4,2,20,50,0,0
163417,-100,4,2,1,40,0,0
167702,-100,4,2,1,30,0,0
168238,-100,4,2,1,40,0,0
168774,-100,4,2,1,50,0,0
169042,-100,4,2,1,60,0,0
169310,-100,4,2,1,70,0,0
169577,-100,4,2,1,80,0,0
169845,-100,4,2,1,70,0,0
170917,-100,4,2,20,40,0,0
171720,-100,4,2,1,40,0,0
171988,-100,4,2,1,70,0,1
186988,-100,4,2,20,40,0,1
188595,-100,4,2,1,50,0,1
188863,-100,4,2,1,50,0,1
189131,-100,4,1,1,70,0,0
205202,-100,4,1,1,60,0,0
205738,-100,4,1,1,50,0,0
206006,-100,4,1,1,40,0,0
206274,-100,4,2,1,40,0,0
213774,-100,4,2,20,40,0,0
214042,-100,4,2,1,40,0,0
214176,-100,4,2,20,40,0,0
214310,-100,4,2,1,40,0,0
214845,-100,4,2,1,50,0,0

[Colours]
Combo1 : 255,94,55
Combo2 : 173,255,95
Combo3 : 17,254,176
Combo4 : 255,88,100

[HitObjects]
32,212,560,6,0,L|48:324,1,110,4|8,0:3|0:0,0:0:0:0:
152,360,1095,2,0,L|136:251,1,110,8|8,0:0|0:0,0:0:0:0:
120,140,1631,2,0,P|204:76|312:92,1,220,4|8,0:3|0:0,0:0:0:0:
376,184,2435,1,8,0:0:0:0:
480,152,2702,6,0,P|492:100|472:44,2,110,4|8|8,0:3|0:0|0:0,0:0:0:0:
464,260,3506,1,8,0:0:0:0:
356,288,3774,2,0,B|248:320|248:260|136:300,1,220,4|8,0:3|0:0,0:0:0:0:
44,356,4577,1,8,0:0:0:0:
0,256,4845,6,0,L|16:148,1,110,4|8,0:3|0:0,0:0:0:0:
116,196,5381,2,0,L|132:88,1,110,8|8,0:0|0:0,0:0:0:0:
228,36,5917,2,0,P|336:60|428:8,1,220,4|8,0:3|0:0,0:0:0:0:
500,92,6720,1,8,0:0:0:0:
436,184,6988,6,0,L|448:296,1,110,4|8,0:3|0:0,0:0:0:0:
356,356,7524,2,0,B|244:376|244:376|272:332,1,165,8|2,0:0|0:0,0:0:0:0:
344,252,8193,2,0,B|332:144|332:144|264:200|172:180,1,275,2|2,0:0|0:0,0:0:0:0:
92,112,9131,6,0,L|108:0,2,110,4|2|2,0:0|0:0|0:0,0:0:0:0:
76,220,9935,1,2,0:0:0:0:
164,284,10202,2,0,P|216:268|272:268,1,110,2|2,0:0|0:0,0:0:0:0:
336,360,10738,2,0,P|390:359|443:343,1,110,2|0,0:0|0:0,0:0:0:0:
484,240,11274,6,0,B|456:192|484:116|484:116|436:108|396:136,1,220,2|2,0:0|0:0,0:0:0:0:
324,216,12077,1,2,0:0:0:0:
236,152,12345,2,0,L|248:40,2,110,2|2|2,0:0|0:0|0:0,0:0:0:0:
220,260,13149,1,4,0:3:0:0:
136,188,13417,6,0,B|80:188|80:188|28:208,1,110,4|2,0:0|0:0,0:0:0:0:
12,316,13952,2,0,B|68:316|68:316|120:296,1,110,2|2,0:0|0:0,0:0:0:0:
220,260,14488,1,2,0:0:0:0:
296,336,14756,1,2,0:0:0:0:
396,292,15024,2,0,L|380:184,1,110,2|0,0:0|0:0,0:0:0:0:
432,88,15560,6,0,B|324:44|324:120|216:80,1,220,2|2,0:0|0:0,0:0:0:0:
124,24,16363,1,2,0:0:0:0:
40,96,16631,5,2,2:0:0:0:
40,96,17167,1,0,2:0:0:0:
40,96,17702,6,0,L|52:208,1,110,4|0,3:2|0:0,0:0:0:0:
124,288,18238,1,0,3:0:0:0:
220,236,18506,2,0,P|276:236|336:256,1,110,8|0,0:0|3:0,0:0:0:0:
392,340,19042,1,0,0:0:0:0:
496,308,19310,2,0,P|508:252|496:200,1,110,0|8,3:0|0:0,0:0:0:0:
416,124,19845,5,4,3:2:0:0:
312,160,20113,2,0,L|200:148,2,110,0|0|8,0:0|3:0|0:0,0:0:0:0:
396,232,20917,1,0,3:0:0:0:
416,124,21185,1,0,0:0:0:0:
328,60,21452,2,0,L|216:48,1,110,0|8,3:0|0:0,0:0:0:0:
112,20,21988,6,0,P|72:64|60:120,1,110,4|0,3:2|0:0,0:0:0:0:
128,200,22524,1,0,3:0:0:0:
88,304,22792,1,8,0:0:0:0:
180,368,23060,2,0,L|288:352,1,110,0|0,3:0|0:0,0:0:0:0:
324,248,23595,2,0,L|216:264,1,110,0|8,3:0|0:0,0:0:0:0:
128,196,24131,5,4,3:2:0:0:
188,104,24399,2,0,L|296:88,2,110,0|0|8,0:0|3:0|0:0,0:0:0:0:
100,40,25202,1,0,3:0:0:0:
36,132,25470,1,0,0:0:0:0:
128,196,25738,2,0,P|148:248|148:312,1,110,0|0,3:0|3:0,0:0:0:0:
240,364,26274,6,0,P|241:309|261:258,1,110,4|0,3:2|0:0,0:0:0:0:
360,204,26810,1,0,3:0:0:0:
268,140,27077,2,0,L|160:160,2,110,8|0|0,0:0|3:0|0:0,0:0:0:0:
312,40,27881,1,0,3:0:0:0:
420,52,28149,1,8,0:0:0:0:
476,148,28417,6,0,P|488:204|480:256,1,110,4|0,3:2|0:0,0:0:0:0:
384,308,28952,1,0,3:0:0:0:
292,248,29220,1,8,0:0:0:0:
220,332,29488,2,0,L|112:348,2,110,0|0|0,3:0|0:0|3:0,0:0:0:0:
292,248,30292,1,8,0:0:0:0:
204,184,30560,6,0,P|196:128|212:76,1,110,4|0,3:2|0:0,0:0:0:0:
312,32,31095,2,0,P|320:88|304:140,1,110,4|8,3:2|0:0,0:0:0:0:
204,184,31631,1,0,3:0:0:0:
180,292,31899,1,0,0:0:0:0:
260,368,32167,2,0,L|372:356,1,110,4|8,3:2|0:0,0:0:0:0:
460,292,32702,6,0,P|468:236|456:184,1,110,4|0,3:2|3:0,0:0:0:0:
368,120,33238,1,0,3:0:0:0:
368,120,33506,1,0,3:0:0:0:
268,168,33774,2,0,L|156:168,2,110,8|2|8,0:0|0:0|0:0,0:0:0:0:
360,228,34577,1,0,3:0:0:0:
460,184,34845,6,0,B|476:132|476:132|464:76,1,110,2|2,3:1|0:1,0:0:0:0:
372,20,35381,1,2,3:1:0:0:
288,92,35649,1,10,0:1:0:0:
192,36,35917,2,0,L|84:56,1,110,2|2,3:1|0:1,0:0:0:0:
80,164,36452,2,0,L|188:144,1,110,2|8,3:1|0:0,0:0:0:0:
284,204,36988,6,0,P|336:180|388:176,2,110,2|2|2,3:1|0:1|3:1,0:0:0:0:
236,304,37792,1,10,0:1:0:0:
132,264,38060,2,0,L|148:156,1,110,2|2,3:1|0:1,0:0:0:0:
60,88,38595,2,0,L|44:196,1,110,2|8,3:1|0:0,0:0:0:0:
28,308,39131,5,6,3:1:0:0:
120,368,39399,1,2,0:1:0:0:
220,320,39667,2,0,P|276:304|332:308,1,110,2|10,3:1|0:0,0:0:0:0:
392,220,40202,2,0,P|448:236|504:232,2,110,2|2|2,3:1|0:1|3:1,0:0:0:0:
340,120,41006,1,8,0:0:0:0:
236,160,41274,6,0,B|180:160|180:160|132:136,1,110,2|2,3:1|0:1,0:0:0:0:
40,76,41810,1,2,3:1:0:0:
140,28,42077,1,10,0:1:0:0:
240,76,42345,2,0,L|352:76,1,110,2|2,3:1|0:1,0:0:0:0:
440,16,42881,2,0,B|492:36|492:36|512:88,1,110,2|8,3:1|0:0,0:0:0:0:
448,176,43417,5,6,3:1:0:0:
508,268,43685,1,2,0:1:0:0:
428,340,43952,2,0,P|372:344|324:320,1,110,2|10,3:1|0:1,0:0:0:0:
248,244,44488,2,0,L|136:260,2,110,2|2|2,3:1|0:0|3:1,0:0:0:0:
356,220,45292,1,8,0:0:0:0:
432,140,45560,6,0,P|432:84|408:36,1,110,2|2,3:1|0:1,0:0:0:0:
300,64,46095,2,0,P|251:36|197:32,1,110,2|10,3:1|0:1,0:0:0:0:
100,80,46631,1,2,3:1:0:0:
116,188,46899,1,2,0:1:0:0:
224,212,47167,2,0,L|336:200,1,110,2|8,3:1|0:0,0:0:0:0:
428,140,47702,6,0,P|480:164|508:208,1,110,6|2,3:1|0:1,0:0:0:0:
476,312,48238,1,2,3:1:0:0:
368,296,48506,1,10,0:1:0:0:
280,364,48774,2,0,L|168:352,1,110,2|2,3:1|0:1,0:0:0:0:
152,244,49310,2,0,L|261:255,1,110,2|8,3:1|0:0,0:0:0:0:
352,192,49845,6,0,P|364:136|352:84,1,110,2|2,3:1|0:1,0:0:0:0:
274,7,50381,2,0,P|218:-5|166:7,1,110,2|10,3:1|0:1,0:0:0:0:
89,84,50917,2,0,B|61:192|133:192|93:300,1,220,8|8,0:3|0:0,0:0:0:0:
300,376,51988,6,0,P|300:276|404:244,1,220,8|8,0:0|0:0,0:0:0:0:
488,312,52792,1,8,0:0:0:0:
504,204,53060,2,0,L|480:92,1,110,8|8,0:0|0:0,0:0:0:0:
384,44,53595,1,8,0:0:0:0:
304,120,53863,1,8,0:0:0:0:
208,68,54131,6,0,P|108:92|88:200,1,220,8|8,0:0|0:0,0:0:0:0:
164,272,54935,2,0,P|160:328|132:376,2,110,8|8|8,0:0|0:0|0:0,0:0:0:0:
236,188,55738,2,0,B|288:172|288:172|344:188,1,110,2|2,0:1|0:1,0:0:0:0:
436,132,56274,6,0,B|500:224|500:224|452:320,1,220,8|8,0:0|0:0,0:0:0:0:
348,356,57077,1,8,0:0:0:0:
256,296,57345,2,0,B|196:300|156:336|156:336|108:304|116:240,1,220,8|8,0:0|0:0,0:0:0:0:
176,148,58149,1,8,0:0:0:0:
280,184,58417,6,0,P|384:164|440:64,1,220,8|8,0:0|0:0,0:0:0:0:
344,16,59220,1,8,0:0:0:0:
256,84,59488,1,8,0:0:0:0:
152,52,59756,2,0,B|96:52|96:52|52:88,1,110,2|2,0:1|0:1,0:0:0:0:
16,192,60292,1,2,0:1:0:0:
52,296,60560,6,0,B|160:320|160:320|208:292|204:220,1,220,0|0,3:0|3:0,0:0:0:0:
132,140,61363,1,0,0:0:0:0:
188,44,61631,2,0,B|300:24|300:24|352:36,2,165,2|2|0,0:1|0:1|3:0,0:0:0:0:
80,20,62702,6,0,P|16:104|40:208,1,220,0|0,3:0|3:0,0:0:0:0:
140,252,63506,1,0,0:0:0:0:
228,188,63774,2,0,P|284:200|324:236,1,110,0|0,3:0|0:0,0:0:0:0:
296,340,64310,2,0,B|352:348|352:348|396:316,1,110,2|2,0:1|0:1,0:0:0:0:
500,352,64845,6,0,L|460:132,1,220,0|0,3:0|3:0,0:0:0:0:
360,88,65649,1,0,0:0:0:0:
316,188,65917,2,0,P|232:200|164:164,2,165,2|2|0,0:1|0:1|3:0,0:0:0:0:
360,88,66988,6,0,L|336:312,1,220,0|0,3:0|3:0,0:0:0:0:
252,380,67792,1,0,0:0:0:0:
160,320,68060,2,0,B|104:308|52:340|52:340|28:292|48:236,1,220,0|2,3:0|0:0,0:0:0:0:
132,164,68863,1,8,0:0:0:0:
224,228,69131,6,0,P|288:228|288:104,1,220,0|0,3:0|3:0,0:0:0:0:
184,68,69935,1,2,0:0:0:0:
132,164,70202,2,0,P|116:220|128:272,2,110,0|2|0,3:0|0:0|3:0,0:0:0:0:
224,228,71006,1,2,0:0:0:0:
324,180,71274,6,0,P|428:204|456:304,1,220,0|0,3:0|3:0,0:0:0:0:
372,372,72077,1,2,0:0:0:0:
276,316,72345,2,0,B|168:284|168:364|60:324,1,220,0|0,3:0|3:0,0:0:0:0:
0,232,73149,1,2,0:0:0:0:
68,144,73417,6,0,B|80:88|40:36|40:36|152:60,1,220,0|0,3:0|3:0,0:0:0:0:
244,12,74220,1,2,0:0:0:0:
296,108,74488,2,0,P|304:168|284:216,2,110,0|2|0,3:0|0:0|3:0,0:0:0:0:
192,152,75292,1,2,0:0:0:0:
112,80,75560,6,0,B|12:112|12:112|-8:168|20:224,1,220,0|0,3:0|3:0,0:0:0:0:
104,292,76363,1,0,3:0:0:0:
204,248,76631,2,0,L|312:264,1,110,0|2,3:0|0:0,0:0:0:0:
352,368,77167,1,2,0:0:0:0:
456,336,77435,1,2,0:0:0:0:
424,232,77702,5,8,0:0:0:0:
256,192,81988,12,0,85202,0:0:0:0:
472,288,86274,6,0,P|484:232|464:184,1,110,4|0,3:2|0:0,0:0:0:0:
372,124,86810,1,0,3:0:0:0:
296,204,87077,2,0,P|240:204|180:184,1,110,8|0,0:0|3:0,0:0:0:0:
136,92,87613,1,0,0:0:0:0:
32,132,87881,2,0,L|16:240,1,110,0|8,3:0|0:0,0:0:0:0:
80,332,88417,5,4,3:2:0:0:
184,292,88685,2,0,P|240:284|292:300,2,110,0|0|8,0:0|3:0|0:0,0:0:0:0:
80,332,89488,1,0,3:0:0:0:
15,240,89756,1,0,0:0:0:0:
96,164,90024,2,0,L|208:176,1,110,0|8,3:0|0:0,0:0:0:0:
304,124,90560,6,0,P|344:168|356:224,1,110,4|0,3:2|0:0,0:0:0:0:
300,312,91095,1,0,3:0:0:0:
396,364,91363,1,8,0:0:0:0:
460,276,91631,2,0,L|444:168,1,110,0|0,3:0|0:0,0:0:0:0:
424,60,92167,2,0,P|372:44|316:44,1,110,0|8,3:0|0:0,0:0:0:0:
256,136,92702,5,4,3:2:0:0:
148,116,92970,2,0,L|112:12,2,110,0|0|8,0:0|3:0|0:0,0:0:0:0:
188,220,93774,1,0,3:0:0:0:
236,320,94042,1,0,0:0:0:0:
140,372,94310,2,0,L|32:352,1,110,0|0,3:0|3:0,0:0:0:0:
0,248,94845,6,0,P|4:192|32:148,1,110,4|0,3:2|0:0,0:0:0:0:
138,116,95381,1,0,3:0:0:0:
235,167,95649,2,0,L|343:147,2,110,8|0|0,0:0|3:0|0:0,0:0:0:0:
192,268,96452,1,0,3:0:0:0:
284,332,96720,1,8,0:0:0:0:
384,288,96988,6,0,P|432:288|492:316,2,110,4|0|0,3:2|0:0|3:0,0:0:0:0:
292,224,97792,1,8,0:0:0:0:
192,268,98060,2,0,L|84:252,1,110,0|0,3:0|0:0,0:0:0:0:
48,148,98595,2,0,L|156:164,1,110,0|8,3:0|0:0,0:0:0:0:
256,112,99131,6,0,P|316:112|364:132,1,110,4|0,3:2|0:0,0:0:0:0:
468,96,99667,2,0,P|498:147|504:199,1,110,4|8,3:2|0:0,0:0:0:0:
440,284,100202,1,0,3:0:0:0:
336,248,100470,1,0,0:0:0:0:
264,332,100738,2,0,L|152:320,1,110,4|8,3:2|0:0,0:0:0:0:
80,240,101274,6,0,P|72:184|84:132,1,110,0|0,3:0|3:0,0:0:0:0:
172,68,101810,1,0,2:0:0:0:
172,68,102077,1,0,3:0:0:0:
272,116,102345,2,0,L|384:116,1,110,8|0,0:0|0:0,0:0:0:0:
480,64,102881,2,0,B|500:116|500:116|484:168,1,110,8|0,0:0|3:0,0:0:0:0:
388,224,103417,6,0,L|276:224,1,110,6|2,3:1|0:1,0:0:0:0:
208,312,103952,1,2,3:1:0:0:
108,264,104220,1,10,0:1:0:0:
8,308,104488,2,0,P|-4:252|16:204,1,110,2|2,3:1|0:1,0:0:0:0:
112,152,105024,2,0,L|224:152,1,110,2|8,3:1|0:0,0:0:0:0:
324,188,105560,5,2,3:1:0:0:
308,80,105827,1,2,0:1:0:0:
408,36,106095,2,0,P|464:56|500:96,1,110,2|10,3:1|0:1,0:0:0:0:
508,204,106631,2,0,L|492:312,1,110,2|2,3:1|0:1,0:0:0:0:
388,352,107167,2,0,L|404:244,1,110,2|8,3:1|0:0,0:0:0:0:
336,156,107702,5,6,3:1:0:0:
236,204,107970,1,2,0:1:0:0:
156,128,108238,2,0,P|100:144|44:140,1,110,2|10,3:1|0:1,0:0:0:0:
4,240,108774,1,2,3:1:0:0:
76,324,109042,1,2,0:1:0:0:
176,280,109310,2,0,L|288:280,1,110,2|8,3:1|0:0,0:0:0:0:
384,224,109845,6,0,B|384:168|384:168|360:120,1,110,2|2,3:1|0:1,0:0:0:0:
256,80,110381,1,2,3:1:0:0:
192,168,110649,1,10,0:1:0:0:
112,96,110917,2,0,L|0:96,2,110,2|2|2,3:1|0:1|3:1,0:0:0:0:
192,168,111720,1,8,0:0:0:0:
84,200,111988,5,6,3:1:0:0:
160,280,112256,1,2,0:1:0:0:
268,252,112524,2,0,P|320:272|376:272,1,110,2|10,3:1|0:1,0:0:0:0:
460,204,113060,2,0,L|444:92,2,110,2|2|2,3:1|0:1|3:1,0:0:0:0:
480,312,113863,1,8,0:0:0:0:
392,380,114131,6,0,L|280:368,1,110,2|2,3:1|0:1,0:0:0:0:
192,308,114667,2,0,P|137:312|90:340,1,110,2|10,3:1|0:1,0:0:0:0:
0,276,115202,1,2,3:1:0:0:
52,180,115470,1,2,0:1:0:0:
160,156,115738,2,0,L|272:168,1,110,2|8,3:1|0:0,0:0:0:0:
360,108,116274,6,0,P|412:132|440:176,1,110,6|2,3:1|0:1,0:0:0:0:
404,280,116810,1,2,3:1:0:0:
296,272,117077,1,10,0:1:0:0:
212,200,117345,2,0,L|224:88,1,110,2|2,3:1|0:1,0:0:0:0:
124,44,117881,2,0,L|112:153,1,110,2|8,3:1|0:0,0:0:0:0:
16,204,118417,6,0,P|4:260|16:312,1,110,2|2,3:1|0:1,0:0:0:0:
116,360,118952,2,0,P|172:348|224:360,1,110,2|10,3:1|0:1,0:0:0:0:
328,324,119488,2,0,P|424:304|392:212,1,220,0|4,0:0|0:3,0:0:0:0:
284,224,120292,1,4,3:3:0:0:
136,72,129131,6,0,P|48:56|64:156,1,220,4|0,3:2|3:0,0:0:0:0:
168,176,129935,1,0,0:0:0:0:
252,104,130202,2,0,P|328:104|396:160,2,165,2|2|0,0:1|0:1|3:0,0:0:0:0:
168,176,131274,6,0,B|148:288|148:288|184:328|244:328,1,220,0|0,3:0|3:0,0:0:0:0:
348,296,132077,1,0,0:0:0:0:
420,212,132345,2,0,P|412:156|384:112,1,110,0|0,3:0|0:0,0:0:0:0:
280,76,132881,2,0,B|228:96|228:96|172:88,1,110,2|2,0:1|0:1,0:0:0:0:
80,32,133417,6,0,L|120:252,1,220,0|0,3:0|3:0,0:0:0:0:
204,316,134220,1,0,0:0:0:0:
300,264,134488,2,0,P|384:252|452:288,2,165,2|2|0,0:1|0:1|3:0,0:0:0:0:
204,316,135560,6,0,P|100:328|20:252,1,220,0|0,3:0|3:0,0:0:0:0:
44,148,136363,1,0,0:0:0:0:
136,88,136631,2,0,B|244:52|244:128|352:84,1,220,0|2,3:0|0:0,0:0:0:0:
428,8,137435,1,8,0:0:0:0:
508,84,137702,6,0,P|456:180|488:284,1,220,0|0,3:0|3:0,0:0:0:0:
420,372,138506,1,2,0:0:0:0:
320,328,138774,2,0,L|212:344,1,110,0|2,3:0|0:0,0:0:0:0:
128,272,139310,2,0,L|20:288,1,110,0|2,3:0|0:0,0:0:0:0:
52,184,139845,6,0,P|152:144|252:188,1,220,0|0,3:0|3:0,0:0:0:0:
292,288,140649,1,2,0:0:0:0:
392,336,140917,2,0,B|424:228|344:228|384:120,1,220,0|0,3:0|3:0,0:0:0:0:
476,64,141720,1,2,0:0:0:0:
376,20,141988,6,0,L|156:48,1,220,0|0,3:0|3:0,0:0:0:0:
124,152,142792,1,2,0:0:0:0:
20,192,143060,2,0,P|12:132|32:84,2,110,0|2|0,3:0|0:0|3:0,0:0:0:0:
112,252,143863,1,2,0:0:0:0:
216,216,144131,6,0,B|288:224|356:280|356:280|332:220,1,220,0|0,3:0|3:0,0:0:0:0:
296,116,144935,1,0,3:0:0:0:
368,32,145202,2,0,P|424:36|472:68,1,110,0|2,3:0|0:0,0:0:0:0:
496,172,145738,1,0,0:0:0:0:
448,272,146006,1,0,0:0:0:0:
352,324,146274,6,0,P|244:320|144:368,1,220,4|2,0:0|0:0,0:0:0:0:
44,328,147077,1,0,0:0:0:0:
16,220,147345,2,0,L|32:112,1,110,2|0,0:0|0:0,0:0:0:0:
132,160,147881,2,0,L|148:52,1,110,2|0,0:0|0:0,0:0:0:0:
256,24,148417,6,0,B|308:52|364:36|364:36|416:64|412:128,1,220,2|2,0:0|0:0,0:0:0:0:
364,224,149220,1,0,0:0:0:0:
264,176,149488,2,0,P|168:200|184:300,1,220,2|2,0:0|0:0,0:0:0:0:
276,360,150292,1,0,0:0:0:0:
380,320,150560,6,0,P|408:212|364:116,1,220,2|2,0:0|0:0,0:0:0:0:
264,72,151363,1,0,0:0:0:0:
192,156,151631,2,0,P|140:160|88:136,1,110,2|0,0:0|0:0,0:0:0:0:
20,224,152167,2,0,P|49:267|54:324,1,110,2|0,0:0|0:0,0:0:0:0:
152,372,152702,6,0,P|252:328|364:352,2,220,2|0|0,0:0|0:0|0:0,0:0:0:0:
328,192,163417,6,0,L|440:192,2,110,8|8|8,0:0|0:0|0:0,0:0:0:0:
256,108,164220,1,8,0:0:0:0:
184,192,164488,2,0,L|72:192,1,110,8|8,0:0|0:0,0:0:0:0:
8,280,165024,1,8,0:0:0:0:
88,356,165292,2,0,B|148:356|148:356|192:332,1,110,8|8,0:0|0:0,0:0:0:0:
256,244,165827,5,8,0:0:0:0:
320,332,166095,2,0,B|364:356|364:356|424:356,1,110,8|8,0:0|0:0,0:0:0:0:
508,284,166631,2,0,L|508:172,1,110,8|8,0:0|0:0,0:0:0:0:
420,104,167167,1,8,0:0:0:0:
336,176,167435,1,8,0:0:0:0:
256,192,167702,12,0,170917,0:0:0:0:
176,320,171988,6,0,L|188:208,1,110,4|0,3:2|0:0,0:0:0:0:
256,124,172524,1,0,3:0:0:0:
324,210,172792,2,0,L|336:320,1,110,8|0,0:0|3:0,0:0:0:0:
440,352,173327,1,0,0:0:0:0:
504,260,173595,2,0,P|516:204|504:152,1,110,0|8,3:0|0:0,0:0:0:0:
432,72,174131,5,4,3:2:0:0:
332,120,174399,2,0,L|220:120,1,110,0|0,0:0|3:0,0:0:0:0:
124,72,174935,1,8,0:0:0:0:
72,168,175202,1,0,3:0:0:0:
168,220,175470,1,0,0:0:0:0:
264,272,175738,2,0,L|372:256,1,110,0|8,3:0|0:0,0:0:0:0:
428,352,176274,6,0,L|320:368,1,110,4|0,3:2|0:0,0:0:0:0:
208,356,176810,1,0,3:0:0:0:
152,264,177077,1,8,0:0:0:0:
216,172,177345,2,0,L|324:156,1,110,0|0,3:0|0:0,0:0:0:0:
360,52,177881,2,0,L|252:68,1,110,0|8,3:0|0:0,0:0:0:0:
156,12,178417,5,4,3:2:0:0:
60,64,178685,2,0,P|32:116|36:172,2,110,0|0|8,0:0|3:0|0:0,0:0:0:0:
156,120,179488,1,0,3:0:0:0:
252,68,179756,1,0,0:0:0:0:
340,132,180024,2,0,P|360:184|352:244,1,110,0|0,3:0|3:0,0:0:0:0:
248,272,180560,6,0,L|140:256,1,110,4|0,3:2|0:0,0:0:0:0:
48,192,181095,1,0,3:0:0:0:
140,128,181363,2,0,L|248:112,2,110,8|0|0,0:0|3:0|0:0,0:0:0:0:
36,88,182167,1,0,3:0:0:0:
128,28,182435,1,8,0:0:0:0:
236,24,182702,6,0,P|288:32|344:56,1,110,4|0,3:2|0:0,0:0:0:0:
424,124,183238,1,0,3:0:0:0:
320,164,183506,1,8,0:0:0:0:
408,232,183774,2,0,L|424:340,2,110,0|0|0,3:0|0:0|3:0,0:0:0:0:
304,268,184577,1,8,0:0:0:0:
220,196,184845,6,0,P|167:180|113:188,1,110,4|0,3:2|0:0,0:0:0:0:
52,280,185381,2,0,P|104:295|158:287,1,110,4|8,3:2|0:0,0:0:0:0:
244,360,185917,1,0,3:0:0:0:
304,268,186185,1,0,0:0:0:0:
364,176,186452,2,0,L|344:68,1,110,4|8,3:2|0:0,0:0:0:0:
240,28,186988,6,0,P|186:39|132:31,1,110,8|8,0:0|0:0,0:0:0:0:
36,84,187524,1,8,0:0:0:0:
36,84,187792,1,8,0:0:0:0:
132,140,188060,2,0,P|148:200|140:248,1,110,8|4,0:0|0:2,0:0:0:0:
80,336,188595,2,0,B|132:352|132:352|188:340,1,110,8|0,0:0|3:0,0:0:0:0:
280,280,189131,6,0,P|340:288|384:316,1,110,2|2,3:1|0:1,0:0:0:0:
476,372,189667,1,2,3:1:0:0:
476,260,189935,1,10,0:1:0:0:
404,180,190202,2,0,L|296:200,1,110,2|2,3:1|0:1,0:0:0:0:
220,124,190738,2,0,L|112:144,1,110,2|8,3:1|0:0,0:0:0:0:
28,216,191274,6,0,P|16:272|32:320,1,110,2|2,3:1|0:1,0:0:0:0:
132,368,191810,1,2,3:1:0:0:
212,292,192077,1,10,0:1:0:0:
316,328,192345,2,0,L|332:220,1,110,2|2,3:1|0:1,0:0:0:0:
436,260,192881,2,0,L|452:152,1,110,2|8,3:1|0:0,0:0:0:0:
380,68,193417,5,6,3:1:0:0:
280,112,193685,1,2,0:1:0:0:
204,32,193952,2,0,P|149:29|96:45,1,110,2|10,3:1|0:0,0:0:0:0:
24,128,194488,2,0,L|12:240,2,110,2|2|2,3:1|0:1|3:1,0:0:0:0:
132,144,195292,1,8,0:0:0:0:
236,112,195560,6,0,P|292:120|332:152,1,110,2|2,3:1|0:1,0:0:0:0:
380,252,196095,1,2,3:1:0:0:
300,328,196363,1,10,0:1:0:0:
200,280,196631,2,0,L|88:280,1,110,2|2,3:1|0:1,0:0:0:0:
36,184,197167,2,0,L|146:184,1,110,2|8,3:1|0:0,0:0:0:0:
220,104,197702,5,6,3:1:0:0:
320,152,197970,1,2,0:1:0:0:
404,84,198238,2,0,P|427:132|423:187,1,110,2|10,3:1|0:1,0:0:0:0:
332,248,198774,2,0,L|220:264,2,110,2|2|2,3:1|0:0|3:1,0:0:0:0:
392,340,199577,1,8,0:0:0:0:
492,292,199845,6,0,P|492:236|468:188,1,110,2|2,3:1|0:1,0:0:0:0:
376,128,200381,2,0,L|264:144,1,110,2|10,3:1|0:1,0:0:0:0:
172,88,200917,1,2,3:1:0:0:
100,168,201185,1,2,0:1:0:0:
0,128,201452,2,0,P|-8:180|12:232,1,110,2|8,3:1|0:0,0:0:0:0:
112,280,201988,6,0,L|224:268,1,110,6|2,3:1|0:1,0:0:0:0:
312,328,202524,1,2,3:1:0:0:
328,220,202792,1,10,0:1:0:0:
348,112,203060,2,0,L|456:96,2,110,2|2|2,3:1|0:1|3:1,0:0:0:0:
256,56,203863,1,8,0:0:0:0:
164,112,204131,6,0,L|56:96,1,110,2|2,3:1|0:1,0:0:0:0:
4,192,204667,2,0,L|112:208,1,110,2|10,3:1|0:1,0:0:0:0:
224,200,205202,2,0,P|306:133|412:163,1,220,2|2,0:0|0:0,0:0:0:0:
292,348,206274,6,0,B|184:376|184:312|72:352,1,220,4|0,3:2|3:0,0:0:0:0:
4,268,207077,1,0,3:0:0:0:
64,176,207345,2,0,L|48:64,2,110,0|0|0,0:0|3:0|3:0,0:0:0:0:
256,280,208417,5,0,3:0:0:0:
256,280,208685,1,0,0:0:0:0:
256,280,208952,2,0,L|276:172,1,110,0|0,3:0|3:0,0:0:0:0:
216,80,209488,1,0,0:0:0:0:
124,144,209756,2,0,P|68:156|12:144,2,110,8|8|8,0:0|0:0|0:0,0:0:0:0:
216,80,210560,6,0,P|320:52|420:108,1,220,0|0,3:0|3:0,0:0:0:0:
472,196,211363,1,0,3:0:0:0:
380,256,211631,2,0,P|356:308|360:360,2,110,0|0|0,0:0|3:0|3:0,0:0:0:0:
288,56,212702,6,0,L|68:76,1,220,0|0,3:0|3:0,0:0:0:0:
8,168,213506,1,0,3:0:0:0:
88,244,213774,2,0,P|140:228|196:228,1,110,8|0,0:0|3:0,0:0:0:0:
284,160,214310,2,0,P|336:176|392:176,1,110,0|8,3:0|0:0,0:0:0:0:
492,128,214845,6,0,P|504:188|488:232,1,110,2|2,3:2|0:0,0:0:0:0:
404,304,215381,1,2,3:2:0:0:
304,256,215649,1,2,3:2:0:0:
228,336,215917,2,0,L|120:320,2,110,2|2|2,0:0|3:2|3:2,0:0:0:0:
396,192,216988,6,0,P|408:136|392:84,2,110,2|2|2,3:2|0:0|3:2,0:0:0:0:
304,256,217792,1,2,3:2:0:0:
232,172,218060,1,2,0:0:0:0:
144,236,218327,2,0,L|28:248,1,110,2|2,3:2|3:2,0:0:0:0:
136,52,219131,6,0,L|252:64,1,110,2|2,3:2|0:0,0:0:0:0:
312,152,219667,2,0,L|428:164,1,110,2|2,3:2|3:2,0:0:0:0:
464,264,220202,2,0,L|354:252,1,110,2|2,0:0|3:2,0:0:0:0:
264,316,220738,1,2,3:2:0:0:
88,176,221274,6,0,P|76:124|96:68,2,110,2|2|2,3:2|0:0|3:2,0:0:0:0:
172,248,222077,1,2,3:2:0:0:
280,220,222345,2,0,P|340:224|384:252,1,110,2|0,0:0|0:0,0:0:0:0:
352,356,222881,2,0,P|292:352|248:324,1,110,2|0,0:0|0:0,0:0:0:0:
172,248,223417,5,2,0:0:0:0:
