osu file format v14

[General]
AudioFilename: Yunomi - Mentai Cosmic.mp3
AudioLeadIn: 0
PreviewTime: 16631
Countdown: 0
SampleSet: Soft
StackLeniency: 0.7
Mode: 0
LetterboxInBreaks: 0
WidescreenStoryboard: 0

[Editor]
Bookmarks: 120550,128050,154835,223407
DistanceSpacing: 1.5
BeatDivisor: 6
GridSize: 4
TimelineZoom: 1.600006

[Metadata]
Title:Mentai Cosmic
TitleUnicode:めんたいコズミック
Artist:Yunomi
ArtistUnicode:Yunomi
Creator:alacat
Version:Extra
Source:
Tags:SnowWhite hvick225 sukiNathan Amamiya Yuko Skystar Dailycare N_a_s_y_a Nasya 一二花 nica nicamoq
BeatmapID:940706
BeatmapSetID:436773

[Difficulty]
HPDrainRate:6
CircleSize:4.2
OverallDifficulty:9
ApproachRate:9.6
SliderMultiplier:2
SliderTickRate:1

[Events]
//Background and Video events
0,0,"BG.jpg",0,0
//Break Periods
2,120550,126978
2,154845,161836
//Storyboard Layer 0 (Background)
//Storyboard Layer 1 (Fail)
//Storyboard Layer 2 (Pass)
//Storyboard Layer 3 (Foreground)
//Storyboard Sound Samples

[TimingPoints]
560,267.857142857143,4,2,20,50,1,0
560,-125,4,2,20,50,0,0
9131,-100,4,2,20,60,0,0
16631,-200,4,2,20,40,0,0
17100,-200,4,2,20,20,0,0
17167,-200,4,2,20,40,0,0
17635,-200,4,2,20,20,0,0
17702,-100,4,2,1,70,0,1
33774,-100,4,2,20,50,0,1
34577,-166.666666666667,4,2,1,30,0,1
34845,-100,4,1,1,70,0,0
50917,-100,4,2,20,40,0,0
51452,-100,4,1,1,40,0,0
51720,-125,4,2,20,40,0,0
55738,-90.9090909090909,4,2,1,50,0,0
56274,-125,4,2,20,40,0,0
59756,-100,4,2,20,50,0,0
60560,-125,4,2,1,50,0,0
61631,-90.9090909090909,4,2,1,60,0,0
62435,-125,4,2,1,50,0,0
64310,-90.9090909090909,4,2,1,60,0,0
64845,-125,4,2,1,50,0,0
65917,-90.9090909090909,4,2,1,60,0,0
66720,-125,4,2,1,50,0,0
77167,-90.9090909090909,4,2,1,60,0,0
77702,-125,4,2,1,40,0,0
81988,-125,4,2,1,50,0,0
82524,-125,4,2,1,60,0,0
83060,-125,4,2,1,70,0,0
83595,-125,4,2,1,80,0,0
84131,-125,4,2,22,60,0,0
85202,-125,4,2,1,60,0,0
86274,-100,4,2,1,70,0,1
102345,-100,4,2,20,50,0,1
103149,-100,4,2,1,50,0,1
103417,-100,4,1,1,70,0,0
119488,-100,4,2,1,50,0,0
120292,-100,4,2,1,30,0,0
128060,-100,4,2,1,40,0,0
128327,-100,4,2,20,40,0,0
129131,-125,4,2,1,50,0,0
130202,-90.9090909090909,4,2,1,60,0,0
131006,-125,4,2,1,50,0,0
132881,-90.9090909090909,4,2,1,60,0,0
133417,-125,4,2,1,50,0,0
134488,-90.9090909090909,4,2,1,60,0,0
135292,-125,4,2,1,50,0,0
145738,-125,4,2,22,50,0,0
146006,-125,4,2,22,30,0,0
146274,-125,4,2,20,50,0,0
163417,-125,4,2,1,40,0,0
167702,-125,4,2,1,30,0,0
168238,-125,4,2,1,40,0,0
168774,-125,4,2,1,50,0,0
169042,-125,4,2,1,60,0,0
169310,-125,4,2,1,70,0,0
169577,-125,4,2,1,80,0,0
169845,-125,4,2,1,70,0,0
170917,-166.666666666667,4,2,20,40,0,0
171720,-125,4,2,1,40,0,0
171988,-100,4,2,1,70,0,1
186988,-100,4,2,20,40,0,1
188595,-100,4,2,1,50,0,1
188863,-166.666666666667,4,2,1,50,0,1
189131,-100,4,1,1,70,0,0
205202,-100,4,1,1,60,0,0
205738,-100,4,1,1,50,0,0
206006,-100,4,1,1,40,0,0
206274,-125,4,2,1,40,0,0
213774,-125,4,2,20,40,0,0
214042,-125,4,2,1,40,0,0
214176,-125,4,2,20,40,0,0
214310,-125,4,2,1,40,0,0
214845,-166.666666666667,4,2,1,50,0,0

[Colours]
Combo1 : 255,94,55
Combo2 : 173,255,95
Combo3 : 17,254,176
Combo4 : 255,88,100

[HitObjects]
480,232,560,6,0,L|400:224,1,80,4|0,0:1|0:0,0:0:0:0:
328,276,827,2,0,L|248:268,1,80,8|0,0:0|0:0,0:0:0:0:
128,136,1095,1,8,0:0:0:0:
177,208,1229,1,0,0:0:0:0:
160,295,1363,1,8,0:0:0:0:
86,343,1497,1,0,0:0:0:0:
36,224,1631,5,4,0:3:0:0:
160,295,1765,1,0,0:0:0:0:
257,196,1899,2,0,L|177:208,1,80,8|8,0:0|0:0,0:0:0:0:
228,352,2167,1,8,0:0:0:0:
316,264,2301,1,0,0:0:0:0:
208,124,2435,2,0,L|128:136,1,80,8|0,0:0|0:0,0:0:0:0:
248,324,2702,5,4,0:3:0:0:
320,373,2836,1,0,0:0:0:0:
407,356,2970,1,8,0:0:0:0:
455,282,3104,1,0,0:0:0:0:
395,145,3238,2,0,P|387:184|392:224,1,80,8|0,0:0|0:0,0:0:0:0:
508,180,3506,2,0,P|515:140|511:101,1,80,8|0,0:0|0:0,0:0:0:0:
388,48,3774,5,4,0:3:0:0:
312,92,3908,1,0,0:0:0:0:
224,100,4042,1,6,0:3:0:0:
140,68,4176,1,8,0:0:0:0:
68,16,4310,5,8,0:0:0:0:
112,92,4443,1,0,0:0:0:0:
120,180,4577,1,8,0:0:0:0:
88,264,4711,1,0,0:0:0:0:
8,124,4845,6,0,L|88:116,1,80,4|0,0:3|0:0,0:0:0:0:
152,52,5113,2,0,L|232:60,1,80,8|0,0:0|0:0,0:0:0:0:
360,212,5381,1,8,0:0:0:0:
274,231,5515,1,0,0:0:0:0:
254,146,5649,1,8,0:0:0:0:
339,125,5783,1,0,0:0:0:0:
504,260,5917,6,0,P|464:272|424:272,1,80,4|0,0:3|0:0,0:0:0:0:
360,212,6185,1,8,0:0:0:0:
274,231,6318,1,8,0:0:0:0:
98,112,6452,2,0,P|136:100|176:100,1,80,8|0,0:0|0:0,0:0:0:0:
254,146,6720,1,8,0:0:0:0:
339,125,6854,1,0,0:0:0:0:
264,20,6988,5,4,0:3:0:0:
256,48,7122,1,0,0:0:0:0:
254,146,7256,5,8,0:0:0:0:
246,174,7390,1,0,0:0:0:0:
244,272,7524,5,8,0:0:0:0:
236,300,7658,1,0,0:0:0:0:
168,376,7792,6,0,B|156:360|156:360|96:368,1,80,8|2,0:0|0:0,0:0:0:0:
50,238,8193,5,2,0:0:0:0:
90,158,8327,1,0,0:0:0:0:
170,122,8461,1,2,0:0:0:0:
254,146,8595,1,2,0:0:0:0:
310,214,8729,1,0,0:0:0:0:
394,238,8863,1,2,0:0:0:0:
470,190,8997,1,0,0:0:0:0:
376,104,9131,6,0,L|388:204,1,100,4|0,0:0|0:0,0:0:0:0:
308,328,9399,1,2,0:0:0:0:
180,224,9533,1,2,0:0:0:0:
136,344,9667,2,0,P|208:376|276:360,1,150,2|0,0:0|0:0,0:0:0:0:
308,328,9935,2,0,L|296:228,1,100,2|2,0:0|0:0,0:0:0:0:
180,52,10202,5,2,0:0:0:0:
108,190,10336,1,0,0:0:0:0:
74,86,10470,1,2,0:0:0:0:
213,156,10604,1,0,0:0:0:0:
16,316,10738,2,0,B|-30:241|30:172|30:172|72:184,1,200,2|0,0:0|0:0,0:0:0:0:
296,228,11274,6,0,P|346:227|395:208,1,100,2|0,0:0|0:0,0:0:0:0:
233,48,11542,1,2,0:0:0:0:
213,156,11676,1,2,0:0:0:0:
40,72,11810,2,0,L|192:56,1,150,2|0,0:0|0:0,0:0:0:0:
232,48,12077,1,2,0:0:0:0:
296,228,12211,1,2,0:0:0:0:
132,308,12345,5,2,0:0:0:0:
213,156,12479,1,0,0:0:0:0:
240,332,12613,1,2,0:0:0:0:
112,204,12747,1,0,0:0:0:0:
232,48,12881,2,0,P|312:100|316:200,1,200,2|4,0:0|0:3,0:0:0:0:
148,360,13417,6,0,P|140:308|148:260,1,100,4|0,0:0|0:0,0:0:0:0:
212,172,13685,1,2,0:0:0:0:
40,248,13818,1,2,0:0:0:0:
244,312,13952,2,0,L|392:292,1,150,2|0,0:0|0:0,0:0:0:0:
424,260,14220,1,2,0:0:0:0:
296,172,14354,1,2,0:0:0:0:
228,336,14488,5,2,0:0:0:0:
420,368,14622,1,0,0:0:0:0:
216,360,14756,1,2,0:0:0:0:
476,316,14890,1,0,0:0:0:0:
233,231,15024,2,0,B|133:199|133:275|37:247,1,200,2|0,0:0|0:0,0:0:0:0:
312,92,15560,6,0,L|324:192,1,100,2|0,0:0|0:0,0:0:0:0:
221,339,15827,1,2,0:0:0:0:
233,231,15961,1,2,0:0:0:0:
408,132,16095,2,0,B|464:124|508:148|508:148|500:172|472:180,1,150,2|0,0:0|0:0,0:0:0:0:
323,191,16363,2,0,P|272:188|224:200,1,100,2|2,0:0|0:0,0:0:0:0:
96,328,16631,6,0,P|182:348|199:281,1,175,0|0,2:0|2:0,0:0:0:0:
140,224,17167,2,0,L|316:244,1,175,0|0,2:0|2:0,0:0:0:0:
432,288,17702,6,0,L|332:276,1,100,4|0,3:2|0:0,0:0:0:0:
224,200,17970,1,0,0:0:0:0:
280,112,18104,1,8,0:0:0:0:
372,364,18238,2,0,L|272:352,1,100,0|0,3:0|0:0,0:0:0:0:
427,190,18506,2,0,P|438:238|432:288,1,100,8|0,0:0|0:0,0:0:0:0:
156,320,18774,5,0,3:0:0:0:
332,276,18908,1,0,0:0:0:0:
136,236,19042,1,0,0:0:0:0:
352,192,19176,1,8,0:0:0:0:
108,140,19310,2,0,L|136:236,1,100,0|0,3:0|0:0,0:0:0:0:
352,192,19577,2,0,P|300:180|252:180,1,100,8|0,0:0|0:0,0:0:0:0:
92,360,19845,6,0,P|192:348|220:260,1,200,4|0,3:2|0:0,0:0:0:0:
108,140,20247,1,8,0:0:0:0:
12,316,20381,1,0,3:0:0:0:
184,188,20515,1,0,0:0:0:0:
20,164,20649,1,8,0:0:0:0:
92,360,20783,1,0,0:0:0:0:
320,300,20917,6,0,P|372:296|424:300,1,100,0|0,3:0|0:0,0:0:0:0:
184,188,21185,2,0,P|132:184|80:188,1,100,0|8,0:0|0:0,0:0:0:0:
376,80,21452,2,0,P|428:76|480:80,1,100,0|0,3:0|0:0,0:0:0:0:
368,208,21720,1,8,0:0:0:0:
256,132,21854,1,0,0:0:0:0:
203,280,21988,6,0,L|219:380,1,100,4|0,3:2|0:0,0:0:0:0:
284,212,22256,1,0,0:0:0:0:
136,112,22390,1,8,0:0:0:0:
105,295,22524,2,0,L|204:280,1,100,0|0,3:0|0:0,0:0:0:0:
36,132,22792,2,0,P|24:184|28:232,1,100,8|0,0:0|0:0,0:0:0:0:
304,320,23060,5,0,3:0:0:0:
120,204,23193,1,0,0:0:0:0:
380,256,23327,1,0,0:0:0:0:
105,295,23461,1,8,0:0:0:0:
396,356,23595,2,0,P|448:348|496:336,1,100,0|0,3:0|0:0,0:0:0:0:
316,112,23863,5,8,0:0:0:0:
284,212,23997,1,0,0:0:0:0:
468,264,24131,2,0,P|487:219|500:167,1,100,4|0,3:2|0:0,0:0:0:0:
208,144,24399,1,8,0:0:0:0:
176,244,24533,1,8,0:0:0:0:
408,152,24667,2,0,P|402:103|386:52,1,100,0|0,3:0|0:0,0:0:0:0:
176,244,24935,2,0,P|181:292|197:343,1,100,8|0,0:0|0:0,0:0:0:0:
276,100,25202,6,0,L|128:124,1,150,0|8,3:0|0:0,0:0:0:0:
40,144,25470,2,0,L|140:160,1,100,0|8,0:0|0:0,0:0:0:0:
372,184,25738,1,0,3:0:0:0:
104,28,26006,1,0,3:0:0:0:
0,320,26274,6,0,L|100:304,1,100,4|0,3:2|0:0,0:0:0:0:
244,224,26542,1,0,0:0:0:0:
140,192,26676,1,8,0:0:0:0:
276,356,26810,2,0,P|284:304|276:256,1,100,0|0,3:0|0:0,0:0:0:0:
196,116,27077,1,8,0:0:0:0:
48,180,27211,1,0,0:0:0:0:
180,360,27345,5,0,3:0:0:0:
244,224,27479,1,0,0:0:0:0:
100,108,27613,1,0,0:0:0:0:
98,304,27747,1,8,0:0:0:0:
272,140,27881,2,0,P|224:144|172:164,1,100,0|0,3:0|0:0,0:0:0:0:
316,352,28149,2,0,L|328:252,1,100,8|0,0:0|0:0,0:0:0:0:
288,59,28417,6,0,P|189:64|100:108,1,200,4|0,3:2|0:0,0:0:0:0:
156,244,28818,1,8,0:0:0:0:
324,144,28952,1,0,3:0:0:0:
192,64,29086,1,0,0:0:0:0:
148,268,29220,1,8,0:0:0:0:
340,172,29354,1,0,0:0:0:0:
92,56,29488,6,0,L|104:156,1,100,0|0,3:0|0:0,0:0:0:0:
228,352,29756,2,0,L|240:252,1,100,0|8,0:0|0:0,0:0:0:0:
388,16,30024,2,0,L|400:116,1,100,0|0,3:0|0:0,0:0:0:0:
368,252,30292,1,8,0:0:0:0:
248,160,30426,1,0,0:0:0:0:
388,280,30560,6,0,P|440:276|488:276,1,100,4|0,3:2|0:0,0:0:0:0:
248,160,30827,1,0,0:0:0:0:
312,332,30961,1,8,0:0:0:0:
456,164,31095,2,0,P|406:164|356:168,1,100,4|0,3:2|0:0,0:0:0:0:
148,268,31363,2,0,P|136:216|140:168,1,100,8|0,0:0|0:0,0:0:0:0:
368,88,31631,5,0,3:0:0:0:
144,140,31765,1,0,0:0:0:0:
372,60,31899,1,0,0:0:0:0:
148,112,32033,1,8,0:0:0:0:
376,28,32167,2,0,P|428:36|476:48,1,100,4|0,3:2|0:0,0:0:0:0:
276,248,32435,1,8,0:0:0:0:
336,144,32568,1,0,0:0:0:0:
456,164,32702,6,0,P|475:208|488:260,1,100,4|0,3:2|0:0,0:0:0:0:
232,332,32970,1,0,3:0:0:0:
92,268,33104,1,8,0:0:0:0:
212,180,33238,1,0,3:0:0:0:
212,180,33506,1,0,3:0:0:0:
132,340,33774,6,0,P|64:348|20:240,1,200,8|2,0:0|0:0,0:0:0:0:
260,55,34310,2,0,P|263:128|212:180,1,150,8|0,0:0|0:0,0:0:0:0:
172,164,34577,6,0,L|180:260,1,89.9999972534181,0|0,3:0|2:0,0:0:0:0:
240,328,34845,6,0,P|328:348|412:284,1,200,2|2,3:1|0:1,0:0:0:0:
304,220,35247,1,8,0:0:0:0:
464,376,35381,2,0,L|440:176,1,200,2|10,3:1|0:1,0:0:0:0:
296,240,35783,1,0,0:0:0:0:
216,76,35917,5,2,3:1:0:0:
368,157,36051,1,2,0:0:0:0:
192,184,36185,1,2,0:1:0:0:
320,56,36318,1,10,0:1:0:0:
296,240,36452,2,0,P|208:296|120:272,1,200,2|8,3:1|0:0,0:0:0:0:
216,76,36988,6,0,P|304:20|392:44,1,200,2|2,3:1|0:1,0:0:0:0:
448,136,37390,1,8,0:0:0:0:
216,268,37524,2,0,B|240:120|240:120|216:76,1,200,2|10,3:1|0:1,0:0:0:0:
128,144,37926,1,0,0:0:0:0:
324,220,38060,6,0,L|424:204,1,100,2|2,3:1|0:0,0:0:0:0:
128,144,38327,2,0,L|28:160,1,100,2|10,0:1|0:0,0:0:0:0:
136,292,38595,2,0,L|284:320,1,150,2|0,3:1|0:0,0:0:0:0:
312,356,38863,2,0,L|412:340,1,100,8|0,0:0|0:0,0:0:0:0:
494,194,39131,6,0,P|403:164|324:220,1,200,6|2,3:1|0:1,0:0:0:0:
283,319,39533,1,8,0:0:0:0:
168,100,39667,2,0,P|256:80|340:144,1,200,2|10,3:1|0:0,0:0:0:0:
312,356,40068,1,0,0:0:0:0:
84,254,40202,5,2,3:1:0:0:
49,134,40336,1,2,0:0:0:0:
168,100,40470,1,2,0:1:0:0:
202,218,40604,1,10,0:0:0:0:
21,332,40738,2,0,L|49:134,1,200,2|8,3:1|0:0,0:0:0:0:
49,133,41274,6,0,B|152:96|152:160|248:128,1,200,2|2,3:1|0:1,0:0:0:0:
192,32,41676,1,8,0:0:0:0:
108,212,41810,2,0,P|180:280|260:240,1,200,2|10,3:1|0:1,0:0:0:0:
244,129,42211,1,0,0:0:0:0:
108,212,42345,6,0,L|100:312,1,100,2|2,3:1|0:0,0:0:0:0:
264,368,42613,2,0,L|272:268,1,100,2|10,0:1|0:0,0:0:0:0:
168,16,42881,2,0,P|144:68|168:156,1,150,2|0,3:1|0:0,0:0:0:0:
244,129,43149,2,0,L|348:137,1,100,8|0,0:0|0:0,0:0:0:0:
429,282,43417,6,0,P|341:302|257:238,1,200,6|2,3:1|0:1,0:0:0:0:
343,136,43818,1,8,0:0:0:0:
304,344,43952,2,0,L|104:316,1,200,2|10,3:1|0:1,0:0:0:0:
16,252,44354,1,0,0:0:0:0:
228,148,44488,5,2,3:1:0:0:
44,72,44622,1,2,0:0:0:0:
172,240,44756,1,2,0:0:0:0:
164,64,44890,1,10,0:0:0:0:
28,164,45024,2,0,L|228:148,1,200,2|8,3:1|0:0,0:0:0:0:
444,92,45560,6,0,P|356:36|268:60,1,200,2|2,3:1|0:1,0:0:0:0:
258,240,45961,1,8,0:0:0:0:
348,116,46095,2,0,P|253:94|173:148,1,200,2|10,3:1|0:1,0:0:0:0:
216,324,46497,1,0,0:0:0:0:
356,244,46631,6,0,L|368:144,1,100,2|2,3:1|0:0,0:0:0:0:
144,80,46899,2,0,L|156:180,1,100,2|10,0:1|0:0,0:0:0:0:
312,344,47167,2,0,P|384:352|440:304,1,150,2|0,3:1|0:0,0:0:0:0:
460,228,47435,2,0,L|448:128,1,100,8|0,0:0|0:0,0:0:0:0:
304,64,47702,6,0,P|232:136|252:224,1,200,6|2,3:1|0:1,0:0:0:0:
356,244,48104,1,8,0:0:0:0:
232,56,48238,2,0,L|32:88,1,200,2|10,3:1|0:1,0:0:0:0:
8,196,48640,1,0,0:0:0:0:
200,332,48774,5,2,3:1:0:0:
235,212,48908,1,2,0:0:0:0:
116,178,49042,1,2,0:1:0:0:
82,296,49176,1,10,0:0:0:0:
284,292,49310,2,0,B|387:255|387:319|483:287,1,200,2|8,3:1|0:0,0:0:0:0:
416,36,49845,6,0,P|391:105|423:171,1,150,2|0,3:1|0:0,0:0:0:0:
352,144,50113,2,0,L|253:159,1,100,2|8,0:1|0:0,0:0:0:0:
220,272,50381,2,0,P|284:288|320:224,1,150,2|0,3:1|0:0,0:0:0:0:
192,246,50649,2,0,L|180:346,1,100,10|0,0:1|0:0,0:0:0:0:
32,260,50917,6,0,P|88:204|172:204,2,166.666666666667,8|8|8,0:3|0:3|0:3,0:0:0:0:
32,260,51452,1,8,0:0:0:0:
32,260,51720,6,0,L|24:180,1,80
92,124,51988,2,0,B|84:44|84:44|116:12|156:12,1,160,8|8,0:0|0:0,0:0:0:0:
232,60,52390,1,0,0:0:0:0:
232,60,52524,2,0,B|265:81|265:81|345:76|345:76|375:45,2,160,8|8|8,0:0|0:0|0:0,0:0:0:0:
380,156,53327,2,0,L|460:148,1,80,8|8,0:0|0:0,0:0:0:0:
432,232,53595,2,0,P|352:244|300:192,1,160,8|8,0:0|0:0,0:0:0:0:
172,68,54131,6,0,P|136:88|108:120,1,80,8|0,0:0|0:0,0:0:0:0:
36,164,54399,2,0,P|35:205|49:245,1,80,8|0,0:0|0:0,0:0:0:0:
116,296,54667,2,0,B|186:282|186:282|200:267|200:267|266:254,1,160,8|8,0:0|0:0,0:0:0:0:
328,17,55202,6,0,L|344:96,1,80,8|0,0:0|0:0,0:0:0:0:
329,176,55470,2,0,P|369:175|404:156,1,80,8|8,0:0|0:0,0:0:0:0:
257,119,55738,6,0,B|177:95|177:143|96:112,1,165.000005035401,2|0,0:1|0:0,0:0:0:0:
16,128,56006,2,0,P|-24:80|48:48,1,165.000005035401,2|0,0:1|0:0,0:0:0:0:
96,112,56274,6,0,L|112:272,1,160,8|8,0:0|0:0,0:0:0:0:
176,332,56676,1,0,0:0:0:0:
176,332,56810,2,0,B|236:324|236:324|272:284|248:232,2,160,8|8|8,0:0|0:0|0:0,0:0:0:0:
44,216,57613,2,0,L|124:208,1,80,8|8,0:0|0:0,0:0:0:0:
195,159,57881,2,0,P|268:132|346:149,1,160,8|8,0:0|0:0,0:0:0:0:
346,149,58283,1,0,0:0:0:0:
346,149,58417,6,0,P|422:173|458:113,1,160,8|8,0:0|0:0,0:0:0:0:
384,68,58818,1,0,0:0:0:0:
268,184,58952,2,0,P|264:228|268:268,1,80,8|0,0:0|0:0,0:0:0:0:
200,320,59220,2,0,P|156:316|116:320,1,80,8|0,0:0|0:0,0:0:0:0:
48,372,59488,1,8,0:0:0:0:
100,168,59756,6,0,L|107:217,1,50,2|0,0:1|0:0,0:0:0:0:
12,280,59890,2,0,L|19:230,1,50,2|0,0:1|0:0,0:0:0:0:
192,188,60024,2,0,P|276:216|276:316,1,200,2|2,0:1|0:1,0:0:0:0:
255,343,60560,6,0,P|334:327|414:327,1,160,0|0,3:0|0:0,0:0:0:0:
492,368,60961,1,0,0:0:0:0:
413,247,61095,2,0,P|409:287|414:327,1,80,0|0,3:0|0:0,0:0:0:0:
496,192,61363,2,0,P|480:155|458:121,1,80
306,183,61631,6,0,P|403:210|458:119,1,220.000006713867,2|0,0:1|0:0,0:0:0:0:
280,72,62033,2,0,L|260:292,1,220.000006713867,2|0,0:1|0:0,0:0:0:0:
130,350,62435,2,0,P|144:313|172:284,1,80,0|0,3:0|0:0,0:0:0:0:
144,200,62702,6,0,P|100:192|68:176,1,80,0|0,3:0|0:0,0:0:0:0:
36,92,62970,1,0,0:0:0:0:
96,28,63104,1,0,0:0:0:0:
204,88,63238,2,0,P|167:105|128:111,1,80,0|0,3:0|0:0,0:0:0:0:
256,160,63506,2,0,P|292:177|331:183,1,80
204,88,63774,6,0,L|224:248,1,160,0|0,3:0|0:0,0:0:0:0:
288,308,64176,1,0,3:0:0:0:
452,196,64310,6,0,P|372:180|308:228,1,165.000005035401,2|0,0:1|0:0,0:0:0:0:
288,308,64577,2,0,P|204:328|148:280,1,165.000005035401,2|0,0:1|0:0,0:0:0:0:
160,196,64845,6,0,L|179:37,1,160,0|0,3:0|0:0,0:0:0:0:
92,88,65247,1,0,0:0:0:0:
92,88,65381,2,0,P|52:88|12:76,1,80,0|0,3:0|0:0,0:0:0:0:
179,37,65649,2,0,P|217:25|257:25,1,80
372,128,65917,6,0,B|494:106|494:106|487:67|487:67|432:76,1,220.000006713867,2|0,0:1|0:0,0:0:0:0:
284,108,66318,2,0,B|262:158|262:158|287:267|287:267|329:306,1,220.000006713867,2|0,0:1|0:0,0:0:0:0:
471,228,66720,2,0,L|392:244,1,80,0|0,3:0|0:0,0:0:0:0:
240,344,66988,6,0,L|161:328,1,80,0|0,3:0|0:0,0:0:0:0:
21,280,67256,2,0,L|100:264,1,80
164,204,67524,2,0,B|180:164|160:128|160:128|196:96|184:52,1,160,0|0,3:0|0:0,0:0:0:0:
184,55,68060,6,0,P|125:128|229:138,1,240,0|0,3:0|3:0,0:0:0:0:
328,124,68595,2,0,L|248:116,1,80,2|0,0:0|0:0,0:0:0:0:
432,92,68863,2,0,L|352:100,1,80,8|0,0:0|0:0,0:0:0:0:
308,24,69131,5,0,3:0:0:0:
308,24,69399,1,2,0:0:0:0:
240,80,69533,1,0,0:0:0:0:
156,52,69667,1,0,3:0:0:0:
432,92,69935,1,2,0:0:0:0:
240,80,70202,6,0,B|226:150|226:150|211:164|211:164|198:230,2,160,0|2|0,3:0|0:0|3:0,0:0:0:0:
72,32,71006,2,0,L|56:116,1,80,2|0,0:0|0:0,0:0:0:0:
44,200,71274,5,0,3:0:0:0:
44,200,71542,1,2,0:0:0:0:
24,284,71676,1,0,0:0:0:0:
88,344,71810,2,0,P|160:356|192:284,1,160,0|2,3:0|0:0,0:0:0:0:
192,287,72345,6,0,P|223:354|296:343,1,160,0|2,3:0|0:0,0:0:0:0:
276,256,72747,1,0,0:0:0:0:
192,287,72881,2,0,P|108:283|72:223,1,160,0|2,3:0|0:0,0:0:0:0:
228,40,73417,6,0,L|204:204,1,160,0|2,3:0|0:0,0:0:0:0:
276,256,73818,1,0,0:0:0:0:
356,220,73952,1,0,3:0:0:0:
192,288,74220,1,2,0:0:0:0:
440,192,74488,6,0,P|416:276|428:348,2,160,0|2|0,3:0|0:0|3:0,0:0:0:0:
440,192,75292,1,2,0:0:0:0:
356,220,75426,1,0,0:0:0:0:
296,156,75560,6,0,P|292:108|296:72,1,80,0|0,3:0|0:0,0:0:0:0:
356,16,75827,1,0,3:0:0:0:
384,100,75961,1,0,0:0:0:0:
208,116,76095,2,0,P|128:108|56:148,1,160,0|0,3:0|3:0,0:0:0:0:
36,232,76497,1,0,0:0:0:0:
76,312,76631,5,0,3:0:0:0:
156,348,76765,1,2,0:0:0:0:
244,332,76899,1,2,0:0:0:0:
296,260,77033,1,0,0:0:0:0:
264,172,77167,6,0,L|268:140,4,27.5000008392334,2|0|0|0|0,0:0|0:0|0:0|0:0|0:0,0:0:0:0:
388,236,77435,2,0,L|384:204,4,27.5000008392334,2|0|0|0|0,0:0|0:0|0:0|0:0|0:0,0:0:0:0:
244,332,77702,5,8,0:0:0:0:
476,212,78238,1,8,0:0:0:0:
276,60,78774,1,8,0:0:0:0:
76,312,79310,1,8,0:0:0:0:
196,188,79577,1,8,0:0:0:0:
171,192,79667,1,8,0:0:0:0:
145,197,79756,1,8,0:0:0:0:
120,202,79845,5,8,0:0:0:0:
332,164,80381,1,8,0:0:0:0:
160,80,80917,1,8,0:0:0:0:
256,356,81452,1,8,0:0:0:0:
332,164,81720,1,8,0:0:0:0:
336,189,81810,1,8,0:0:0:0:
341,215,81899,1,8,0:0:0:0:
346,240,81988,5,8,0:0:0:0:
256,356,82256,1,8,0:0:0:0:
256,212,82524,1,8,0:0:0:0:
164,324,82792,1,8,0:0:0:0:
96,124,83060,5,8,0:0:0:0:
20,320,83327,1,8,0:0:0:0:
87,363,83461,1,8,0:0:0:0:
164,324,83595,1,8,0:0:0:0:
29,167,83863,1,8,0:0:0:0:
240,284,84131,6,0,P|247:310|248:340,2,53.3333333333333,2|0|0,0:0|0:0|0:0,0:0:0:0:
304,212,84399,2,0,P|296:185|296:156,2,53.3333333333333,2|0|0,0:0|0:0|0:0,0:0:0:0:
376,272,84667,5,2,0:0:0:0:
416,292,84756,1,0,0:0:0:0:
460,288,84845,1,0,0:0:0:0:
484,252,84935,5,2,0:0:0:0:
464,212,85024,1,0,0:0:0:0:
468,168,85113,1,0,0:0:0:0:
488,132,85202,6,0,L|408:139,1,80,8|0,0:0|0:0,0:0:0:0:
332,96,85470,1,0,3:0:0:0:
404,48,85604,1,0,3:0:0:0:
335,184,85738,2,0,P|260:197|205:143,1,160,8|0,0:0|3:0,0:0:0:0:
185,44,86274,6,0,L|205:143,1,100,4|0,3:2|0:0,0:0:0:0:
71,231,86542,1,0,0:0:0:0:
96,124,86676,1,8,0:0:0:0:
178,255,86810,2,0,P|228:272|280:272,1,100,0|0,3:0|0:0,0:0:0:0:
352,108,87077,2,0,P|312:142|286:187,1,100,8|0,0:0|0:0,0:0:0:0:
348,336,87345,5,0,3:0:0:0:
460,224,87479,1,0,0:0:0:0:
348,360,87613,1,0,0:0:0:0:
178,255,87747,1,8,0:0:0:0:
352,108,87881,2,0,L|336:212,1,100,0|0,3:0|0:0,0:0:0:0:
200,356,88149,2,0,P|147:349|104:324,1,100,8|0,0:0|0:0,0:0:0:0:
240,72,88417,6,0,B|228:144|228:144|256:164|256:164|236:208|264:264,1,200,4|0,3:2|0:0,0:0:0:0:
384,280,88818,1,8,0:0:0:0:
200,356,88952,1,0,3:0:0:0:
336,206,89086,1,0,0:0:0:0:
107,326,89220,1,8,0:0:0:0:
164,192,89354,1,0,0:0:0:0:
384,280,89488,6,0,P|436:284|488:280,1,100,0|0,3:0|0:0,0:0:0:0:
164,192,89756,2,0,P|112:196|60:192,1,100,0|8,0:0|0:0,0:0:0:0:
352,108,90024,2,0,P|404:112|456:108,1,100,0|0,3:0|0:0,0:0:0:0:
256,32,90292,1,8,0:0:0:0:
164,192,90426,1,0,0:0:0:0:
320,304,90560,6,0,L|336:204,1,100,4|0,3:2|0:0,0:0:0:0:
244,144,90827,1,0,0:0:0:0:
100,280,90961,1,8,0:0:0:0:
7,103,91095,2,0,L|106:118,1,100,0|0,3:0|0:0,0:0:0:0:
240,232,91363,1,8,0:0:0:0:
112,368,91497,1,0,0:0:0:0:
28,216,91631,5,0,3:0:0:0:
184,292,91765,1,0,0:0:0:0:
106,118,91899,1,0,0:0:0:0:
240,232,92033,1,8,0:0:0:0:
220,56,92167,2,0,P|272:64|320:76,1,100,0|0,3:0|0:0,0:0:0:0:
268,312,92435,5,8,0:0:0:0:
208,152,92568,1,0,0:0:0:0:
392,32,92702,2,0,P|439:54|482:78,1,100,4|0,3:2|0:0,0:0:0:0:
340,192,92970,1,8,0:0:0:0:
208,152,93104,1,8,0:0:0:0:
436,176,93238,2,0,P|436:224|408:268,1,100,0|0,3:0|0:0,0:0:0:0:
208,152,93506,2,0,L|224:52,1,100,8|0,0:0|0:0,0:0:0:0:
340,192,93774,6,0,P|280:224|204:204,1,150,0|8,3:0|0:0,0:0:0:0:
172,180,94042,2,0,L|72:192,1,100,0|8,0:0|0:0,0:0:0:0:
180,312,94310,1,0,3:0:0:0:
392,32,94577,1,0,3:0:0:0:
480,300,94845,6,0,L|380:288,1,100,4|0,3:2|0:0,0:0:0:0:
256,188,95113,1,0,0:0:0:0:
180,312,95247,1,8,0:0:0:0:
344,200,95381,2,0,L|444:212,1,100,0|0,3:0|0:0,0:0:0:0:
328,356,95649,1,8,0:0:0:0:
244,160,95783,1,0,0:0:0:0:
88,284,95917,5,0,3:0:0:0:
256,188,96051,1,0,0:0:0:0:
48,204,96185,1,0,0:0:0:0:
288,268,96318,1,8,0:0:0:0:
76,380,96452,2,0,P|72:331|88:284,1,100,0|0,3:0|0:0,0:0:0:0:
256,188,96720,2,0,P|206:191|159:176,1,100,8|0,0:0|0:0,0:0:0:0:
328,68,96988,6,0,B|400:56|400:56|420:84|420:84|468:68|520:92,1,200,4|0,3:2|0:0,0:0:0:0:
356,224,97390,1,8,0:0:0:0:
256,24,97524,1,0,3:0:0:0:
200,240,97658,1,0,0:0:0:0:
340,144,97792,1,8,0:0:0:0:
160,88,97926,1,0,0:0:0:0:
316,344,98060,6,0,P|332:296|324:248,1,100,0|0,3:0|0:0,0:0:0:0:
94,167,98327,2,0,P|127:205|173:222,1,100,0|8,0:0|0:0,0:0:0:0:
357,64,98595,2,0,P|308:74|270:105,1,100,0|0,3:0|0:0,0:0:0:0:
404,232,98863,1,8,0:0:0:0:
256,196,98997,1,0,0:0:0:0:
132,300,99131,6,0,P|80:304|32:304,1,100,4|0,3:2|0:0,0:0:0:0:
188,144,99399,1,0,0:0:0:0:
240,280,99533,1,8,0:0:0:0:
16,216,99667,2,0,P|12:164|12:116,1,100,4|0,3:2|0:0,0:0:0:0:
200,64,99935,1,8,0:0:0:0:
40,32,100068,1,0,0:0:0:0:
188,144,100202,5,0,3:0:0:0:
316,28,100336,1,0,0:0:0:0:
104,112,100470,1,0,0:0:0:0:
240,280,100604,1,8,0:0:0:0:
373,116,100738,2,0,P|321:124|273:136,1,100,4|0,3:2|0:0,0:0:0:0:
176,224,101006,1,8,0:0:0:0:
328,264,101140,1,0,0:0:0:0:
470,135,101274,6,0,P|422:123|373:116,1,100,0|0,3:0|0:0,0:0:0:0:
240,280,101542,1,0,3:0:0:0:
188,144,101676,1,8,0:0:0:0:
412,216,101810,1,0,2:0:0:0:
412,216,102077,2,0,L|432:316,1,100,0|8,3:0|0:0,0:0:0:0:
332,372,102345,6,0,B|344:312|344:312|280:340|208:316,1,200,8|0,0:0|0:0,0:0:0:0:
132,192,102881,2,0,P|140:227|140:260,2,66.6666666666667,8|0|0,0:0|0:0|0:0,0:0:0:0:
56,156,103149,2,0,P|47:120|48:88,2,66.6666666666667,0|0|0,3:0|0:0|0:0,0:0:0:0:
224,220,103417,6,0,P|304:188|328:84,1,200,6|2,3:1|0:1,0:0:0:0:
240,20,103818,1,8,0:0:0:0:
364,184,103952,2,0,B|512:160|512:160|468:136,1,200,2|10,3:1|0:1,0:0:0:0:
328,84,104354,1,0,0:0:0:0:
212,265,104488,5,2,3:1:0:0:
364,184,104622,1,2,0:0:0:0:
188,157,104756,1,2,0:1:0:0:
316,285,104890,1,10,0:0:0:0:
292,101,105024,2,0,L|96:160,1,200,2|8,3:1|0:0,0:0:0:0:
60,136,105560,6,0,L|251:78,1,200,2|2,3:1|0:1,0:0:0:0:
352,128,105961,1,8,0:0:0:0:
163,330,106095,2,0,P|127:258|167:150,1,200,2|10,3:1|0:1,0:0:0:0:
251,78,106497,1,0,0:0:0:0:
332,224,106631,6,0,P|384:236|432:240,1,100,2|2,3:1|0:0,0:0:0:0:
165,151,106899,2,0,P|113:139|65:135,1,100,2|10,0:1|0:0,0:0:0:0:
308,36,107167,2,0,P|292:104|304:184,1,150,2|0,3:1|0:0,0:0:0:0:
332,224,107435,2,0,L|316:328,1,100,8|0,0:0|0:0,0:0:0:0:
146,296,107702,6,0,P|237:266|316:322,1,200,6|2,3:1|0:1,0:0:0:0:
136,376,108104,1,8,0:0:0:0:
40,200,108238,2,0,L|240:228,1,200,2|10,3:1|0:1,0:0:0:0:
216,348,108640,1,0,0:0:0:0:
24,296,108774,5,2,3:1:0:0:
56,112,108908,1,2,0:0:0:0:
146,296,109042,1,2,0:1:0:0:
144,76,109176,1,10,0:0:0:0:
238,227,109310,2,0,L|224:24,1,200,2|8,3:1|0:0,0:0:0:0:
24,296,109845,6,0,B|127:333|127:269|223:301,1,200,2|2,3:1|0:1,0:0:0:0:
300,376,110247,1,8,0:0:0:0:
156,208,110381,2,0,P|228:140|308:180,1,200,2|10,3:1|0:1,0:0:0:0:
348,284,110783,1,0,0:0:0:0:
156,208,110917,6,0,L|56:192,1,100,2|2,3:1|0:0,0:0:0:0:
216,16,111185,2,0,P|228:64|224:116,1,100,2|10,0:1|0:0,0:0:0:0:
157,346,111452,2,0,P|133:294|157:206,1,150,2|0,3:1|0:0,0:0:0:0:
236,236,111720,2,0,L|340:228,1,100,8|0,0:0|0:0,0:0:0:0:
224,113,111988,6,0,L|24:97,1,200,6|2,3:1|0:1,0:0:0:0:
60,204,112390,1,8,0:0:0:0:
256,36,112524,2,0,P|360:60|396:144,1,200,2|10,3:1|0:1,0:0:0:0:
360,244,112926,1,0,0:0:0:0:
224,113,113060,5,2,3:1:0:0:
84,254,113193,1,2,0:0:0:0:
136,50,113327,1,2,0:1:0:0:
197,215,113461,1,10,0:0:0:0:
33,176,113595,2,0,L|224:113,1,200,2|8,3:1|0:0,0:0:0:0:
224,113,114131,6,0,B|201:213|261:209|233:313,1,200,2|2,3:1|0:1,0:0:0:0:
128,348,114533,1,8,0:0:0:0:
320,160,114667,2,0,P|417:168|476:244,1,200,2|10,3:1|0:1,0:0:0:0:
436,348,115068,1,0,0:0:0:0:
248,240,115202,5,2,3:1:0:0:
176,324,115336,1,2,0:0:0:0:
348,368,115470,2,0,P|344:316|344:264,1,100,2|10,0:1|0:0,0:0:0:0:
188,36,115738,2,0,P|184:116|172:192,1,150,2|0,3:1|0:0,0:0:0:0:
248,240,116006,2,0,P|248:289|252:339,1,100,8|0,0:0|0:0,0:0:0:0:
437,257,116274,6,0,B|301:217|301:217|248:240,1,200,6|2,3:1|0:1,0:0:0:0:
348,368,116676,1,8,0:0:0:0:
492,172,116810,2,0,L|299:115,1,200,2|10,3:1|0:1,0:0:0:0:
248,240,117211,1,0,0:0:0:0:
428,64,117345,6,0,L|328:36,1,100,2|2,3:1|0:0,0:0:0:0:
148,176,117613,1,2,0:1:0:0:
300,115,117747,1,10,0:0:0:0:
116,80,117881,2,0,B|153:183|89:183|121:279,1,200,2|8,3:1|0:0,0:0:0:0:
348,368,118417,6,0,L|372:212,1,150,2|0,3:1|0:0,0:0:0:0:
284,252,118685,2,0,P|228:252|188:236,1,100,2|8,0:1|0:0,0:0:0:0:
276,84,118952,2,0,P|308:132|244:172,1,150,2|0,3:1|0:0,0:0:0:0:
352,144,119220,2,0,L|452:160,1,100,10|0,0:1|0:0,0:0:0:0:
216,32,119488,6,0,L|84:52,1,133.333333333333,0|4,0:0|0:3,0:0:0:0:
296,352,119845,2,0,L|428:332,1,133.333333333333,0|4,0:0|0:3,0:0:0:0:
256,192,120292,1,4,3:3:0:0:
256,180,128060,5,0,3:0:0:0:
128,288,128327,6,0,L|120:238,1,50,2|0,0:1|0:0,0:0:0:0:
248,304,128461,2,0,L|244:360,1,50,2|0,0:1|0:0,0:0:0:0:
136,372,128595,2,0,P|52:364|40:264,1,200,2|2,0:1|0:1,0:0:0:0:
176,136,129131,6,0,L|336:156,1,160,4|0,3:2|0:0,0:0:0:0:
400,216,129533,1,0,0:0:0:0:
476,176,129667,2,0,P|464:132|460:96,1,80,0|0,3:0|0:0,0:0:0:0:
400,216,129935,2,0,P|388:260|384:296,1,80
436,368,130202,6,0,P|340:316|236:348,1,220.000006713867,2|0,0:1|0:0,0:0:0:0:
220,376,130604,2,0,L|240:156,1,220.000006713867,2|0,0:1|0:0,0:0:0:0:
156,24,131006,2,0,L|164:104,1,80,0|0,3:0|0:0,0:0:0:0:
76,224,131274,6,0,P|32:216|0:200,1,80,0|0,3:0|0:0,0:0:0:0:
148,184,131542,2,0,L|156:264,1,80
220,376,131810,2,0,B|232:256|232:256|248:292,1,160,0|0,3:0|0:0,0:0:0:0:
220,376,132211,1,0,0:0:0:0:
220,376,132345,6,0,L|140:364,1,80,0|0,3:0|0:0,0:0:0:0:
324,268,132613,2,0,L|328:312,1,40
408,348,132747,2,0,L|411:308,1,40,0|0,3:0|0:0,0:0:0:0:
380,196,132881,6,0,P|300:180|236:228,1,165.000005035401,2|0,0:1|0:0,0:0:0:0:
200,304,133149,2,0,P|121:320|56:273,1,165.000005035401,2|0,0:1|0:0,0:0:0:0:
40,192,133417,6,0,L|64:32,1,160,0|0,3:0|0:0,0:0:0:0:
172,96,133818,1,0,0:0:0:0:
172,96,133952,2,0,P|212:96|252:84,1,80,0|0,3:0|0:0,0:0:0:0:
324,36,134220,2,0,P|362:24|402:24,1,80
424,180,134488,6,0,P|336:168|400:108,1,220.000006713867,2|0,0:1|0:0,0:0:0:0:
384,152,134890,2,0,B|293:134|293:134|258:147|258:147|164:129,1,220.000006713867,2|0,0:1|0:0,0:0:0:0:
49,36,135292,2,0,L|128:52,1,80,0|0,3:0|0:0,0:0:0:0:
160,224,135560,6,0,P|152:264|132:300,1,80,0|0,3:0|0:0,0:0:0:0:
4,148,135827,2,0,L|82:163,1,80
160,224,136095,2,0,P|236:220|296:164,1,160,0|0,3:0|0:0,0:0:0:0:
180,28,136631,6,0,P|121:101|225:111,1,240,0|0,3:0|3:0,0:0:0:0:
84,56,137167,2,0,L|4:64,1,80,2|0,0:0|0:0,0:0:0:0:
260,20,137435,2,0,L|180:28,1,80,8|0,0:0|0:0,0:0:0:0:
320,84,137702,5,0,3:0:0:0:
320,84,137970,1,2,0:0:0:0:
404,64,138104,1,0,0:0:0:0:
464,132,138238,1,0,3:0:0:0:
260,20,138506,1,2,0:0:0:0:
204,220,138774,6,0,P|276:232|308:160,2,160,0|2|0,3:0|0:0|3:0,0:0:0:0:
68,52,139577,2,0,L|56:136,1,80,2|0,0:0|0:0,0:0:0:0:
44,220,139845,5,0,3:0:0:0:
44,220,140113,1,2,0:0:0:0:
124,188,140247,1,0,0:0:0:0:
204,220,140381,2,0,P|276:232|308:160,1,160,0|2,3:0|0:0,0:0:0:0:
44,220,140917,6,0,B|16:280|32:340|32:340|68:324,1,160,0|2,3:0|0:0,0:0:0:0:
148,296,141318,1,0,0:0:0:0:
204,364,141452,2,0,P|284:344|364:344,1,160,0|2,3:0|0:0,0:0:0:0:
452,192,141988,6,0,P|372:212|292:212,1,160,0|2,3:0|0:0,0:0:0:0:
240,140,142390,1,0,0:0:0:0:
284,64,142524,1,0,3:0:0:0:
388,260,142792,1,2,0:0:0:0:
164,100,143060,6,0,P|80:112|16:152,2,160,0|2|0,3:0|0:0|3:0,0:0:0:0:
256,252,143863,1,2,0:0:0:0:
308,184,143997,1,0,0:0:0:0:
344,264,144131,6,0,P|424:260|468:200,1,160,0|0,3:0|3:0,0:0:0:0:
436,116,144533,1,0,0:0:0:0:
436,116,144667,2,0,L|444:36,1,80,0|0,3:0|0:0,0:0:0:0:
300,104,144935,2,0,L|308:184,1,80,0|0,3:0|0:0,0:0:0:0:
256,252,145202,6,0,P|216:252|176:260,1,80,0|0,3:0|0:0,0:0:0:0:
92,232,145470,2,0,P|57:252|27:280,1,80,2|2,0:0|0:0,0:0:0:0:
16,364,145738,5,0,0:0:0:0:
16,364,145827,2,0,L|68:372,1,53.3333333333333
156,340,146006,1,0,0:0:0:0:
156,340,146095,2,0,L|208:332,1,53.3333333333333
296,364,146274,5,4,0:0:0:0:
452,284,146542,2,0,P|456:244|452:200,2,80,0|0|2,0:0|0:0|0:0,0:0:0:0:
300,192,147077,1,0,0:0:0:0:
132,244,147345,6,0,B|204:280|204:280|284:280,1,160,2|0,0:0|0:0,0:0:0:0:
384,136,147881,1,2,0:0:0:0:
240,36,148149,2,0,L|228:120,1,80
212,204,148417,5,2,0:0:0:0:
212,204,148685,1,0,0:0:0:0:
132,172,148818,1,0,0:0:0:0:
152,256,148952,2,0,P|232:280|288:236,1,160,2|0,0:0|0:0,0:0:0:0:
84,76,149488,6,0,P|80:160|68:236,1,160,2|0,0:0|0:0,0:0:0:0:
24,312,149890,1,0,0:0:0:0:
24,312,150024,2,0,B|104:336|104:284|184:316,1,160,2|0,0:0|0:0,0:0:0:0:
328,220,150560,6,0,P|248:240|176:216,1,160,2|0,0:0|0:0,0:0:0:0:
144,136,150961,1,0,0:0:0:0:
204,68,151095,1,2,0:0:0:0:
180,314,151363,1,0,0:0:0:0:
204,68,151631,6,0,P|112:56|56:104,2,160,2|0|2,0:0|0:0|0:0,0:0:0:0:
316,276,152435,2,0,P|324:236|320:196,1,80
268,124,152702,5,2,0:0:0:0:
300,40,152836,1,2,0:0:0:0:
384,12,152970,1,0,0:0:0:0:
464,48,153104,1,2,0:0:0:0:
500,128,153238,2,0,P|500:168|492:208,1,80,0|2,0:0|0:0,0:0:0:0:
424,264,153506,2,0,L|432:344,1,80,0|2,0:0|0:0,0:0:0:0:
256,192,162345,12,8,163417,0:0:0:0:
141,271,163685,5,8,0:0:0:0:
309,319,163952,1,8,0:0:0:0:
358,149,164220,1,8,0:0:0:0:
188,100,164488,1,8,0:0:0:0:
228,260,164756,5,8,0:0:0:0:
300,210,164890,1,8,0:0:0:0:
218,180,165024,1,8,0:0:0:0:
392,304,165292,1,8,0:0:0:0:
417,300,165381,1,8,0:0:0:0:
443,295,165470,1,8,0:0:0:0:
468,290,165560,5,8,0:0:0:0:
396,132,165827,1,8,0:0:0:0:
224,92,166095,1,8,0:0:0:0:
72,184,166363,1,8,0:0:0:0:
36,356,166631,1,8,0:0:0:0:
204,308,166899,5,8,0:0:0:0:
140,248,167033,1,8,0:0:0:0:
120,332,167167,1,8,0:0:0:0:
288,280,167435,5,8,0:0:0:0:
140,248,167568,1,8,0:0:0:0:
276,364,167702,5,0,3:0:0:0:
424,332,167836,1,0,0:0:0:0:
288,280,167970,1,0,3:0:0:0:
436,248,168104,1,0,0:0:0:0:
304,192,168238,5,0,3:0:0:0:
134,154,168372,1,0,0:0:0:0:
289,95,168506,1,0,3:0:0:0:
121,59,168640,1,0,0:0:0:0:
32,192,168774,5,0,3:0:0:0:
24,348,168908,1,0,0:0:0:0:
134,154,169042,5,0,3:0:0:0:
148,368,169176,1,0,0:0:0:0:
232,124,169310,5,0,3:0:0:0:
276,372,169443,1,0,0:0:0:0:
332,92,169577,5,0,3:0:0:0:
408,360,169711,1,0,0:0:0:0:
492,184,169845,5,0,3:0:0:0:
452,164,169935,1,0,0:0:0:0:
408,168,170024,1,0,0:0:0:0:
376,192,170113,5,0,3:0:0:0:
356,228,170202,1,0,0:0:0:0:
324,256,170292,1,0,0:0:0:0:
284,268,170381,5,0,3:0:0:0:
240,264,170470,1,0,0:0:0:0:
200,248,170560,1,0,0:0:0:0:
176,208,170649,5,0,3:0:0:0:
140,184,170738,1,0,0:0:0:0:
96,184,170827,1,0,0:0:0:0:
56,204,170917,6,0,L|44:324,2,119.999996337891,0|2|0,0:0|0:0|0:0,0:0:0:0:
256,96,171720,2,0,P|204:76|220:24,1,120,0|0,3:0|0:0,0:0:0:0:
256,96,171988,6,0,L|248:196,1,100,4|0,3:2|0:0,0:0:0:0:
160,264,172256,1,0,0:0:0:0:
104,108,172390,1,8,0:0:0:0:
264,304,172524,2,0,P|312:308|360:292,1,100,0|0,3:0|0:0,0:0:0:0:
392,192,172792,1,8,0:0:0:0:
264,304,172926,1,0,0:0:0:0:
128,184,173060,5,0,3:0:0:0:
256,96,173193,1,0,0:0:0:0:
160,264,173327,1,0,0:0:0:0:
176,60,173461,1,8,0:0:0:0:
292,180,173595,2,0,P|344:176|388:156,1,100,0|0,3:0|0:0,0:0:0:0:
176,60,173863,2,0,L|164:160,1,100,8|0,0:0|0:0,0:0:0:0:
288,284,174131,6,0,P|392:264|468:212,1,200,4|0,3:2|0:0,0:0:0:0:
396,72,174533,1,8,0:0:0:0:
292,180,174667,1,0,3:0:0:0:
468,128,174801,1,0,0:0:0:0:
308,96,174935,1,8,0:0:0:0:
376,272,175068,1,0,0:0:0:0:
188,332,175202,6,0,P|136:328|84:332,1,100,0|0,3:0|0:0,0:0:0:0:
292,180,175470,2,0,P|344:176|396:180,1,100,0|8,0:0|0:0,0:0:0:0:
136,204,175738,2,0,P|132:152|136:100,1,100,0|0,3:0|0:0,0:0:0:0:
308,96,176006,1,8,0:0:0:0:
228,244,176140,1,0,0:0:0:0:
44,56,176274,6,0,L|144:72,1,100,4|0,3:2|0:0,0:0:0:0:
248,220,176542,1,0,0:0:0:0:
396,100,176676,1,8,0:0:0:0:
232,24,176810,2,0,P|220:76|220:128,1,100,0|0,3:0|0:0,0:0:0:0:
344,244,177077,1,8,0:0:0:0:
404,72,177211,1,0,0:0:0:0:
268,196,177345,5,0,3:0:0:0:
432,224,177479,1,0,0:0:0:0:
208,272,177613,1,0,0:0:0:0:
416,148,177747,1,8,0:0:0:0:
219,122,177881,2,0,P|167:130|119:142,1,100,0|0,3:0|0:0,0:0:0:0:
232,356,178149,5,8,0:0:0:0:
268,196,178283,1,0,0:0:0:0:
68,225,178417,2,0,P|80:273|100:320,1,100,4|0,3:2|0:0,0:0:0:0:
344,244,178685,1,8,0:0:0:0:
219,122,178818,1,8,0:0:0:0:
232,356,178952,2,0,P|281:350|332:334,1,100,0|0,3:0|0:0,0:0:0:0:
140,156,179220,2,0,L|128:264,1,100,8|0,0:0|0:0,0:0:0:0:
329,335,179488,6,0,P|309:259|320:188,1,150,0|8,3:0|0:0,0:0:0:0:
411,156,179756,2,0,P|368:181|319:189,1,100,0|8,0:0|0:0,0:0:0:0:
256,36,180024,1,0,3:0:0:0:
492,192,180292,1,0,3:0:0:0:
232,356,180560,6,0,P|182:347|139:323,1,100,4|0,3:2|0:0,0:0:0:0:
240,184,180827,1,0,0:0:0:0:
312,276,180961,1,8,0:0:0:0:
100,248,181095,2,0,L|112:148,1,100,0|0,3:0|0:0,0:0:0:0:
280,24,181363,2,0,L|292:124,1,100,8|0,0:0|0:0,0:0:0:0:
192,260,181631,5,0,3:0:0:0:
116,60,181765,1,0,0:0:0:0:
240,184,181899,1,0,0:0:0:0:
40,100,182033,1,8,0:0:0:0:
292,124,182167,2,0,L|280:24,1,100,0|0,3:0|0:0,0:0:0:0:
192,260,182435,2,0,P|240:276|292:276,1,100,8|0,0:0|0:0,0:0:0:0:
480,173,182702,6,0,P|391:129|292:124,1,200,4|0,3:2|0:0,0:0:0:0:
192,260,183104,1,8,0:0:0:0:
320,200,183238,1,0,3:0:0:0:
132,192,183372,1,0,0:0:0:0:
292,124,183506,1,8,0:0:0:0:
80,124,183640,1,0,0:0:0:0:
268,44,183774,6,0,P|320:40|372:40,1,100,0|0,3:0|0:0,0:0:0:0:
132,192,184042,2,0,P|80:188|28:188,1,100,0|8,0:0|0:0,0:0:0:0:
272,364,184310,2,0,P|276:312|276:260,1,100,0|0,3:0|0:0,0:0:0:0:
200,120,184577,1,8,0:0:0:0:
364,236,184711,1,0,0:0:0:0:
172,304,184845,6,0,P|120:308|72:308,1,100,4|0,3:2|0:0,0:0:0:0:
264,180,185113,1,0,0:0:0:0:
352,320,185247,1,8,0:0:0:0:
488,256,185381,2,0,P|488:206|484:156,1,100,4|0,3:2|0:0,0:0:0:0:
280,104,185649,1,8,0:0:0:0:
468,80,185783,1,0,0:0:0:0:
320,244,185917,5,0,3:0:0:0:
200,120,186051,1,0,0:0:0:0:
328,36,186185,1,0,0:0:0:0:
408,252,186318,1,8,0:0:0:0:
192,348,186452,2,0,P|200:296|212:248,1,100,4|0,3:2|0:0,0:0:0:0:
271,146,186720,5,8,0:0:0:0:
211,250,186854,1,0,0:0:0:0:
91,230,186988,2,0,P|72:186|59:134,1,100,8|0,0:0|0:0,0:0:0:0:
239,51,187256,2,0,P|258:97|271:146,1,100,8|0,0:0|0:0,0:0:0:0:
192,348,187524,1,8,0:0:0:0:
192,348,187792,1,8,0:0:0:0:
192,348,188060,6,0,B|288:304|288:368|392:328,1,200,8|4,0:0|0:2,0:0:0:0:
456,152,188595,2,0,P|380:148|312:180,1,150,8|0,0:0|0:0,0:0:0:0:
296,256,188863,6,0,P|340:256|376:228,1,89.9999972534181,0|0,3:0|0:0,0:0:0:0:
272,108,189131,6,0,B|172:84|172:152|76:124,1,200,2|2,3:1|0:1,0:0:0:0:
8,40,189533,1,8,0:0:0:0:
232,200,189667,2,0,P|224:304|144:340,1,200,2|10,3:1|0:1,0:0:0:0:
48,288,190068,1,0,0:0:0:0:
77,124,190202,5,2,3:1:0:0:
232,200,190336,1,2,0:0:0:0:
32,204,190470,1,2,0:1:0:0:
272,108,190604,1,10,0:1:0:0:
48,288,190738,2,0,L|84:88,1,200,2|8,3:1|0:0,0:0:0:0:
92,60,191274,6,0,P|176:116|272:108,1,200,2|2,3:1|0:1,0:0:0:0:
344,24,191676,1,8,0:0:0:0:
144,148,191810,2,0,B|124:236|124:236|168:276|152:340,1,200,2|10,3:1|0:1,0:0:0:0:
44,316,192211,1,0,0:0:0:0:
236,208,192345,6,0,L|336:224,1,100,2|2,3:1|0:0,0:0:0:0:
478,308,192613,2,0,L|380:324,1,100,2|10,0:1|0:0,0:0:0:0:
344,128,192881,2,0,P|408:92|480:112,1,150,2|0,3:1|0:0,0:0:0:0:
512,192,193149,2,0,P|461:198|417:177,1,100,8|0,0:0|0:0,0:0:0:0:
216,40,193417,6,0,L|243:239,1,200,6|2,3:1|0:1,0:0:0:0:
320,316,193818,1,8,0:0:0:0:
196,144,193952,2,0,P|96:148|40:224,1,200,2|10,3:1|0:0,0:0:0:0:
92,320,194354,1,0,0:0:0:0:
350,228,194488,5,2,3:1:0:0:
196,144,194622,1,2,0:0:0:0:
230,263,194756,1,2,0:1:0:0:
314,110,194890,1,10,0:0:0:0:
116,36,195024,2,0,B|124:88|124:88|100:128|100:128|120:176|92:228,1,200,2|8,3:1|0:0,0:0:0:0:
64,244,195560,6,0,P|156:208|256:224,1,200,2|2,3:1|0:1,0:0:0:0:
312,316,195961,1,8,0:0:0:0:
504,152,196095,2,0,P|420:116|312:132,1,200,2|10,3:1|0:1,0:0:0:0:
253,223,196497,1,0,0:0:0:0:
420,336,196631,6,0,P|416:288|428:236,1,100,2|2,3:1|0:0,0:0:0:0:
322,31,196899,2,0,P|324:84|314:131,1,100,2|10,0:1|0:0,0:0:0:0:
76,144,197167,2,0,P|145:118|215:142,1,150,2|0,3:1|0:0,0:0:0:0:
253,223,197435,2,0,L|261:327,1,100,8|0,0:0|0:0,0:0:0:0:
48,342,197702,6,0,L|76:144,1,200,6|2,3:1|0:1,0:0:0:0:
153,224,198104,1,8,0:0:0:0:
13,76,198238,2,0,P|93:20|193:32,1,200,2|10,3:1|0:1,0:0:0:0:
272,104,198640,1,0,0:0:0:0:
153,224,198774,5,2,3:1:0:0:
190,30,198908,1,2,0:0:0:0:
364,164,199042,1,2,0:0:0:0:
170,127,199176,1,10,0:0:0:0:
400,68,199310,2,0,P|464:144|436:236,1,200,2|8,3:1|0:0,0:0:0:0:
153,224,199845,6,0,L|352:196,1,200,2|2,3:1|0:1,0:0:0:0:
300,100,200247,1,8,0:0:0:0:
256,280,200381,2,0,L|57:252,1,200,2|10,3:1|0:1,0:0:0:0:
112,156,200783,1,0,0:0:0:0:
224,368,200917,6,0,L|324:356,1,100,2|2,3:1|0:0,0:0:0:0:
448,164,201185,2,0,L|348:152,1,100,2|10,0:1|0:0,0:0:0:0:
256,280,201452,2,0,P|328:288|384:240,1,150,2|0,3:1|0:0,0:0:0:0:
348,152,201720,2,0,L|360:52,1,100,8|0,0:0|0:0,0:0:0:0:
496,248,201988,6,0,B|508:344|508:344|472:392|416:384,1,200,6|2,3:1|0:1,0:0:0:0:
320,336,202390,1,8,0:0:0:0:
348,152,202524,2,0,B|500:136|500:136|468:172,1,200,2|10,3:1|0:1,0:0:0:0:
383,240,202926,1,0,0:0:0:0:
194,68,203060,5,2,3:1:0:0:
348,152,203193,1,2,0:0:0:0:
230,186,203327,1,2,0:1:0:0:
314,33,203461,1,10,0:0:0:0:
292,272,203595,2,0,B|189:309|189:245|93:277,1,200,2|8,3:1|0:0,0:0:0:0:
72,296,204131,6,0,L|92:144,1,150,2|0,3:1|0:0,0:0:0:0:
132,72,204399,2,0,P|180:56|232:64,1,100,2|8,0:1|0:0,0:0:0:0:
288,188,204667,2,0,P|224:204|188:140,1,150,2|0,3:1|0:0,0:0:0:0:
288,188,204935,2,0,L|276:288,1,100,10|0,0:1|0:0,0:0:0:0:
200,364,205202,6,0,P|168:352|132:348,2,66.6666666666667,2|0|0,0:0|0:0|0:0,0:0:0:0:
376,268,205470,2,0,P|408:280|444:284,2,66.6666666666667,2|0|0,0:0|0:0|0:0,0:0:0:0:
256,108,205738,5,2,0:0:0:0:
220,88,205827,1,0,0:0:0:0:
180,88,205917,1,0,0:0:0:0:
148,108,206006,5,0,0:0:0:0:
108,108,206095,1,0,0:0:0:0:
72,88,206185,1,0,0:0:0:0:
56,56,206274,6,0,L|68:220,1,160,4|0,3:2|0:0,0:0:0:0:
168,180,206676,1,0,3:0:0:0:
168,180,206810,2,0,L|180:344,1,160,0|0,3:0|3:0,0:0:0:0:
276,304,207211,1,0,0:0:0:0:
276,304,207345,6,0,P|316:312|352:332,1,80
498,282,207613,2,0,P|459:274|424:256,1,80,0|0,3:0|0:0,0:0:0:0:
384,160,207881,1,0,3:0:0:0:
488,176,208015,1,0,0:0:0:0:
328,240,208149,2,0,P|288:232|244:232,1,80
196,320,208417,6,0,P|220:244|196:168,1,160,0|0,3:0|0:0,0:0:0:0:
128,60,208818,1,0,3:0:0:0:
128,60,208952,2,0,P|104:136|128:212,1,160,0|0,3:0|3:0,0:0:0:0:
272,128,209354,1,0,0:0:0:0:
272,128,209488,6,0,L|352:140,1,80
460,300,209756,1,8,0:0:0:0:
360,332,209890,1,8,0:0:0:0:
380,232,210024,1,8,0:0:0:0:
380,232,210292,1,8,0:0:0:0:
380,232,210560,6,0,L|216:244,1,160,0|0,3:0|0:0,0:0:0:0:
288,324,210961,1,0,3:0:0:0:
288,324,211095,2,0,L|124:336,1,160,0|0,3:0|3:0,0:0:0:0:
36,284,211497,1,0,0:0:0:0:
76,188,211631,6,0,L|164:180,1,80
315,240,211899,2,0,L|236:248,1,80,0|0,3:0|0:0,0:0:0:0:
180,84,212167,1,0,3:0:0:0:
236,248,212301,1,0,0:0:0:0:
76,266,212435,2,0,P|84:226|76:188,1,80
4,132,212702,6,0,L|164:156,1,160,0|0,3:0|0:0,0:0:0:0:
252,104,213104,1,0,3:0:0:0:
204,12,213238,2,0,P|260:64|344:80,1,160,0|0,3:0|3:0,0:0:0:0:
432,32,213640,1,0,0:0:0:0:
492,168,213774,6,0,L|412:156,1,80,8|0,0:0|0:0,0:0:0:0:
328,216,214042,2,0,L|248:204,1,80,0|8,3:0|0:0,0:0:0:0:
176,128,214310,1,0,3:0:0:0:
72,136,214443,1,0,0:0:0:0:
8,216,214577,1,8,0:0:0:0:
24,320,214711,1,0,0:0:0:0:
128,352,214845,6,0,P|188:336|244:344,1,119.999996337891,2|2,3:2|0:0,0:0:0:0:
324,304,215247,1,0,3:0:0:0:
324,304,215381,2,0,P|384:320|440:312,1,119.999996337891,2|2,3:2|3:2,0:0:0:0:
504,248,215783,1,0,0:0:0:0:
456,172,215917,6,0,P|456:140|464:112,1,59.9999981689454,2|0,0:0|0:0,0:0:0:0:
383,25,216185,2,0,P|383:55|376:84,1,59.9999981689454,2|2,3:2|0:0,0:0:0:0:
304,136,216452,2,0,L|184:124,1,119.999996337891,2|2,3:2|0:0,0:0:0:0:
12,72,216988,6,0,L|132:60,1,119.999996337891,2|2,3:2|0:0,0:0:0:0:
208,12,217390,1,0,3:0:0:0:
208,12,217524,2,0,P|264:32|300:80,1,119.999996337891,2|2,3:2|3:2,0:0:0:0:
272,164,217926,1,0,0:0:0:0:
200,216,218060,6,0,L|140:220,1,59.9999981689454,2|0,0:0|0:0,0:0:0:0:
92,296,218327,2,0,L|32:300,2,59.9999981689454,2|2|2,3:2|0:0|3:2,0:0:0:0:
272,280,218863,1,2,0:0:0:0:
272,280,219131,6,0,P|292:224|280:164,1,119.999996337891,2|2,3:2|0:0,0:0:0:0:
204,116,219533,1,0,3:0:0:0:
204,116,219667,2,0,P|145:126|99:167,1,119.999996337891,2|2,3:2|3:2,0:0:0:0:
84,256,220068,1,0,0:0:0:0:
140,328,220202,6,0,L|204:320,1,59.9999981689454,2|0,0:0|0:0,0:0:0:0:
280,364,220470,2,0,L|344:356,1,59.9999981689454,2|2,3:2|0:0,0:0:0:0:
420,316,220738,2,0,P|440:260|432:200,1,119.999996337891,2|2,3:2|0:0,0:0:0:0:
304,72,221274,6,0,P|284:128|292:188,1,119.999996337891,2|2,3:2|0:0,0:0:0:0:
356,248,221676,1,0,3:0:0:0:
272,276,221810,2,0,L|152:260,1,119.999996337891,2|2,3:2|3:2,0:0:0:0:
94,193,222211,1,0,0:0:0:0:
11,228,222345,5,2,0:0:0:0:
18,317,222479,1,2,0:0:0:0:
106,338,222613,1,0,0:0:0:0:
153,260,222747,1,2,0:0:0:0:
94,193,222881,5,2,0:0:0:0:
141,115,223015,1,2,0:0:0:0:
229,136,223149,1,0,0:0:0:0:
236,225,223283,1,2,0:0:0:0:
153,260,223417,5,2,0:0:0:0:
