osu file format v14

[General]
AudioFilename: Yunomi - Mentai Cosmic.mp3
AudioLeadIn: 0
PreviewTime: 16631
Countdown: 0
SampleSet: Soft
StackLeniency: 0.7
Mode: 0
LetterboxInBreaks: 0
WidescreenStoryboard: 0

[Editor]
Bookmarks: 120550,128050,154835,223407
DistanceSpacing: 0.8
BeatDivisor: 4
GridSize: 4
TimelineZoom: 1.099999

[Metadata]
Title:Mentai Cosmic
TitleUnicode:めんたいコズミック
Artist:Yunomi
ArtistUnicode:Yunomi
Creator:alacat
Version:Easy
Source:
Tags:SnowWhite hvick225 sukiNathan Amamiya Yuko Skystar Dailycare N_a_s_y_a Nasya 一二花 nica nicamoq
BeatmapID:1038609
BeatmapSetID:436773

[Difficulty]
HPDrainRate:2
CircleSize:3
OverallDifficulty:2
ApproachRate:3
SliderMultiplier:0.799999999999999
SliderTickRate:1

[Events]
//Background and Video events
0,0,"BG.jpg",0,0
//Break Periods
2,77902,80548
2,120492,127691
2,154845,161977
//Storyboard Layer 0 (Background)
//Storyboard Layer 1 (Fail)
//Storyboard Layer 2 (Pass)
//Storyboard Layer 3 (Foreground)
//Storyboard Sound Samples

[TimingPoints]
560,267.857142857143,4,2,20,50,1,0
9131,-100,4,2,20,60,0,0
16631,-100,4,2,20,40,0,0
17702,-100,4,2,1,70,0,1
33774,-100,4,2,20,50,0,1
34577,-100,4,2,1,30,0,1
34845,-100,4,1,1,70,0,0
50917,-100,4,2,20,40,0,0
51452,-100,4,1,1,40,0,0
51720,-100,4,2,20,40,0,0
55738,-100,4,2,1,50,0,0
56274,-100,4,2,20,40,0,0
59756,-100,4,2,1,50,0,0
60560,-100,4,2,1,50,0,0
61631,-100,4,2,1,60,0,0
62435,-100,4,2,1,50,0,0
64310,-100,4,2,1,60,0,0
64845,-100,4,2,1,50,0,0
65917,-100,4,2,1,60,0,0
66720,-100,4,2,1,50,0,0
76698,-100,4,2,20,50,0,0
77702,-100,4,2,1,40,0,0
81988,-100,4,2,1,50,0,0
82524,-100,4,2,1,60,0,0
83060,-100,4,2,1,70,0,0
83595,-100,4,2,1,80,0,0
84131,-100,4,2,22,60,0,0
85202,-100,4,2,1,60,0,0
86274,-100,4,2,1,70,0,1
102345,-100,4,2,20,50,0,1
103149,-100,4,2,1,50,0,1
103417,-100,4,1,1,70,0,0
119488,-100,4,2,20,50,0,0
120024,-100,4,2,1,50,0,0
120292,-100,4,2,1,30,0,0
128060,-100,4,2,1,40,0,0
129131,-100,4,2,1,50,0,0
130202,-100,4,2,1,60,0,0
131006,-100,4,2,1,50,0,0
132881,-100,4,2,1,60,0,0
133417,-100,4,2,1,50,0,0
134488,-100,4,2,1,60,0,0
135292,-100,4,2,1,50,0,0
145269,-100,4,2,20,50,0,0
145738,-100,4,2,22,50,0,0
146006,-100,4,2,22,30,0,0
146274,-100,4,2,20,50,0,0
163417,-100,4,2,1,40,0,0
167702,-100,4,2,1,30,0,0
168238,-100,4,2,1,40,0,0
168774,-100,4,2,1,50,0,0
169042,-100,4,2,1,60,0,0
169310,-100,4,2,1,70,0,0
169577,-100,4,2,1,80,0,0
169845,-100,4,2,1,70,0,0
170917,-100,4,2,20,40,0,0
171988,-100,4,2,1,70,0,1
186988,-100,4,2,20,40,0,1
188595,-100,4,2,1,50,0,1
188863,-100,4,2,1,50,0,1
189131,-100,4,1,1,70,0,0
205202,-100,4,1,1,60,0,0
205738,-100,4,1,1,50,0,0
206006,-100,4,1,1,40,0,0
206274,-100,4,2,1,40,0,0
213774,-100,4,2,20,40,0,0
214042,-100,4,2,1,40,0,0
214176,-100,4,2,20,40,0,0
214310,-100,4,2,1,40,0,0
214845,-100,4,2,1,50,0,0
222345,-100,4,2,20,50,0,0

[Colours]
Combo1 : 255,94,55
Combo2 : 173,255,95
Combo3 : 17,254,176
Combo4 : 255,88,100

[HitObjects]
12,200,560,6,0,P|76:152|156:148,1,160,4|8,0:3|0:0,0:0:0:0:
268,204,1631,1,4,0:3:0:0:
160,268,2167,1,8,0:0:0:0:
276,324,2702,6,0,P|356:312|436:332,1,160,4|8,0:3|0:0,0:0:0:0:
492,216,3774,2,0,P|412:228|332:208,1,160,4|8,0:3|0:0,0:0:0:0:
236,128,4845,6,0,L|76:148,2,160,4|8|4,0:3|0:0|0:3,0:0:0:0:
316,28,6452,1,8,0:0:0:0:
440,60,6988,6,0,B|492:112|472:188|472:188|400:180|344:240,1,280,4|2,0:3|0:0,0:0:0:0:
132,44,9131,6,0,L|292:60,1,160,4|2,0:0|0:0,0:0:0:0:
200,152,10202,2,0,L|40:168,1,160,2|2,0:0|0:0,0:0:0:0:
80,292,11274,5,2,0:0:0:0:
208,280,11810,1,2,0:0:0:0:
316,212,12345,2,0,P|336:132|312:60,1,160,2|2,0:0|0:0,0:0:0:0:
260,24,13149,1,4,0:3:0:0:
200,48,13417,6,0,L|40:48,1,160,4|2,0:0|0:0,0:0:0:0:
12,172,14488,2,0,L|172:172,1,160,2|2,0:0|0:0,0:0:0:0:
292,132,15560,6,0,B|316:212|260:212|292:292,2,160,2|2|2,0:0|0:0|2:0,0:0:0:0:
44,64,17702,6,0,P|112:24|184:48,1,160,4|0,3:2|3:0,0:0:0:0:
224,96,18506,1,8,0:0:0:0:
244,156,18774,2,0,L|224:316,1,160,0|0,3:0|3:0,0:0:0:0:
340,264,19845,6,0,L|320:105,1,160,4|0,3:2|3:0,0:0:0:0:
352,48,20649,1,8,0:0:0:0:
412,68,20917,2,0,P|456:64|488:44,2,79.9999999999999,0|0|0,3:0|0:0|3:0,0:0:0:0:
292,20,21988,6,0,L|132:36,1,160,4|0,3:2|3:0,0:0:0:0:
72,20,22792,1,8,0:0:0:0:
28,64,23060,2,0,P|4:140|20:216,1,160,0|0,3:0|3:0,0:0:0:0:
136,272,24131,6,0,P|212:244|288:260,2,160,4|0|0,3:2|3:0|3:0,0:0:0:0:
16,328,25738,2,0,P|0:288|4:248,1,79.9999999999999,0|0,3:0|3:0,0:0:0:0:
24,192,26274,6,0,P|74:128|148:103,1,160,4|0,3:2|3:0,0:0:0:0:
204,132,27077,1,8,0:0:0:0:
252,172,27345,2,0,B|292:160|316:128|316:128|356:140|396:132,1,160,0|0,3:0|3:0,0:0:0:0:
436,256,28417,6,0,B|396:264|356:252|356:252|332:284|292:296,1,160,4|0,3:2|3:0,0:0:0:0:
236,328,29220,1,8,0:0:0:0:
184,292,29488,2,0,L|176:212,2,79.9999999999999,0|0|0,3:0|0:0|3:0,0:0:0:0:
72,352,30560,6,0,P|92:276|68:200,1,160,4|4,3:2|3:2,0:0:0:0:
24,152,31363,1,8,0:0:0:0:
52,96,31631,2,0,L|212:104,1,160,0|4,3:0|3:2,0:0:0:0:
272,216,32702,6,0,L|432:208,1,160,4|0,3:2|3:0,0:0:0:0:
460,152,33506,1,0,3:0:0:0:
484,92,33774,2,0,L|400:96,1,79.9999999999999,8|2,0:0|0:0,0:0:0:0:
360,48,34310,2,0,L|276:52,1,79.9999999999999,8|0,0:0|3:0,0:0:0:0:
224,84,34845,6,0,P|144:72|72:100,1,160,2|2,3:1|3:1,0:0:0:0:
88,228,35917,2,0,P|168:240|240:212,1,160,2|2,3:1|3:1,0:0:0:0:
304,100,36988,5,2,3:1:0:0:
428,136,37524,1,2,3:1:0:0:
424,264,38060,2,0,B|384:284|372:324|372:324|336:312|292:328,1,160,2|2,3:1|3:1,0:0:0:0:
192,252,39131,6,0,P|116:280|36:268,2,160,6|2|2,3:1|3:1|3:1,0:0:0:0:
256,140,40738,1,2,3:1:0:0:
320,252,41274,6,0,P|396:280|476:268,1,160,2|2,3:1|3:1,0:0:0:0:
504,144,42345,1,2,3:1:0:0:
404,60,42881,1,2,3:1:0:0:
300,132,43417,6,0,P|220:132|144:104,1,160,6|2,3:1|3:1,0:0:0:0:
48,24,44488,2,0,L|24:184,1,160,2|2,3:1|3:1,0:0:0:0:
100,284,45560,5,2,3:1:0:0:
212,224,46095,1,2,3:1:0:0:
300,316,46631,2,0,P|380:328|448:288,2,160,2|2|6,3:1|3:1|3:1,0:0:0:0:
212,224,48238,5,2,3:1:0:0:
312,144,48774,2,0,L|472:164,1,160,2|2,3:1|3:1,0:0:0:0:
400,56,49845,6,0,L|240:36,1,160,2|2,3:1|3:1,0:0:0:0:
112,20,50917,2,0,P|44:52|56:128,1,160,8|8,0:3|0:0,0:0:0:0:
164,192,51988,6,0,P|240:180|316:216,1,160,8|8,0:0|0:0,0:0:0:0:
364,332,53060,1,8,0:0:0:0:
484,284,53595,1,8,0:0:0:0:
432,168,54131,6,0,B|412:88|472:88|444:12,2,160,8|8|8,0:0|0:0|0:0,0:0:0:0:
332,248,55738,2,0,P|324:208|308:172,1,79.9999999999999,2|2,0:1|0:1,0:0:0:0:
256,132,56274,6,0,L|96:152,1,160,8|8,0:0|0:0,0:0:0:0:
48,272,57345,2,0,L|206:252,1,160,8|8,0:0|0:0,0:0:0:0:
312,324,58417,5,8,0:0:0:0:
424,264,58952,2,0,P|452:180|424:116,1,160,8|8,0:0|0:0,0:0:0:0:
372,80,59756,2,0,L|292:80,1,79.9999999999999,2|2,0:1|0:1,0:0:0:0:
244,40,60292,1,2,0:1:0:0:
188,68,60560,6,0,B|132:80|80:56|80:56|40:88,1,160,0|0,3:0|3:0,0:0:0:0:
96,204,61631,2,0,L|76:324,2,120,2|2|0,0:1|0:1|3:0,0:0:0:0:
152,172,62702,6,0,P|224:200|308:200,2,160,0|0|0,3:0|3:0|3:0,0:0:0:0:
48,96,64310,2,0,L|36:180,1,79.9999999999999,2|2,0:1|0:1,0:0:0:0:
28,240,64845,5,0,3:0:0:0:
116,332,65381,1,0,3:0:0:0:
232,280,65917,2,0,P|292:284|352:312,2,120,2|2|0,0:1|0:1|3:0,0:0:0:0:
180,244,66988,6,0,P|168:168|208:96,1,160,0|0,3:0|3:0,0:0:0:0:
316,32,68060,2,0,L|476:48,1,160,0|2,3:0|0:0,0:0:0:0:
504,104,68863,1,8,0:0:0:0:
448,136,69131,6,0,P|416:212|444:292,1,160,0|0,3:0|3:0,0:0:0:0:
308,292,70202,2,0,L|320:372,2,79.9999999999999,0|2|0,3:0|0:0|3:0,0:0:0:0:
264,244,71006,1,2,0:0:0:0:
204,268,71274,6,0,P|124:276|56:232,1,160,0|0,3:0|3:0,0:0:0:0:
8,120,72345,2,0,L|20:36,1,79.9999999999999,0|2,3:0|0:0,0:0:0:0:
80,20,72881,2,0,P|120:36|156:36,1,79.9999999999999,0|2,3:0|0:0,0:0:0:0:
220,32,73417,6,0,P|304:40|360:88,1,160,0|0,3:0|3:0,0:0:0:0:
284,192,74488,2,0,L|204:184,2,79.9999999999999,0|2|0,3:0|0:0|3:0,0:0:0:0:
324,244,75292,1,2,0:0:0:0:
388,236,75560,6,0,P|448:184|452:104,1,160,0|0,3:0|3:0,0:0:0:0:
416,56,76363,1,0,3:0:0:0:
352,72,76631,2,0,L|192:60,2,160,0|2|8,3:0|0:0|0:0,0:0:0:0:
256,192,81988,12,0,85202,0:0:0:0:
368,264,86274,6,0,L|208:284,1,160,4|0,3:2|3:0,0:0:0:0:
164,328,87077,1,8,0:0:0:0:
104,308,87345,2,0,P|76:236|100:160,1,160,0|0,3:0|3:0,0:0:0:0:
208,92,88417,6,0,L|367:112,1,160,4|0,3:2|3:0,0:0:0:0:
416,152,89220,1,8,0:0:0:0:
476,128,89488,2,0,L|460:48,2,79.9999999999999,0|0|0,3:0|0:0|3:0,0:0:0:0:
468,256,90560,6,0,P|392:232|312:244,1,160,4|0,3:2|3:0,0:0:0:0:
268,288,91363,1,8,0:0:0:0:
208,260,91631,2,0,L|224:100,1,160,0|0,3:0|3:0,0:0:0:0:
332,32,92702,6,0,P|396:76|476:68,2,160,4|0|0,3:2|3:0|3:0,0:0:0:0:
204,16,94310,2,0,L|124:32,1,79.9999999999999,0|0,3:0|3:0,0:0:0:0:
60,24,94845,6,0,P|18:93|21:171,1,160,4|0,3:2|3:0,0:0:0:0:
68,216,95649,1,8,0:0:0:0:
128,196,95917,2,0,L|288:220,1,160,0|0,3:0|3:0,0:0:0:0:
328,340,96988,6,0,L|169:316,1,160,4|0,3:2|3:0,0:0:0:0:
112,340,97792,1,8,0:0:0:0:
60,304,98060,2,0,P|56:264|68:224,2,79.9999999999999,0|0|0,3:0|0:0|3:0,0:0:0:0:
160,224,99131,6,0,L|318:247,1,160,4|4,3:2|3:2,0:0:0:0:
364,292,99935,1,8,0:0:0:0:
428,284,100202,2,0,P|460:208|444:132,1,160,0|4,3:0|3:2,0:0:0:0:
348,52,101274,6,0,L|188:60,1,160,0|0,3:0|2:0,0:0:0:0:
128,40,102077,1,0,3:0:0:0:
84,88,102345,2,0,P|80:132|88:172,1,79.9999999999999,8|0,0:0|0:0,0:0:0:0:
140,204,102881,2,0,P|144:248|136:288,1,79.9999999999999,8|0,0:0|3:0,0:0:0:0:
96,332,103417,6,0,P|176:320|248:348,1,160,6|2,3:1|3:1,0:0:0:0:
312,236,104488,2,0,P|385:264|464:252,1,160,2|2,3:1|3:1,0:0:0:0:
512,132,105560,5,2,3:1:0:0:
432,32,106095,1,2,3:1:0:0:
316,80,106631,2,0,B|236:104|236:52|156:80,1,160,2|2,3:1|3:1,0:0:0:0:
68,168,107702,6,0,P|32:100|52:12,2,160,6|2|2,3:1|3:1|3:1,0:0:0:0:
192,204,109310,1,2,3:1:0:0:
268,100,109845,6,0,P|346:89|420:117,1,160,2|2,3:1|3:1,0:0:0:0:
500,220,110917,1,2,3:1:0:0:
428,328,111452,1,2,3:1:0:0:
312,272,111988,6,0,P|232:272|156:300,1,160,6|2,3:1|3:1,0:0:0:0:
52,368,113060,2,0,L|75:209,1,160,2|2,3:1|3:1,0:0:0:0:
196,160,114131,5,2,3:1:0:0:
88,92,114667,1,2,3:1:0:0:
204,40,115202,2,0,P|284:28|352:68,2,160,2|2|6,3:1|3:1|3:1,0:0:0:0:
132,144,116810,5,2,3:1:0:0:
212,244,117345,2,0,L|372:264,1,160,2|2,3:1|3:1,0:0:0:0:
452,164,118417,6,0,L|292:144,1,160,2|2,3:1|3:1,0:0:0:0:
196,60,119488,2,0,P|116:68|64:124,1,160,0|4,0:0|0:3,0:0:0:0:
56,188,120292,1,4,3:3:0:0:
348,188,129131,5,4,3:2:0:0:
256,100,129667,1,0,3:0:0:0:
144,160,130202,2,0,P|80:152|24:168,2,120,2|2|0,0:1|0:1|3:0,0:0:0:0:
184,208,131274,6,0,L|168:372,2,160,0|0|0,3:0|3:0|3:0,0:0:0:0:
240,176,132613,1,0,0:0:0:0:
296,204,132881,2,0,P|340:200|376:184,1,79.9999999999999,2|2,0:1|0:1,0:0:0:0:
412,136,133417,6,0,L|400:300,1,160,0|0,3:0|3:0,0:0:0:0:
280,336,134488,2,0,P|224:316|160:328,2,120,2|2|0,0:1|0:1|3:0,0:0:0:0:
344,348,135560,5,0,3:0:0:0:
316,224,136095,1,0,3:0:0:0:
296,96,136631,2,0,L|136:112,1,160,0|2,3:0|0:0,0:0:0:0:
84,76,137435,1,8,0:0:0:0:
28,104,137702,6,0,P|-4:180|24:260,1,160,0|0,3:0|3:0,0:0:0:0:
144,260,138774,2,0,L|224:248,2,79.9999999999999,0|2|0,3:0|0:0|3:0,0:0:0:0:
100,216,139577,1,2,0:0:0:0:
144,168,139845,6,0,L|304:144,1,160,0|0,3:0|3:0,0:0:0:0:
420,92,140917,2,0,P|429:130|429:170,1,79.9999999999999,0|2,3:0|0:0,0:0:0:0:
380,208,141452,2,0,P|370:246|370:286,1,79.9999999999999,0|2,3:0|0:0,0:0:0:0:
396,344,141988,6,0,L|236:324,1,160,0|0,3:0|3:0,0:0:0:0:
144,236,143060,2,0,L|64:244,2,79.9999999999999,0|2|0,3:0|0:0|3:0,0:0:0:0:
192,192,143863,1,2,0:0:0:0:
252,168,144131,6,0,B|328:148|328:208|408:180,1,160,0|0,3:0|3:0,0:0:0:0:
448,132,144935,1,0,3:0:0:0:
504,160,145202,2,0,L|492:320,1,160,0|0,3:0|0:0,0:0:0:0:
440,356,146006,1,0,0:0:0:0:
380,336,146274,5,4,0:0:0:0:
256,364,146810,1,2,0:0:0:0:
132,336,147345,2,0,L|152:172,1,160,2|2,0:0|0:0,0:0:0:0:
256,100,148417,6,0,P|328:132|412:132,2,160,2|2|2,0:0|0:0|0:0,0:0:0:0:
164,12,150024,1,2,0:0:0:0:
52,72,150560,6,0,L|68:232,1,160,2|2,0:0|0:0,0:0:0:0:
188,280,151631,2,0,L|172:120,1,160,2|2,0:0|0:0,0:0:0:0:
280,48,152702,6,0,P|356:56|424:108,2,160,2|0|2,0:0|0:0|0:0,0:0:0:0:
84,332,163417,6,0,P|160:320|192:248,1,160,8|8,0:0|0:0,0:0:0:0:
168,192,164220,1,8,0:0:0:0:
112,160,164488,2,0,L|28:168,2,79.9999999999999,8|8|8,0:0|0:0|0:0,0:0:0:0:
200,68,165560,6,0,L|360:88,1,160,8|8,0:0|0:0,0:0:0:0:
416,60,166363,1,8,0:0:0:0:
476,84,166631,2,0,P|496:120|504:160,2,79.9999999999999,8|8|8,0:0|0:0|0:0,0:0:0:0:
256,192,167702,12,0,170917,0:0:0:0:
464,200,171988,6,0,P|489:125|461:52,1,160,4|0,3:2|3:0,0:0:0:0:
401,32,172792,1,8,0:0:0:0:
355,76,173060,2,0,L|197:96,1,160,0|0,3:0|3:0,0:0:0:0:
76,52,174131,6,0,P|40:124|56:204,1,160,4|0,3:2|3:0,0:0:0:0:
100,244,174935,1,8,0:0:0:0:
160,220,175202,2,0,L|240:232,2,79.9999999999999,0|0|0,3:0|0:0|3:0,0:0:0:0:
96,332,176274,6,0,L|256:360,1,160,4|0,3:2|3:0,0:0:0:0:
308,324,177077,1,8,0:0:0:0:
372,332,177345,2,0,P|408:264|388:188,1,160,0|0,3:0|3:0,0:0:0:0:
288,104,178417,6,0,L|128:124,1,160,4|0,3:2|3:0,0:0:0:0:
52,224,179488,1,0,3:0:0:0:
148,308,180024,2,0,L|228:320,1,79.9999999999999,0|0,3:0|3:0,0:0:0:0:
288,332,180560,6,0,P|330:263|327:185,1,160,4|0,3:2|3:0,0:0:0:0:
296,132,181363,1,8,0:0:0:0:
256,84,181631,2,0,L|414:107,1,160,0|0,3:0|3:0,0:0:0:0:
492,212,182702,5,4,3:2:0:0:
442,330,183238,2,0,L|363:338,1,79.9999999999999,0|8,3:0|0:0,0:0:0:0:
300,320,183774,2,0,P|260:316|220:328,2,79.9999999999999,0|0|0,3:0|0:0|3:0,0:0:0:0:
376,216,184845,6,0,L|353:58,1,160,4|4,3:2|3:2,0:0:0:0:
300,20,185649,1,8,0:0:0:0:
252,60,185917,2,0,P|176:92|100:76,1,160,0|4,3:0|3:2,0:0:0:0:
4,160,186988,6,0,L|28:324,1,160,8|8,0:0|0:0,0:0:0:0:
76,364,187792,1,8,0:0:0:0:
136,336,188060,2,0,P|180:332|220:340,1,79.9999999999999,8|4,0:0|0:2,0:0:0:0:
276,360,188595,2,0,L|284:280,1,79.9999999999999,8|0,0:0|3:0,0:0:0:0:
320,228,189131,6,0,P|240:240|168:212,1,160,2|2,3:1|3:1,0:0:0:0:
212,92,190202,2,0,P|139:64|60:76,1,160,2|2,3:1|3:1,0:0:0:0:
4,192,191274,5,2,3:1:0:0:
100,280,191810,1,2,3:1:0:0:
216,232,192345,2,0,B|259:238|286:264|286:264|323:248|368:263,1,160,2|2,3:1|3:1,0:0:0:0:
456,352,193417,6,0,P|492:284|472:196,2,160,6|2|2,3:1|3:1|3:1,0:0:0:0:
328,348,195024,1,2,3:1:0:0:
264,236,195560,6,0,P|253:158|281:84,1,160,2|2,3:1|3:1,0:0:0:0:
400,32,196631,1,2,3:1:0:0:
488,128,197167,1,2,3:1:0:0:
408,228,197702,6,0,P|333:200|253:200,1,160,6|2,3:1|3:1,0:0:0:0:
152,124,198774,2,0,L|129:283,1,160,2|2,3:1|3:1,0:0:0:0:
24,360,199845,5,2,3:1:0:0:
12,232,200381,1,2,3:1:0:0:
140,208,200917,2,0,P|220:220|276:272,2,160,2|2|6,3:1|3:1|3:1,0:0:0:0:
12,232,202524,5,2,3:1:0:0:
56,112,203060,2,0,P|128:80|212:88,1,160,2|2,3:1|3:1,0:0:0:0:
316,152,204131,6,0,L|476:172,1,160,2|2,3:1|3:1,0:0:0:0:
460,300,205202,2,0,L|300:280,1,160,2|2,0:0|0:0,0:0:0:0:
256,324,206006,1,0,0:0:0:0:
200,296,206274,6,0,P|184:224|220:144,1,160,4|0,3:2|3:0,0:0:0:0:
260,100,207077,2,0,L|100:120,1,160,0|0,3:0|3:0,0:0:0:0:
44,92,207881,1,0,3:0:0:0:
12,216,208417,5,0,3:0:0:0:
116,288,208952,2,0,L|196:280,1,79.9999999999999,0|0,3:0|3:0,0:0:0:0:
252,308,209488,1,0,0:0:0:0:
308,280,209756,2,0,P|316:240|312:200,2,79.9999999999999,8|8|8,0:0|0:0|0:0,0:0:0:0:
296,344,210560,6,0,P|372:320|452:336,1,160,0|0,3:0|3:0,0:0:0:0:
500,376,211363,2,0,L|476:216,1,160,0|0,3:0|3:0,0:0:0:0:
492,156,212167,1,0,3:0:0:0:
380,96,212702,5,0,3:0:0:0:
304,200,213238,2,0,L|316:280,2,79.9999999999999,0|0|8,3:0|3:0|0:0,0:0:0:0:
252,160,214042,1,0,3:0:0:0:
196,188,214310,2,0,P|156:192|116:184,1,79.9999999999999,0|8,3:0|0:0,0:0:0:0:
84,132,214845,5,2,3:2:0:0:
144,20,215381,2,0,L|224:32,1,79.9999999999999,2|2,3:2|3:2,0:0:0:0:
272,72,215917,2,0,L|352:60,2,79.9999999999999,2|2|2,0:0|3:2|3:2,0:0:0:0:
172,152,216988,6,0,P|144:232|160:304,1,160,2|2,3:2|3:2,0:0:0:0:
212,340,217792,1,2,3:2:0:0:
272,324,218060,2,0,L|356:332,2,79.9999999999999,2|2|2,0:0|3:2|3:2,0:0:0:0:
240,200,219131,5,2,3:2:0:0:
300,88,219667,2,0,P|336:76|380:80,1,79.9999999999999,2|2,3:2|3:2,0:0:0:0:
428,116,220202,2,0,L|436:196,2,79.9999999999999,2|2|2,0:0|3:2|3:2,0:0:0:0:
328,196,221274,6,0,P|248:176|168:188,1,160,2|2,3:2|3:2,0:0:0:0:
132,236,222077,1,2,3:2:0:0:
76,204,222345,2,0,L|96:44,2,160,2|2|2,0:0|0:0|0:0,0:0:0:0:
