osu file format v14

[General]
AudioFilename: audio.mp3
AudioLeadIn: 0
PreviewTime: 85202
Countdown: 0
SampleSet: Normal
StackLeniency: 0.4
Mode: 0
LetterboxInBreaks: 0
WidescreenStoryboard: 0

[Editor]
DistanceSpacing: 1
BeatDivisor: 4
GridSize: 4
TimelineZoom: 1.5

[Metadata]
Title:Mentai Cosmic
TitleUnicode:めんたいコズミック
Artist:Yunomi
ArtistUnicode:Yunomi
Creator:Incomp
Version:Fucking Weebs
Source:
Tags:一二花 nica nicamoq electronic japanese oriental
BeatmapID:1689866
BeatmapSetID:804986

[Difficulty]
HPDrainRate:4
CircleSize:3.5
OverallDifficulty:8.5
ApproachRate:9.4
SliderMultiplier:1.76
SliderTickRate:1

[Events]
//Background and Video events
0,0,"bg.jpg",0,0
//Break Periods
//Storyboard Layer 0 (Background)
//Storyboard Layer 1 (Fail)
//Storyboard Layer 2 (Pass)
//Storyboard Layer 3 (Foreground)
//Storyboard Sound Samples

[TimingPoints]
560,267.857142857143,4,2,1,100,1,0
9131,-100,4,1,1,100,0,0
16631,-250,4,2,1,100,0,0
16698,-250,4,3,1,5,0,0
17167,-142.857142857143,4,2,1,100,0,0
17234,-142.857142857143,4,3,1,5,0,0
17702,-100,4,1,1,100,0,0
33774,-142.857142857143,4,1,1,100,0,0
33908,-142.857142857143,4,3,1,5,0,0
34042,-142.857142857143,4,1,1,100,0,0
34176,-142.857142857143,4,3,1,5,0,0
34310,-142.857142857143,4,1,1,100,0,0
34577,-125,4,1,1,100,0,0
34711,-125,4,3,1,5,0,0
34845,-100,4,1,1,100,0,0
51720,-133.333333333333,4,2,1,100,0,0
52658,-133.333333333333,4,3,1,5,0,0
52792,-133.333333333333,4,2,1,100,0,0
52926,-133.333333333333,4,3,1,5,0,0
53060,-133.333333333333,4,2,1,100,0,0
53729,-133.333333333333,4,3,1,5,0,0
53863,-133.333333333333,4,2,1,100,0,0
53997,-133.333333333333,4,3,1,5,0,0
54131,-133.333333333333,4,2,1,100,0,0
54801,-133.333333333333,4,3,1,5,0,0
54935,-133.333333333333,4,2,1,100,0,0
55068,-133.333333333333,4,3,1,5,0,0
55202,-133.333333333333,4,2,1,100,0,0
55738,-90.9090909090909,4,1,1,100,0,0
55872,-90.9090909090909,4,3,1,5,0,0
56006,-90.9090909090909,4,1,1,100,0,0
56140,-90.9090909090909,4,3,1,5,0,0
56274,-133.333333333333,4,2,1,100,0,0
56408,-133.333333333333,4,3,1,5,0,0
56542,-133.333333333333,4,2,1,100,0,0
56676,-133.333333333333,4,3,1,5,0,0
56810,-133.333333333333,4,2,1,100,0,0
56943,-133.333333333333,4,3,1,5,0,0
57077,-133.333333333333,4,2,1,100,0,0
57211,-133.333333333333,4,3,1,5,0,0
57345,-133.333333333333,4,2,1,100,0,0
58015,-133.333333333333,4,3,1,5,0,0
58149,-133.333333333333,4,2,1,100,0,0
58283,-133.333333333333,4,3,1,5,0,0
58417,-133.333333333333,4,2,1,100,0,0
58551,-133.333333333333,4,3,1,5,0,0
58685,-133.333333333333,4,2,1,100,0,0
59756,-200,4,1,1,100,0,0
59823,-200,4,3,1,5,0,0
59890,-200,4,1,1,100,0,0
59957,-200,4,3,1,5,0,0
60024,-200,4,1,1,100,0,0
60091,-200,4,3,1,5,0,0
60292,-200,4,1,1,100,0,0
60359,-200,4,3,1,5,0,0
60560,-133.333333333333,4,2,1,100,0,0
61631,-66.6666666666667,4,1,1,100,0,0
62702,-133.333333333333,4,2,1,100,0,0
63774,-133.333333333333,4,1,1,100,0,0
64845,-133.333333333333,4,2,1,100,0,0
65917,-76.9230769230769,4,1,1,100,0,0
66988,-133.333333333333,4,2,1,100,0,0
68060,-133.333333333333,4,1,1,100,0,0
68595,-76.9230769230769,4,1,1,100,0,0
69131,-133.333333333333,4,2,1,100,0,0
71274,-117.647058823529,4,2,1,100,0,0
76095,-100,4,2,1,100,0,0
76664,-100,4,3,1,5,0,0
76899,-100,4,2,1,100,0,0
77200,-100,4,3,1,5,0,0
77435,-100,4,2,1,100,0,0
77468,-100,4,3,1,5,0,0
77702,-200,4,1,1,100,0,0
79845,-142.857142857143,4,1,1,100,0,0
81720,-200,4,1,1,100,0,0
81988,-100,4,1,1,100,0,0
85872,-100,4,3,1,5,0,0
86006,-100,4,1,1,100,0,0
86140,-100,4,3,1,5,0,0
86274,-100,4,1,1,100,0,1
93774,-100,4,1,1,100,0,0
94845,-100,4,1,1,100,0,1
102345,-100,4,1,1,100,0,0
103417,-100,4,1,1,100,0,1
110917,-100,4,1,1,100,0,0
111988,-100,4,1,1,100,0,1
119488,-100,4,2,1,100,0,0
120560,-125,4,2,1,100,0,0
128327,-200,4,1,1,100,0,0
128394,-200,4,3,1,5,0,0
128461,-200,4,1,1,100,0,0
128528,-200,4,3,1,5,0,0
128595,-200,4,1,1,100,0,0
128662,-200,4,3,1,5,0,0
128863,-200,4,1,1,100,0,0
128930,-200,4,3,1,5,0,0
129131,-100,4,2,1,100,0,0
130202,-76.9230769230769,4,1,1,100,0,0
131274,-100,4,2,1,100,0,0
132345,-100,4,1,1,100,0,0
133417,-100,4,2,1,100,0,0
134488,-76.9230769230769,4,1,1,100,0,0
135292,-100,4,1,1,100,0,0
135359,-100,4,2,1,50,0,0
135560,-100,4,2,1,100,0,0
137167,-83.3333333333333,4,1,1,100,0,0
137368,-83.3333333333333,4,3,1,5,0,0
137435,-83.3333333333333,4,1,1,100,0,0
137635,-83.3333333333333,4,3,1,5,0,0
137702,-100,4,2,1,100,0,0
146274,-142.857142857143,4,2,1,100,0,0
153774,-142.857142857143,4,2,1,100,0,0
153841,-142.857142857143,4,3,1,5,0,0
154310,-142.857142857143,4,2,1,100,0,0
154376,-142.857142857143,4,3,1,5,0,0
154845,-125,4,2,1,100,0,0
163417,-100,4,1,1,100,0,0
170917,-166.666666666667,4,1,1,100,0,0
171988,-100,4,1,1,100,0,1
179488,-100,4,1,1,100,0,0
180560,-100,4,1,1,100,0,1
186988,-142.857142857143,4,1,1,100,0,1
187122,-142.857142857143,4,3,1,5,0,1
187256,-142.857142857143,4,1,1,100,0,1
187390,-142.857142857143,4,3,1,5,0,1
187524,-142.857142857143,4,1,1,100,0,1
187658,-142.857142857143,4,3,1,5,0,1
187792,-142.857142857143,4,1,1,100,0,1
187926,-142.857142857143,4,3,1,5,0,1
188060,-125,4,1,1,100,0,0
188193,-125,4,3,1,5,0,0
188327,-111.111111111111,4,1,1,100,0,0
188461,-111.111111111111,4,3,1,5,0,0
188595,-111.111111111111,4,1,1,100,0,0
188863,-125,4,1,1,100,0,0
188997,-125,4,3,1,5,0,0
189131,-100,4,1,1,100,0,1
196631,-100,4,1,1,100,0,0
197702,-100,4,1,1,100,0,1
205202,-100,4,1,1,100,0,0
206274,-100,4,2,1,100,0,0

[Colours]
Combo1 : 97,52,72
Combo2 : 117,97,222
Combo3 : 40,26,123
Combo4 : 188,132,157

[HitObjects]
207,180,560,6,0,L|271:243,1,88,10|0,0:0|0:0,0:0:0:0:
122,203,827,2,0,L|99:290,1,88,8|0,0:0|0:0,0:0:0:0:
60,141,1095,5,8,0:0:0:0:
37,226,1229,1,0,0:0:0:0:
145,118,1363,1,8,0:0:0:0:
207,180,1497,1,0,0:0:0:0:
168,33,1631,6,0,P|125:32|84:55,2,88,10|0|8,0:0|0:0|0:0,0:0:0:0:
276,141,2033,1,8,0:0:0:0:
122,203,2167,1,8,0:0:0:0:
184,265,2301,2,0,P|147:287|100:287,2,88,0|8|0,0:0|0:0|0:0,0:0:0:0:
292,157,2702,5,10,0:0:0:0:
288,153,2836,1,0,0:0:0:0:
284,149,2970,1,8,0:0:0:0:
280,145,3104,1,0,0:0:0:0:
276,141,3238,1,8,0:0:0:0:
272,137,3372,1,0,0:0:0:0:
268,133,3506,1,8,0:0:0:0:
264,129,3640,1,0,0:0:0:0:
83,56,3774,6,0,P|40:55|-1:78,2,88,10|0|10,0:0|0:0|0:0,0:0:0:0:
145,118,4176,1,8,0:0:0:0:
37,226,4310,1,8,0:0:0:0:
99,288,4443,2,0,P|62:310|15:310,2,88,0|8|0,0:0|0:0|0:0,0:0:0:0:
207,180,4845,6,0,B|228:168|228:168|256:95,1,88,10|0,0:0|0:0,0:0:0:0:
269,242,5113,2,0,B|257:263|257:263|184:291,1,88,8|0,0:0|0:0,0:0:0:0:
122,203,5381,5,8,0:0:0:0:
145,118,5515,1,0,0:0:0:0:
207,180,5649,1,8,0:0:0:0:
60,141,5783,1,0,0:0:0:0:
230,95,5917,6,0,P|267:115|291:156,2,88,10|0|8,0:0|0:0|0:0,0:0:0:0:
145,118,6318,1,8,0:0:0:0:
269,242,6452,1,8,0:0:0:0:
184,265,6586,2,0,P|204:302|245:326,2,88,0|8|0,0:0|0:0|0:0,0:0:0:0:
230,95,6988,5,10,0:0:0:0:
234,99,7122,1,0,0:0:0:0:
238,103,7256,1,8,0:0:0:0:
242,107,7390,1,0,0:0:0:0:
246,111,7524,1,8,0:0:0:0:
250,115,7658,1,0,0:0:0:0:
350,215,7792,5,8,0:0:0:0:
354,219,7926,1,0,0:0:0:0:
354,219,8193,5,0,0:0:0:0:
269,242,8327,1,0,0:0:0:0:
292,157,8461,1,0,0:0:0:0:
331,304,8595,1,0,0:0:0:0:
207,180,8729,1,0,0:0:0:0:
416,281,8863,1,0,0:0:0:0:
184,265,8997,1,0,0:0:0:0:
377,134,9131,6,0,P|413:111|460:111,1,88,6|0,0:0|0:0,0:0:0:0:
439,196,9399,1,0,0:0:0:0:
292,157,9533,1,0,0:0:0:0:
354,219,9667,6,0,P|355:261|332:302,1,88
269,242,9935,1,0,0:0:0:0:
377,134,10068,1,0,0:0:0:0:
290,155,10202,6,0,P|290:112|311:74,1,88
315,72,10403,1,0,0:0:0:0:
319,70,10470,1,0,0:0:0:0:
377,134,10604,1,0,0:0:0:0:
354,219,10738,6,0,P|316:241|273:242,1,88
269,240,10939,1,0,0:0:0:0:
265,239,11006,1,0,0:0:0:0:
205,178,11140,1,0,0:0:0:0:
313,70,11274,6,0,P|349:47|392:44,1,88,2|0,0:0|0:0,0:0:0:0:
377,134,11542,1,0,0:0:0:0:
292,157,11676,1,0,0:0:0:0:
416,281,11810,6,0,P|417:323|397:362,1,88
331,304,12077,1,0,0:0:0:0:
354,219,12211,1,0,0:0:0:0:
184,265,12345,6,0,P|146:244|123:207,1,88
122,203,12546,1,0,0:0:0:0:
122,199,12613,1,0,0:0:0:0:
207,180,12747,1,0,0:0:0:0:
145,118,12881,6,0,L|114:87,3,44
145,118,13149,2,0,L|156:76,3,44
145,118,13417,6,0,P|164:155|204:180,1,88,6|0,0:0|0:0,0:0:0:0:
292,157,13685,1,0,0:0:0:0:
230,95,13818,1,0,0:0:0:0:
269,242,13952,6,0,P|311:243|352:221,1,88
377,134,14220,1,0,0:0:0:0:
292,157,14354,1,0,0:0:0:0:
439,196,14488,6,0,P|476:215|500:251,1,88
377,134,14756,2,0,P|357:96|317:71,1,88
292,157,15024,6,0,L|268:242,1,88
184,265,15292,2,0,L|207:350,1,88
207,180,15560,6,0,P|164:178|123:200,1,88,2|0,0:0|0:0,0:0:0:0:
99,288,15827,1,0,0:0:0:0:
99,288,15961,1,0,0:0:0:0:
269,242,16095,6,0,P|291:206|292:159,1,88
230,95,16363,1,0,0:0:0:0:
230,95,16497,1,0,0:0:0:0:
184,265,16631,6,0,P|211:309|274:331,1,105.6
269,242,17167,6,0,P|208:179|121:202,1,184.799994360352
99,288,17702,5,6,0:0:0:0:
99,288,17970,5,8,0:0:0:0:
60,141,18104,1,0,0:0:0:0:
184,265,18238,1,2,0:0:0:0:
184,265,18506,5,8,0:0:0:0:
161,350,18640,1,0,0:0:0:0:
122,203,18774,5,2,0:0:0:0:
246,327,18908,1,0,0:0:0:0:
99,288,19042,1,8,0:0:0:0:
269,242,19176,1,0,0:0:0:0:
161,350,19310,2,0,P|124:372|78:372,1,88,2|0,0:0|0:0,0:0:0:0:
14,311,19577,1,8,0:0:0:0:
14,311,19845,6,0,P|13:267|36:228,1,88,2|0,0:0|0:0,0:0:0:0:
209,183,20113,2,0,P|246:204|269:243,1,88,8|0,0:0|0:0,0:0:0:0:
124,206,20381,1,2,0:0:0:0:
186,268,20515,1,0,0:0:0:0:
147,121,20649,2,0,P|146:77|169:38,1,88,8|0,0:0|0:0,0:0:0:0:
292,157,20917,6,0,P|310:193|352:219,1,88,2|0,0:0|0:0,0:0:0:0:
354,219,21118,1,0,0:0:0:0:
359,219,21185,2,0,P|403:219|444:190,1,88,8|8,0:0|0:0,0:0:0:0:
377,134,21452,1,2,0:0:0:0:
377,134,21720,5,8,0:0:0:0:
315,72,21854,1,0,0:0:0:0:
269,242,21988,1,6,0:0:0:0:
269,242,22256,5,8,0:0:0:0:
354,219,22390,1,0,0:0:0:0:
230,95,22524,1,2,0:0:0:0:
230,95,22792,5,8,0:0:0:0:
207,180,22926,1,0,0:0:0:0:
83,56,23060,5,2,0:0:0:0:
122,203,23193,1,0,0:0:0:0:
145,118,23327,1,8,0:0:0:0:
37,226,23461,1,0,0:0:0:0:
184,265,23595,1,2,0:0:0:0:
184,265,23863,5,8,0:0:0:0:
207,180,23997,1,0,0:0:0:0:
99,288,24131,6,0,P|117:324|159:350,1,88,6|0,0:0|0:0,0:0:0:0:
246,327,24399,1,8,0:0:0:0:
184,265,24533,1,0,0:0:0:0:
331,304,24667,2,0,P|371:306|414:283,1,88,2|0,0:0|0:0,0:0:0:0:
207,180,24935,2,0,P|166:177|123:200,1,88,8|0,0:0|0:0,0:0:0:0:
354,219,25202,6,0,P|376:185|377:136,1,88,2|0,0:0|0:0,0:0:0:0:
376,134,25403,1,0,0:0:0:0:
374,130,25470,2,0,P|350:93|305:72,1,88,8|8,0:0|0:0,0:0:0:0:
207,180,25738,2,0,P|247:182|290:159,2,88,2|0|8,0:0|0:0|0:0,0:0:0:0:
230,95,26274,5,6,0:0:0:0:
230,95,26542,5,8,0:0:0:0:
122,203,26676,1,0,0:0:0:0:
168,33,26810,1,2,0:0:0:0:
168,33,27077,5,8,0:0:0:0:
83,56,27211,1,0,0:0:0:0:
207,180,27345,5,2,0:0:0:0:
37,226,27479,1,0,0:0:0:0:
145,118,27613,1,8,0:0:0:0:
99,288,27747,1,0,0:0:0:0:
60,141,27881,2,0,P|74:65|164:31,1,176,2|8,0:0|0:0,0:0:0:0:
145,118,28417,5,6,0:0:0:0:
145,118,28685,5,8,0:0:0:0:
122,203,28819,1,0,0:0:0:0:
315,72,28952,5,2,0:0:0:0:
292,157,29086,1,0,0:0:0:0:
158,30,29220,2,0,P|117:33|76:63,1,88,8|0,0:0|0:0,0:0:0:0:
230,95,29488,6,0,P|268:116|291:153,1,88,2|0,0:0|0:0,0:0:0:0:
292,157,29689,1,0,0:0:0:0:
292,161,29756,2,0,L|292:254,1,88,8|8,0:0|0:0,0:0:0:0:
207,180,30024,1,2,0:0:0:0:
207,180,30292,5,8,0:0:0:0:
230,95,30426,1,0,0:0:0:0:
184,265,30560,1,6,0:0:0:0:
184,265,30827,5,0,0:0:0:0:
246,327,30961,1,0,0:0:0:0:
122,203,31095,1,10,0:0:0:0:
122,203,31363,5,0,0:0:0:0:
37,226,31497,1,0,0:0:0:0:
207,180,31631,5,0,0:0:0:0:
99,288,31765,1,0,0:0:0:0:
122,203,31899,1,0,0:0:0:0:
161,350,32033,1,0,0:0:0:0:
269,242,32167,2,0,P|290:208|291:158,1,88,8|0,0:0|0:0,0:0:0:0:
230,95,32435,5,0,0:0:0:0:
207,180,32568,1,0,0:0:0:0:
377,134,32702,6,0,P|401:91|400:51,1,88,6|0,0:0|0:0,0:0:0:0:
230,95,32970,2,0,P|206:138|207:178,1,88
331,304,33238,2,0,P|355:261|354:221,1,88
184,265,33506,2,0,P|160:308|161:348,1,88
268,237,33774,6,0,L|327:224,1,61.5999981201172
206,175,34042,2,0,L|146:187,1,61.5999981201172
439,196,34310,5,8,0:0:0:0:
439,196,34577,2,0,P|426:167|391:139,1,70.4
230,95,34845,6,0,L|143:112,1,88,6|0,0:0|0:0,0:0:0:0:
122,203,35113,1,8,0:0:0:0:
60,141,35247,1,0,0:0:0:0:
207,180,35381,6,0,L|294:197,1,88,2|0,0:0|0:0,0:0:0:0:
355,258,35649,1,8,0:0:0:0:
355,258,35783,1,0,0:0:0:0:
184,265,35917,5,2,0:0:0:0:
207,180,36051,1,0,0:0:0:0:
99,288,36185,1,8,0:0:0:0:
37,226,36318,1,0,0:0:0:0:
161,350,36452,6,0,P|210:349|244:328,1,88,2|0,0:0|0:0,0:0:0:0:
269,242,36720,1,8,0:0:0:0:
269,242,36988,6,0,P|268:198|291:157,1,88,6|0,0:0|0:0,0:0:0:0:
354,219,37256,1,8,0:0:0:0:
377,134,37390,1,0,0:0:0:0:
416,281,37524,6,0,P|378:303|331:304,1,88,2|0,0:0|0:0,0:0:0:0:
246,327,37792,1,8,0:0:0:0:
246,327,37926,1,0,0:0:0:0:
207,180,38060,5,2,0:0:0:0:
269,242,38193,1,0,0:0:0:0:
122,203,38327,1,8,0:0:0:0:
145,118,38461,1,0,0:0:0:0:
184,265,38595,6,0,P|185:308|162:349,1,88,2|0,0:0|0:0,0:0:0:0:
99,288,38863,1,8,0:0:0:0:
99,288,39131,6,0,B|61:263|61:263|37:225,1,88,6|0,0:0|0:0,0:0:0:0:
123,203,39399,1,8,0:0:0:0:
61,141,39533,1,0,0:0:0:0:
208,180,39667,6,0,B|245:204|245:204|269:242,1,88,2|0,0:0|0:0,0:0:0:0:
185,265,39935,1,8,0:0:0:0:
185,265,40068,1,0,0:0:0:0:
146,118,40202,5,2,0:0:0:0:
208,180,40336,1,0,0:0:0:0:
61,141,40470,1,8,0:0:0:0:
85,56,40604,1,0,0:0:0:0:
123,203,40738,6,0,P|124:246|101:287,1,88,2|0,0:0|0:0,0:0:0:0:
38,226,41006,1,8,0:0:0:0:
38,226,41274,6,0,L|135:200,1,88,6|0,0:0|0:0,0:0:0:0:
207,180,41542,1,8,0:0:0:0:
184,265,41676,1,0,0:0:0:0:
292,157,41810,6,0,L|363:85,1,88,2|0,0:0|0:0,0:0:0:0:
439,71,42077,1,8,0:0:0:0:
439,71,42211,1,0,0:0:0:0:
354,219,42345,5,2,0:0:0:0:
439,196,42479,1,0,0:0:0:0:
331,304,42613,1,8,0:0:0:0:
393,366,42747,1,0,0:0:0:0:
269,242,42881,6,0,L|197:170,1,88,2|0,0:0|0:0,0:0:0:0:
145,118,43149,1,8,0:0:0:0:
145,118,43417,6,0,P|121:160|122:200,1,88,6|0,0:0|0:0,0:0:0:0:
183,264,43685,1,8,0:0:0:0:
206,179,43818,1,0,0:0:0:0:
98,287,43952,6,0,P|123:328|158:347,1,88,2|0,0:0|0:0,0:0:0:0:
245,326,44220,1,8,0:0:0:0:
245,326,44354,1,0,0:0:0:0:
206,179,44488,5,2,0:0:0:0:
291,156,44622,1,0,0:0:0:0:
268,241,44756,1,8,0:0:0:0:
229,94,44890,1,0,0:0:0:0:
183,264,45024,6,0,P|143:287|99:287,1,88,2|0,0:0|0:0,0:0:0:0:
36,225,45292,1,8,0:0:0:0:
36,225,45560,6,0,P|36:178|58:140,1,88,6|0,0:0|0:0,0:0:0:0:
145,118,45827,1,8,0:0:0:0:
122,203,45961,1,0,0:0:0:0:
83,56,46095,6,0,P|122:33|168:32,1,88,2|0,0:0|0:0,0:0:0:0:
230,95,46363,1,8,0:0:0:0:
230,95,46497,1,0,0:0:0:0:
122,203,46631,5,2,0:0:0:0:
207,180,46765,1,0,0:0:0:0:
184,265,46899,1,8,0:0:0:0:
145,118,47033,1,0,0:0:0:0:
269,242,47167,6,0,P|315:242|353:220,1,88,2|0,0:0|0:0,0:0:0:0:
377,134,47435,1,8,0:0:0:0:
377,134,47702,6,0,P|376:88|398:48,1,88,6|0,0:0|0:0,0:0:0:0:
439,196,47970,1,0,0:0:0:0:
462,111,48104,1,0,0:0:0:0:
292,157,48238,6,0,L|206:179,1,88,8|0,0:0|0:0,0:0:0:0:
122,203,48506,1,0,0:0:0:0:
122,203,48640,1,0,0:0:0:0:
246,327,48774,1,2,0:0:0:0:
269,242,48908,1,0,0:0:0:0:
184,265,49042,1,0,0:0:0:0:
331,304,49176,1,0,0:0:0:0:
207,180,49310,6,0,L|145:117,1,88,8|0,0:0|0:0,0:0:0:0:
83,56,49577,1,0,0:0:0:0:
83,56,49845,6,0,P|60:95|60:139,1,88,6|0,0:0|0:0,0:0:0:0:
60,141,50046,1,0,0:0:0:0:
61,145,50113,2,0,L|145:117,1,88
315,72,50381,6,0,P|351:92|377:138,1,88,8|0,0:0|0:0,0:0:0:0:
377,134,50582,1,0,0:0:0:0:
378,138,50649,2,0,L|291:158,1,88
121,202,50917,6,0,P|97:275|138:339,2,146.666666666667,2|2|2,0:0|0:0|0:0,0:0:0:0:
206,179,51497,1,8,0:0:0:0:
206,179,51720,5,0,0:0:0:0:
183,264,51854,1,0,0:0:0:0:
291,156,51988,6,0,P|311:126|315:91,2,66.0000025177003,6|0|8,0:0|0:0|0:0,0:0:0:0:
230,95,52390,1,0,0:0:0:0:
268,241,52524,2,0,P|283:273|312:294,1,66.0000025177003,2|0,0:0|0:0,0:0:0:0:
205,303,52792,2,0,P|189:335|161:357,1,66.0000025177003,10|0,0:0|0:0,0:0:0:0:
353,218,53060,1,0,0:0:0:0:
353,218,53327,5,10,0:0:0:0:
415,280,53461,1,8,0:0:0:0:
376,133,53595,2,0,P|360:100|331:79,1,66.0000025177003,2|0,0:0|0:0,0:0:0:0:
230,95,53863,2,0,P|209:124|206:160,1,66.0000025177003
269,242,54131,5,8,0:0:0:0:
184,265,54265,1,0,0:0:0:0:
246,327,54399,1,8,0:0:0:0:
161,350,54533,1,2,0:0:0:0:
207,180,54667,2,0,P|234:161|271:155,1,66.0000025177003,10|0,0:0|0:0,0:0:0:0:
145,118,54935,2,0,P|129:85|101:63,1,66.0000025177003,2|0,0:0|0:0,0:0:0:0:
122,203,55202,5,8,0:0:0:0:
184,265,55336,1,0,0:0:0:0:
99,288,55470,1,10,0:0:0:0:
161,350,55604,1,0,0:0:0:0:
207,180,55738,6,0,B|210:155|210:155|144:191,1,96.8000029541017,6|0,0:0|0:0,0:0:0:0:
269,242,56006,2,0,B|287:258|287:258|296:184,1,96.8000029541017,10|0,0:0|0:0,0:0:0:0:
315,72,56274,6,0,P|342:53|379:47,1,66.0000025177003,2|0,0:0|0:0,0:0:0:0:
377,134,56542,2,0,P|406:147|430:176,1,66.0000025177003,8|0,0:0|0:0,0:0:0:0:
354,219,56810,2,0,P|356:251|343:286,1,66.0000025177003,2|0,0:0|0:0,0:0:0:0:
269,242,57077,2,0,L|220:193,1,66.0000025177003,10|0,0:0|0:0,0:0:0:0:
145,118,57345,1,0,0:0:0:0:
145,118,57613,5,8,0:0:0:0:
230,95,57747,1,8,0:0:0:0:
122,203,57881,2,0,P|95:222|58:228,1,66.0000025177003,2|0,0:0|0:0,0:0:0:0:
60,141,58149,2,0,P|29:125|8:98,1,66.0000025177003
207,180,58417,6,0,L|255:228,1,66.0000025177003,2|0,0:0|0:0,0:0:0:0:
331,304,58685,1,8,0:0:0:0:
354,219,58818,1,0,0:0:0:0:
416,281,58952,1,2,0:0:0:0:
439,196,59086,1,0,0:0:0:0:
269,242,59220,2,0,L|202:259,1,66.0000025177003,8|0,0:0|0:0,0:0:0:0:
99,287,59488,1,2,0:0:0:0:
99,287,59756,6,0,L|106:261,1,22
145,117,59890,6,0,L|138:143,1,22
37,225,60024,6,0,L|44:199,1,22
207,179,60292,6,0,L|200:205,1,22
246,327,60560,6,0,L|309:309,1,66.0000025177003,6|0,0:0|0:0,0:0:0:0:
269,242,60827,1,8,0:0:0:0:
184,265,60961,1,0,0:0:0:0:
292,156,61095,2,0,L|355:138,1,66.0000025177003,2|0,0:0|0:0,0:0:0:0:
230,95,61363,2,0,L|166:112,1,66.0000025177003,10|0,0:0|0:0,0:0:0:0:
99,287,61631,6,0,B|105:287|105:287|105:293|105:293|111:293|111:293|111:299|111:299|120:323|144:342|169:354|217:344,1,132.000005035401,6|0,0:0|0:0,0:0:0:0:
269,241,61899,1,8,0:0:0:0:
122,202,62033,6,0,B|122:196|122:196|116:195|116:195|116:189|116:189|110:189|110:189|86:180|65:159|42:127|51:66|88:40|127:23|173:40,1,264.000010070801,6|0,0:0|0:0,0:0:0:0:
145,117,62435,1,10,0:0:0:0:
145,117,62702,5,2,0:0:0:0:
230,94,62836,1,0,0:0:0:0:
207,179,62970,1,8,0:0:0:0:
292,156,63104,1,0,0:0:0:0:
168,32,63238,5,2,0:0:0:0:
145,117,63372,1,0,0:0:0:0:
315,71,63506,1,8,0:0:0:0:
292,156,63640,1,0,0:0:0:0:
83,55,63774,6,0,P|62:84|59:120,1,66.0000025177003,2|0,0:0|0:0,0:0:0:0:
122,202,64042,1,8,0:0:0:0:
122,202,64176,1,0,0:0:0:0:
230,95,64310,2,0,B|244:80|244:80|269:119,1,66.0000025177003,2|0,0:0|0:0,0:0:0:0:
160,225,64577,2,0,B|146:240|146:240|121:201,1,66.0000025177003,10|0,0:0|0:0,0:0:0:0:
145,118,64845,6,0,P|172:99|209:93,1,66.0000025177003,2|0,0:0|0:0,0:0:0:0:
207,96,65113,1,8,0:0:0:0:
269,242,65247,2,0,P|242:261|205:267,2,66.0000025177003,0|2|0,0:0|0:0|0:0,0:0:0:0:
377,134,65649,2,0,P|405:114|439:108,1,66.0000025177003,8|0,0:0|0:0,0:0:0:0:
354,219,65917,6,0,B|325:214|298:184|292:157|292:157|265:151|230:125|218:85|231:45,1,228.799989526368,6|8,0:0|0:0,0:0:0:0:
377,134,66318,1,0,0:0:0:0:
122,202,66452,6,0,P|31:172|37:56,1,228.799989526368,2|8,0:0|0:0,0:0:0:0:
230,95,66854,1,8,0:0:0:0:
292,157,66988,5,2,0:0:0:0:
377,134,67122,1,0,0:0:0:0:
269,242,67256,2,0,P|241:262|207:268,1,66.0000025177003,8|0,0:0|0:0,0:0:0:0:
197,266,67457,1,0,0:0:0:0:
184,265,67524,2,0,P|154:251|130:224,1,66.0000025177003,2|0,0:0|0:0,0:0:0:0:
292,157,67792,2,0,P|323:171|345:197,1,66.0000025177003,8|0,0:0|0:0,0:0:0:0:
145,118,68060,6,0,L|115:103,4,33.0000012588501,6|0|0|0|8,0:0|0:0|0:0|0:0|0:0,0:0:0:0:
230,95,68461,1,0,0:0:0:0:
184,265,68595,6,0,B|163:287|155:311|151:349|177:373|177:373|181:339|210:318,1,171.599992144776,10|8,0:0|0:0,0:0:0:0:
184,265,68863,2,0,B|205:243|213:219|217:181|191:157|191:157|187:191|158:212,1,171.599992144776,8|0,0:0|0:0,0:0:0:0:
184,265,69131,6,0,L|247:248,1,66.0000025177003,6|0,0:0|0:0,0:0:0:0:
354,219,69399,1,8,0:0:0:0:
292,157,69533,1,0,0:0:0:0:
331,304,69667,2,0,P|346:335|381:362,1,66.0000025177003,2|0,0:0|0:0,0:0:0:0:
354,219,69935,2,0,P|338:187|303:160,1,66.0000025177003,8|0,0:0|0:0,0:0:0:0:
416,281,70202,6,0,P|450:283|492:267,1,66.0000025177003,2|0,0:0|0:0,0:0:0:0:
269,242,70470,2,0,P|234:240|193:256,1,66.0000025177003,8|0,0:0|0:0,0:0:0:0:
439,196,70738,2,0,P|458:166|464:123,1,66.0000025177003,2|0,0:0|0:0,0:0:0:0:
377,134,71006,1,8,0:0:0:0:
377,134,71140,1,0,0:0:0:0:
246,327,71274,6,0,P|213:348|167:351,1,74.8000014266968,2|0,0:0|0:0,0:0:0:0:
99,288,71542,2,0,P|97:248|117:207,1,74.8000014266968,8|0,0:0|0:0,0:0:0:0:
116,209,71743,1,0,0:0:0:0:
122,203,71810,2,0,P|100:168|99:124,1,74.8000014266968,2|0,0:0|0:0,0:0:0:0:
185,141,72077,2,0,P|207:106|208:62,1,74.8000014266968,8|0,0:0|0:0,0:0:0:0:
269,242,72345,6,0,L|292:311,2,74.8000014266968,2|0|8,0:0|0:0|0:0,0:0:0:0:
292,157,72747,1,0,0:0:0:0:
292,157,72814,1,0,0:0:0:0:
292,157,72881,2,0,L|312:85,1,74.8000014266968,2|0,0:0|0:0,0:0:0:0:
400,49,73149,2,0,L|380:121,1,74.8000014266968,8|0,0:0|0:0,0:0:0:0:
207,180,73417,6,0,L|133:201,1,74.8000014266968,2|0,0:0|0:0,0:0:0:0:
37,226,73685,1,8,0:0:0:0:
99,288,73819,1,0,0:0:0:0:
145,118,73952,2,0,L|164:46,1,74.8000014266968,2|0,0:0|0:0,0:0:0:0:
269,242,74220,2,0,L|249:313,1,74.8000014266968,8|0,0:0|0:0,0:0:0:0:
230,95,74488,1,2,0:0:0:0:
230,95,74756,6,0,P|262:74|305:70,1,74.8000014266968,8|0,0:0|0:0,0:0:0:0:
207,180,75024,2,0,P|175:201|132:205,1,74.8000014266968,2|0,0:0|0:0,0:0:0:0:
145,118,75292,1,8,0:0:0:0:
145,118,75426,1,0,0:0:0:0:
292,157,75560,5,2,0:0:0:0:
269,242,75693,1,0,0:0:0:0:
230,95,75827,1,8,0:0:0:0:
315,72,75961,1,2,0:0:0:0:
184,265,76095,6,0,P|145:288|93:287,1,88,2|0,0:0|0:0,0:0:0:0:
269,242,76363,2,0,P|314:241|358:213,1,88,10|0,0:0|0:0,0:0:0:0:
122,203,76631,6,0,L|98:196,4,22,2|0|0|0|0,0:0|0:0|0:0|0:0|0:0,0:0:0:0:
207,180,76899,1,8,0:0:0:0:
145,118,77033,1,0,0:0:0:0:
315,72,77167,6,0,L|338:65,4,22,2|0|0|0|0,0:0|0:0|0:0|0:0|0:0,0:0:0:0:
269,242,77435,2,0,L|245:248,4,22,8|0|0|0|0,0:0|0:0|0:0|0:0|0:0,0:0:0:0:
230,95,77702,6,0,P|182:95|140:123,1,88,14|0,0:0|0:0,0:0:0:0:
207,180,78104,1,0,0:0:0:0:
377,134,78238,2,0,P|416:156|441:201,1,88,10|0,0:0|0:0,0:0:0:0:
269,242,78774,6,0,P|229:219|204:174,1,88,10|0,0:0|0:0,0:0:0:0:
168,33,79310,1,10,0:0:0:0:
168,33,79577,5,10,0:0:0:0:
154,50,79643,1,8,0:0:0:0:
145,70,79710,1,8,0:0:0:0:
141,91,79777,1,8,0:0:0:0:
145,118,79845,2,0,P|176:165|238:183,1,123.199996240234,14|0,0:0|0:0,0:0:0:0:
441,189,80381,2,0,P|444:244|404:298,1,123.199996240234,10|0,0:0|0:0,0:0:0:0:
184,265,80917,6,0,P|166:212|191:150,1,123.199996240234,10|0,0:0|0:0,0:0:0:0:
400,49,81452,1,10,0:0:0:0:
400,49,81720,5,10,0:0:0:0:
403,70,81786,1,8,0:0:0:0:
400,92,81853,1,8,0:0:0:0:
393,113,81920,1,8,0:0:0:0:
377,134,81988,2,0,P|343:156|291:157,1,88,14|0,0:0|0:0,0:0:0:0:
230,95,82256,2,0,P|186:94|148:115,1,88,10|0,0:0|0:0,0:0:0:0:
184,265,82524,2,0,P|205:303|242:327,1,88,10|0,0:0|0:0,0:0:0:0:
354,219,82792,2,0,P|356:259|330:304,1,88,10|0,0:0|0:0,0:0:0:0:
207,180,83060,6,0,P|241:157|293:156,1,88,10|0,0:0|0:0,0:0:0:0:
273,244,83327,1,8,0:0:0:0:
273,244,83461,1,0,0:0:0:0:
122,203,83595,2,0,P|85:184|59:140,1,88,10|0,0:0|0:0,0:0:0:0:
184,265,83863,2,0,P|150:287|98:288,1,88,10|0,0:0|0:0,0:0:0:0:
145,118,84131,6,0,P|139:88|149:56,2,58.6666666666667
207,180,84399,2,0,P|213:210|203:242,2,58.6666666666667
230,95,84667,5,0,0:0:0:0:
315,72,84756,1,0,0:0:0:0:
377,134,84845,1,0,0:0:0:0:
354,219,84935,2,0,L|338:277,2,58.6666666666667
292,157,85202,6,0,P|292:112|317:68,1,88,10|0,0:0|0:0,0:0:0:0:
400,49,85470,1,0,0:0:0:0:
377,134,85604,1,0,0:0:0:0:
168,33,85738,6,0,P|124:32|86:53,1,88
98,288,86006,2,0,P|142:288|180:267,1,88
315,72,86274,6,0,P|350:91|376:136,1,88,6|0,0:0|0:0,0:0:0:0:
292,157,86542,1,8,0:0:0:0:
230,95,86676,1,0,0:0:0:0:
439,196,86810,6,0,P|474:215|500:260,1,88,2|0,0:0|0:0,0:0:0:0:
416,281,87078,1,8,0:0:0:0:
462,111,87211,1,0,0:0:0:0:
269,242,87345,1,2,0:0:0:0:
354,219,87479,1,0,0:0:0:0:
331,304,87613,1,8,0:0:0:0:
292,157,87747,1,0,0:0:0:0:
165,343,87881,6,0,P|130:364|79:366,1,88,2|0,0:0|0:0,0:0:0:0:
18,304,88149,1,8,0:0:0:0:
18,304,88417,6,0,P|17:263|41:218,1,88,6|0,0:0|0:0,0:0:0:0:
126,196,88685,1,8,0:0:0:0:
126,196,88818,1,0,0:0:0:0:
246,327,88952,1,2,0:0:0:0:
161,350,89086,1,0,0:0:0:0:
211,173,89220,2,0,L|234:88,1,88,8|0,0:0|0:0,0:0:0:0:
188,258,89488,6,0,P|151:280|102:281,1,88,2|0,0:0|0:0,0:0:0:0:
103,281,89689,1,0,0:0:0:0:
100,279,89756,2,0,P|64:258|40:212,1,88,8|0,0:0|0:0,0:0:0:0:
233,88,90024,1,2,0:0:0:0:
233,88,90292,5,8,0:0:0:0:
318,65,90426,1,0,0:0:0:0:
122,203,90560,1,6,0:0:0:0:
122,203,90827,5,8,0:0:0:0:
60,141,90961,1,0,0:0:0:0:
292,157,91095,2,0,L|382:163,1,88,2|0,0:0|0:0,0:0:0:0:
441,225,91363,5,8,0:0:0:0:
441,225,91497,1,0,0:0:0:0:
269,242,91631,1,2,0:0:0:0:
292,157,91765,1,0,0:0:0:0:
331,304,91899,1,8,0:0:0:0:
377,134,92033,1,0,0:0:0:0:
246,327,92167,6,0,P|209:350|160:350,1,88,2|0,0:0|0:0,0:0:0:0:
99,288,92435,1,8,0:0:0:0:
99,288,92568,1,0,0:0:0:0:
354,219,92702,6,0,L|438:196,1,88,6|0,0:0|0:0,0:0:0:0:
416,281,92970,1,8,0:0:0:0:
377,134,93104,1,0,0:0:0:0:
184,265,93238,6,0,P|147:288|98:288,1,88,2|0,0:0|0:0,0:0:0:0:
230,95,93506,2,0,P|267:72|316:72,1,88,8|0,0:0|0:0,0:0:0:0:
122,203,93774,6,0,P|83:182|59:140,1,88,2|0,0:0|0:0,0:0:0:0:
60,141,93975,1,0,0:0:0:0:
60,137,94042,2,0,P|60:92|86:51,1,88,8|0,0:0|0:0,0:0:0:0:
292,157,94310,2,0,P|334:158|378:133,1,88,2|0,0:0|0:0,0:0:0:0:
400,49,94577,1,8,0:0:0:0:
145,118,94845,5,6,0:0:0:0:
145,118,95113,5,8,0:0:0:0:
168,33,95247,1,0,0:0:0:0:
269,242,95381,2,0,P|289:278|332:304,1,88,2|0,0:0|0:0,0:0:0:0:
354,219,95649,5,8,0:0:0:0:
292,157,95783,1,0,0:0:0:0:
161,350,95917,1,2,0:0:0:0:
184,265,96051,1,0,0:0:0:0:
246,327,96185,1,8,0:0:0:0:
99,288,96318,1,0,0:0:0:0:
331,304,96452,6,0,B|378:308|378:308|413:284,1,88,2|0,0:0|0:0,0:0:0:0:
439,196,96720,1,8,0:0:0:0:
439,196,96988,6,0,P|374:133|289:159,1,176,6|8,0:0|0:0,0:0:0:0:
269,242,97390,1,0,0:0:0:0:
145,118,97524,1,2,0:0:0:0:
230,95,97658,1,0,0:0:0:0:
184,265,97792,2,0,P|205:305|247:329,1,88,8|0,0:0|0:0,0:0:0:0:
122,203,98059,6,0,P|83:182|59:140,1,88,2|0,0:0|0:0,0:0:0:0:
60,141,98260,1,0,0:0:0:0:
60,137,98327,2,0,P|60:92|86:51,1,88,8|0,0:0|0:0,0:0:0:0:
207,180,98595,1,2,0:0:0:0:
207,180,98863,5,8,0:0:0:0:
184,265,98997,1,0,0:0:0:0:
377,134,99131,1,6,0:0:0:0:
377,134,99399,5,0,0:0:0:0:
315,72,99533,1,0,0:0:0:0:
269,242,99667,2,0,P|231:265|182:265,1,88,8|0,0:0|0:0,0:0:0:0:
207,180,99935,5,0,0:0:0:0:
207,180,100068,1,0,0:0:0:0:
416,281,100202,1,2,0:0:0:0:
439,196,100336,1,0,0:0:0:0:
331,304,100470,1,0,0:0:0:0:
501,258,100604,1,0,0:0:0:0:
269,242,100738,6,0,P|230:220|205:178,1,88,8|0,0:0|0:0,0:0:0:0:
230,95,101006,1,0,0:0:0:0:
230,95,101274,6,0,P|210:57|171:33,1,88,6|0,0:0|0:0,0:0:0:0:
292,157,101542,2,0,B|337:155|337:155|378:133,1,88
145,118,101810,2,0,P|102:116|61:138,1,88,8|0,0:0|0:0,0:0:0:0:
207,184,102077,2,0,B|231:221|231:221|270:246,1,88
315,72,102345,5,2,0:0:0:0:
122,203,102613,1,0,0:0:0:0:
292,157,102881,2,0,L|359:153,2,58.6666666666667,8|0|0,0:0|0:0|0:0,0:0:0:0:
230,95,103149,1,0,0:0:0:0:
145,118,103238,1,0,0:0:0:0:
122,203,103327,1,0,0:0:0:0:
184,265,103417,6,0,P|227:267|268:245,1,88,6|0,0:0|0:0,0:0:0:0:
207,180,103685,1,8,0:0:0:0:
99,288,103818,1,0,0:0:0:0:
266,246,103952,6,0,P|299:222|351:218,1,88,2|0,0:0|0:0,0:0:0:0:
331,304,104220,1,8,0:0:0:0:
331,304,104354,1,0,0:0:0:0:
377,134,104488,1,2,0:0:0:0:
439,196,104622,1,0,0:0:0:0:
292,157,104756,1,8,0:0:0:0:
462,111,104890,1,0,0:0:0:0:
266,246,105024,6,0,P|228:266|178:263,1,88,2|0,0:0|0:0,0:0:0:0:
122,203,105292,1,8,0:0:0:0:
122,203,105560,6,0,B|141:184|141:184|143:140|143:140|161:119,1,88,6|0,0:0|0:0,0:0:0:0:
230,95,105827,1,8,0:0:0:0:
60,141,105961,1,0,0:0:0:0:
292,157,106095,6,0,L|379:163,1,88,2|0,0:0|0:0,0:0:0:0:
466,169,106363,1,8,0:0:0:0:
466,169,106497,1,0,0:0:0:0:
269,242,106631,1,2,0:0:0:0:
292,157,106765,1,0,0:0:0:0:
331,304,106899,1,8,0:0:0:0:
207,180,107033,1,0,0:0:0:0:
416,281,107167,6,0,P|417:323|392:367,1,88,2|0,0:0|0:0,0:0:0:0:
331,304,107435,1,8,0:0:0:0:
331,304,107702,6,0,B|303:320|303:320|246:326,1,88,6|0,0:0|0:0,0:0:0:0:
268,241,107970,1,8,0:0:0:0:
396,363,108104,1,0,0:0:0:0:
183,264,108238,6,0,L|121:201,1,88,2|0,0:0|0:0,0:0:0:0:
60,141,108506,1,8,0:0:0:0:
60,141,108640,1,0,0:0:0:0:
292,157,108774,1,2,0:0:0:0:
183,264,108908,1,0,0:0:0:0:
230,95,109042,1,8,0:0:0:0:
269,242,109176,1,0,0:0:0:0:
60,141,109310,6,0,P|58:98|83:54,1,88,2|0,0:0|0:0,0:0:0:0:
168,33,109577,1,8,0:0:0:0:
168,33,109845,6,0,L|143:125,1,88,6|0,0:0|0:0,0:0:0:0:
122,203,110113,1,8,0:0:0:0:
83,56,110247,1,0,0:0:0:0:
269,242,110381,6,0,L|330:304,1,88,2|0,0:0|0:0,0:0:0:0:
393,366,110649,1,8,0:0:0:0:
393,366,110783,1,0,0:0:0:0:
377,134,110917,1,2,0:0:0:0:
269,242,111051,1,0,0:0:0:0:
439,196,111185,1,8,0:0:0:0:
292,157,111318,1,0,0:0:0:0:
331,304,111452,6,0,P|294:326|244:327,1,88,2|0,0:0|0:0,0:0:0:0:
184,265,111720,1,8,0:0:0:0:
184,265,111988,6,0,B|148:240|148:240|121:202,1,88,6|0,0:0|0:0,0:0:0:0:
207,180,112256,1,8,0:0:0:0:
246,327,112390,1,0,0:0:0:0:
121,201,112524,6,0,B|127:156|127:156|143:117,1,88,2|0,0:0|0:0,0:0:0:0:
230,95,112792,1,8,0:0:0:0:
230,95,112926,1,0,0:0:0:0:
246,327,113060,1,2,0:0:0:0:
269,242,113193,1,0,0:0:0:0:
161,350,113327,1,8,0:0:0:0:
331,304,113461,1,0,0:0:0:0:
122,203,113595,6,0,P|121:159|145:117,1,88,2|0,0:0|0:0,0:0:0:0:
207,180,113863,1,8,0:0:0:0:
207,180,114131,6,0,P|250:182|291:160,1,88,6|0,0:0|0:0,0:0:0:0:
315,72,114399,1,8,0:0:0:0:
354,219,114533,1,0,0:0:0:0:
230,95,114667,6,0,P|187:93|146:115,1,88,2|0,0:0|0:0,0:0:0:0:
122,203,114935,1,8,0:0:0:0:
122,203,115068,1,0,0:0:0:0:
377,134,115202,1,2,0:0:0:0:
269,242,115336,1,0,0:0:0:0:
315,72,115470,1,8,0:0:0:0:
331,304,115604,1,0,0:0:0:0:
230,95,115738,6,0,P|210:56|170:32,1,88,2|0,0:0|0:0,0:0:0:0:
145,118,116006,1,8,0:0:0:0:
145,118,116274,6,0,L|206:179,1,88,6|0,0:0|0:0,0:0:0:0:
269,242,116542,1,0,0:0:0:0:
230,95,116676,1,0,0:0:0:0:
184,265,116810,6,0,L|160:349,1,88,8|0,0:0|0:0,0:0:0:0:
250,331,117077,1,0,0:0:0:0:
250,331,117211,1,0,0:0:0:0:
122,203,117345,1,2,0:0:0:0:
99,288,117479,1,0,0:0:0:0:
60,141,117613,1,0,0:0:0:0:
37,226,117747,1,0,0:0:0:0:
292,157,117881,6,0,L|376:134,1,88,8|0,0:0|0:0,0:0:0:0:
462,111,118149,1,0,0:0:0:0:
462,111,118417,6,0,P|463:155|439:197,1,88,6|0,0:0|0:0,0:0:0:0:
439,196,118618,1,0,0:0:0:0:
436,199,118685,2,0,L|352:222,1,88
211,175,118952,6,0,P|166:175|129:195,1,88,8|0,0:0|0:0,0:0:0:0:
126,198,119153,1,0,0:0:0:0:
123,201,119220,2,0,L|100:285,1,88
246,327,119488,6,0,P|303:323|348:280,2,117.333333333333,2|2|2,0:0|0:0|0:0,0:0:0:0:
184,265,120024,1,2,0:0:0:0:
296,161,120158,1,0,0:0:0:0:
296,161,120225,1,0,0:0:0:0:
296,161,120292,2,0,P|334:182|358:223,1,88
207,180,120560,6,0,L|156:129,1,70.4,6|0,0:0|0:0,0:0:0:0:
184,265,120827,2,0,L|235:316,1,70.4
122,203,121095,2,0,L|71:152,1,70.4
269,242,121363,2,0,L|320:293,1,70.4
230,95,121631,1,0,0:0:0:0:
230,95,121899,5,0,0:0:0:0:
207,180,122033,1,0,0:0:0:0:
122,203,122167,2,0,L|53:221,1,70.4
230,95,122435,2,0,L|298:76,1,70.4
184,265,122702,6,0,P|200:298|232:322,1,70.4,2|0,0:0|0:0,0:0:0:0:
269,242,122970,2,0,P|305:244|342:228,1,70.4
292,157,123238,2,0,P|312:126|317:86,1,70.4
230,95,123506,1,0,0:0:0:0:
230,95,123774,5,0,0:0:0:0:
207,180,123908,1,0,0:0:0:0:
315,72,124042,2,0,P|345:51|385:46,1,70.4
377,134,124310,5,0,0:0:0:0:
292,157,124443,1,0,0:0:0:0:
439,196,124577,1,0,0:0:0:0:
354,219,124711,1,0,0:0:0:0:
315,72,124845,6,0,P|299:38|267:14,1,70.4,2|0,0:0|0:0,0:0:0:0:
230,95,125113,2,0,P|193:92|156:108,1,70.4
207,180,125381,2,0,P|186:210|181:250,1,70.4
269,242,125649,2,0,P|284:275|317:299,1,70.4
354,219,125917,1,0,0:0:0:0:
354,219,126185,5,0,0:0:0:0:
416,281,126319,1,0,0:0:0:0:
269,242,126452,2,0,P|236:226|211:194,1,70.4
292,156,126720,2,0,P|269:129|238:115,1,70.4
60,141,126988,1,2,0:0:0:0:
60,141,127256,5,0,0:0:0:0:
37,226,127390,1,0,0:0:0:0:
145,118,127524,2,0,L|194:68,1,70.4
207,180,127792,2,0,L|157:229,1,70.4
315,72,128060,1,6,0:0:0:0:
315,72,128327,6,0,L|299:87,1,22,8|0,0:0|0:0,0:0:0:0:
207,180,128461,6,0,L|222:164,1,22,8|0,0:0|0:0,0:0:0:0:
377,134,128595,6,0,L|361:149,1,22,8|0,0:0|0:0,0:0:0:0:
145,118,128863,6,0,L|160:102,1,22
400,49,129131,6,0,P|457:99|437:198,1,176,6|8,0:0|0:0,0:0:0:0:
354,219,129533,1,0,0:0:0:0:
315,72,129667,2,0,P|292:32|254:9,1,88,2|0,0:0|0:0,0:0:0:0:
207,180,129935,2,0,P|230:220|268:243,1,88,8|0,0:0|0:0,0:0:0:0:
230,95,130202,6,0,P|174:98|128:142,1,114.399994763184,6|0,0:0|0:0,0:0:0:0:
207,180,130470,1,8,0:0:0:0:
315,72,130604,6,0,P|379:159|313:243,1,228.799989526368,2|0,0:0|0:0,0:0:0:0:
292,157,131006,1,8,0:0:0:0:
292,157,131274,5,6,0:0:0:0:
230,95,131408,1,0,0:0:0:0:
207,180,131542,1,8,0:0:0:0:
315,72,131676,1,0,0:0:0:0:
269,242,131810,6,0,P|231:264|187:265,1,88,2|0,0:0|0:0,0:0:0:0:
145,118,132077,2,0,P|102:117|61:141,1,88,8|0,0:0|0:0,0:0:0:0:
99,288,132345,5,6,0:0:0:0:
188,265,132479,1,0,0:0:0:0:
122,203,132613,1,8,0:0:0:0:
161,350,132747,1,0,0:0:0:0:
37,226,132881,6,0,B|24:205|24:205|94:204,1,88,2|0,0:0|0:0,0:0:0:0:
99,288,133149,2,0,B|112:309|112:309|42:310,1,88,8|0,0:0|0:0,0:0:0:0:
207,180,133417,6,0,P|245:158|289:157,1,88,6|0,0:0|0:0,0:0:0:0:
331,304,133685,2,0,P|374:305|415:281,1,88,8|0,0:0|0:0,0:0:0:0:
246,327,133952,2,0,P|208:349|164:350,1,88,2|0,0:0|0:0,0:0:0:0:
122,203,134220,2,0,P|79:202|38:226,1,88,8|0,0:0|0:0,0:0:0:0:
269,242,134488,6,0,B|301:253|301:253|374:203,1,114.399994763184,6|0,0:0|0:0,0:0:0:0:
292,157,134756,1,8,0:0:0:0:
416,281,134890,1,0,0:0:0:0:
246,327,135024,6,0,B|214:338|214:338|141:288,1,114.399994763184,2|0,0:0|0:0,0:0:0:0:
116,193,135292,2,0,L|127:150,3,44,8|0|0|0,0:0|0:0|0:0|0:0,0:0:0:0:
122,203,135560,5,6,0:0:0:0:
37,226,135693,1,0,0:0:0:0:
207,180,135827,2,0,L|290:156,1,88,8|0,0:0|0:0,0:0:0:0:
462,111,136095,6,0,P|462:154|440:193,1,88
269,242,136363,2,0,L|185:265,1,88,8|0,0:0|0:0,0:0:0:0:
60,141,136631,5,6,0:0:0:0:
57,119,136697,1,0,0:0:0:0:
59,97,136764,1,0,0:0:0:0:
67,76,136831,1,0,0:0:0:0:
80,59,136898,1,0,0:0:0:0:
122,203,137033,1,0,0:0:0:0:
315,72,137167,6,0,B|345:64|345:64|345:89|345:89|368:108|386:142|374:183,1,158.399995166016,6|0,0:0|0:0,0:0:0:0:
374,181,137435,2,0,B|344:187|316:182|292:157|292:157|300:178|292:216|280:228,1,158.399995166016,8|0,0:0|0:0,0:0:0:0:
269,242,137702,6,0,P|231:264|186:265,1,88,6|0,0:0|0:0,0:0:0:0:
207,180,137970,1,8,0:0:0:0:
207,180,138104,1,8,0:0:0:0:
331,304,138238,6,0,P|374:305|416:281,1,88,2|0,0:0|0:0,0:0:0:0:
354,219,138506,2,0,P|315:197|293:159,1,88,8|0,0:0|0:0,0:0:0:0:
184,265,138774,1,2,0:0:0:0:
184,265,139042,6,0,L|98:288,1,88,8|0,0:0|0:0,0:0:0:0:
377,134,139310,2,0,L|462:110,1,88,2|0,0:0|0:0,0:0:0:0:
443,200,139577,1,8,0:0:0:0:
443,200,139711,1,0,0:0:0:0:
292,157,139845,6,0,P|253:135|231:97,2,88,2|0|8,0:0|0:0|0:0,0:0:0:0:
315,72,140247,1,8,0:0:0:0:
354,219,140381,6,0,L|376:304,1,88,2|0,0:0|0:0,0:0:0:0:
377,134,140649,2,0,L|354:48,1,88,8|0,0:0|0:0,0:0:0:0:
269,242,140917,6,0,P|230:264|186:264,2,88,2|0|8,0:0|0:0|0:0,0:0:0:0:
292,157,141318,1,0,0:0:0:0:
292,157,141385,1,0,0:0:0:0:
292,157,141452,2,0,P|314:120|314:71,1,88,2|0,0:0|0:0,0:0:0:0:
354,219,141720,2,0,P|331:255|331:304,1,88,8|0,0:0|0:0,0:0:0:0:
230,95,141988,6,0,P|209:57|167:32,1,88,2|0,0:0|0:0,0:0:0:0:
145,118,142256,1,8,0:0:0:0:
315,76,142390,1,8,0:0:0:0:
207,180,142524,6,0,P|184:216|184:265,1,88,2|0,0:0|0:0,0:0:0:0:
269,242,142792,2,0,P|289:279|331:304,1,88,8|0,0:0|0:0,0:0:0:0:
462,111,143060,1,2,0:0:0:0:
462,111,143327,6,0,L|377:133,1,88,8|0,0:0|0:0,0:0:0:0:
207,180,143595,1,2,0:0:0:0:
207,180,143863,5,8,0:0:0:0:
315,72,143997,1,0,0:0:0:0:
269,242,144131,6,0,P|231:264|186:264,1,88,2|0,0:0|0:0,0:0:0:0:
122,203,144399,1,10,0:0:0:0:
292,157,144533,1,10,0:0:0:0:
187,265,144667,6,0,P|150:288|106:292,1,88,2|0,0:0|0:0,0:0:0:0:
60,141,144935,2,0,P|98:119|142:118,1,88,10|0,0:0|0:0,0:0:0:0:
354,219,145202,5,0,0:0:0:0:
269,242,145336,1,0,0:0:0:0:
292,157,145470,1,0,0:0:0:0:
207,180,145604,1,0,0:0:0:0:
354,219,145738,6,0,P|389:221|422:210,2,58.6666666666667
377,134,146006,2,0,P|396:104|403:70,2,58.6666666666667
269,242,146274,6,0,P|213:267|155:251,1,123.199996240234,4|0,0:0|0:0,0:0:0:0:
207,180,146676,1,0,0:0:0:0:
354,219,146810,6,0,P|384:222|423:209,1,61.5999981201172
292,157,147077,2,0,P|262:154|223:167,1,61.5999981201172
331,304,147345,6,0,P|343:331|374:358,1,61.5999981201172
315,72,147613,2,0,P|302:44|271:17,1,61.5999981201172
246,327,147881,1,0,0:0:0:0:
246,327,148149,5,0,0:0:0:0:
161,350,148283,1,0,0:0:0:0:
99,288,148417,2,0,L|56:245,1,61.5999981201172
184,265,148685,5,0,0:0:0:0:
269,242,148818,1,0,0:0:0:0:
292,157,148952,2,0,L|307:98,1,61.5999981201172
207,180,149220,6,0,P|180:169|157:144,1,61.5999981201172
377,134,149488,2,0,P|404:145|427:170,1,61.5999981201172
354,219,149756,1,0,0:0:0:0:
292,157,149890,1,0,0:0:0:0:
246,327,150024,6,0,P|190:352|132:336,1,123.199996240234
184,265,150426,1,0,0:0:0:0:
60,141,150560,6,0,P|56:112|66:79,1,61.5999981201172
145,118,150827,1,0,0:0:0:0:
122,203,150961,1,0,0:0:0:0:
292,157,151095,6,0,L|351:140,1,61.5999981201172
230,95,151363,2,0,L|170:111,1,61.5999981201172
351,140,151631,6,0,L|410:123,1,61.5999981201172
170,111,151899,2,0,L|110:127,1,61.5999981201172
269,242,152167,1,0,0:0:0:0:
269,242,152435,5,0,0:0:0:0:
331,304,152569,1,0,0:0:0:0:
184,265,152702,5,0,0:0:0:0:
169,250,152836,1,0,0:0:0:0:
154,235,152970,1,0,0:0:0:0:
139,220,153104,1,0,0:0:0:0:
124,205,153238,1,0,0:0:0:0:
109,190,153372,1,0,0:0:0:0:
94,175,153506,1,0,0:0:0:0:
79,160,153640,1,0,0:0:0:0:
230,95,153774,6,0,P|318:74|378:150,1,184.799994360352
292,157,154310,2,0,B|275:178|235:189|207:180|207:180|241:191|263:217|269:247,1,184.799994360352
184,265,154845,5,12,0:0:0:0:
184,265,155113,5,8,0:0:0:0:
246,327,155247,1,8,0:0:0:0:
331,304,155381,1,8,0:0:0:0:
331,304,155649,5,8,0:0:0:0:
269,242,155783,1,0,0:0:0:0:
184,265,155917,6,0,L|115:283,1,70.4,8|0,0:0|0:0,0:0:0:0:
246,327,156185,2,0,L|314:308,1,70.4,8|8,0:0|0:0,0:0:0:0:
207,180,156452,2,0,L|70:216,1,140.8,8|8,0:0|0:0,0:0:0:0:
354,219,156988,5,8,0:0:0:0:
354,219,157256,5,8,0:0:0:0:
439,196,157390,1,0,0:0:0:0:
462,111,157524,2,0,L|480:42,1,70.4,8|0,0:0|0:0,0:0:0:0:
377,134,157792,2,0,L|358:202,1,70.4,8|0,0:0|0:0,0:0:0:0:
246,327,158060,6,0,P|220:346|181:353,1,70.4,8|0,0:0|0:0,0:0:0:0:
99,288,158327,2,0,P|95:255|108:218,1,70.4,8|8,0:0|0:0,0:0:0:0:
230,95,158595,1,8,0:0:0:0:
230,95,158863,5,8,0:0:0:0:
315,72,158997,1,0,0:0:0:0:
292,157,159131,2,0,L|273:225,1,70.4,8|0,0:0|0:0,0:0:0:0:
145,118,159399,5,8,0:0:0:0:
60,95,159533,1,0,0:0:0:0:
83,180,159667,2,0,L|101:248,1,70.4,8|0,0:0|0:0,0:0:0:0:
184,265,159935,5,8,0:0:0:0:
184,265,160068,1,0,0:0:0:0:
207,180,160202,1,8,0:0:0:0:
292,157,160336,1,0,0:0:0:0:
269,242,160470,1,8,0:0:0:0:
184,265,160604,1,8,0:0:0:0:
230,95,160738,1,8,0:0:0:0:
230,95,161006,5,8,0:0:0:0:
145,118,161140,1,0,0:0:0:0:
207,180,161274,1,8,0:0:0:0:
207,180,161542,5,8,0:0:0:0:
269,242,161676,1,8,0:0:0:0:
184,265,161810,1,8,0:0:0:0:
184,265,162077,5,8,0:0:0:0:
99,288,162211,1,0,0:0:0:0:
161,350,162345,5,8,0:0:0:0:
246,327,162479,1,0,0:0:0:0:
184,265,162613,1,8,0:0:0:0:
269,242,162747,1,8,0:0:0:0:
122,203,162881,5,8,0:0:0:0:
207,180,163015,1,0,0:0:0:0:
60,141,163149,1,8,0:0:0:0:
145,118,163283,1,0,0:0:0:0:
99,288,163417,5,14,0:0:0:0:
99,288,163685,5,8,0:0:0:0:
37,226,163818,1,0,0:0:0:0:
184,265,163952,1,8,0:0:0:0:
184,265,164220,5,8,0:0:0:0:
246,327,164354,1,0,0:0:0:0:
292,157,164488,5,10,0:0:0:0:
269,242,164622,1,0,0:0:0:0:
377,134,164756,1,8,0:0:0:0:
207,180,164890,1,8,0:0:0:0:
354,219,165024,1,8,0:0:0:0:
354,219,165292,5,8,0:0:0:0:
357,249,165358,1,8,0:0:0:0:
349,279,165425,1,8,0:0:0:0:
332,304,165492,1,8,0:0:0:0:
307,322,165560,2,0,P|221:316|182:235,1,176,14|8,0:0|0:0,0:0:0:0:
269,242,165961,1,0,0:0:0:0:
145,118,166095,2,0,P|143:80|167:32,1,88,8|0,0:0|0:0,0:0:0:0:
60,141,166363,2,0,P|39:174|38:227,1,88,8|0,0:0|0:0,0:0:0:0:
230,95,166631,6,0,P|261:74|315:71,1,88,10|0,0:0|0:0,0:0:0:0:
292,157,166899,1,8,0:0:0:0:
377,134,167033,1,8,0:0:0:0:
207,180,167167,1,8,0:0:0:0:
207,180,167435,5,8,0:0:0:0:
145,118,167569,1,0,0:0:0:0:
269,242,167702,2,0,L|331:304,1,88,14|0,0:0|0:0,0:0:0:0:
292,157,167970,5,8,0:0:0:0:
207,180,168104,1,0,0:0:0:0:
122,203,168238,2,0,L|37:225,1,88,8|0,0:0|0:0,0:0:0:0:
145,118,168506,5,8,0:0:0:0:
230,95,168640,1,0,0:0:0:0:
184,265,168774,5,10,0:0:0:0:
207,180,168908,1,0,0:0:0:0:
269,242,169042,1,8,0:0:0:0:
292,157,169176,1,8,0:0:0:0:
122,202,169310,2,0,P|88:185|58:140,1,88,8|0,0:0|0:0,0:0:0:0:
145,118,169577,1,8,0:0:0:0:
83,56,169711,1,0,0:0:0:0:
184,264,169845,6,0,L|209:316,2,58.6666666666667,14|0|0,0:0|0:0|0:0,0:0:0:0:
207,180,170113,2,0,L|181:127,2,58.6666666666667,8|0|0,0:0|0:0|0:0,0:0:0:0:
269,242,170381,2,0,L|294:294,2,58.6666666666667,8|0|0,0:0|0:0|0:0,0:0:0:0:
292,158,170649,2,0,L|266:105,2,58.6666666666667,8|0|0,0:0|0:0|0:0,0:0:0:0:
354,220,170917,6,0,P|387:223|420:212,1,52.7999983886719
292,158,171185,2,0,P|259:155|226:166,1,52.7999983886719
377,134,171452,2,0,P|348:89|300:69,1,105.599996777344
37,226,171988,5,6,0:0:0:0:
37,226,172256,5,8,0:0:0:0:
99,288,172390,1,0,0:0:0:0:
145,118,172524,1,2,0:0:0:0:
145,118,172792,5,8,0:0:0:0:
60,141,172926,1,0,0:0:0:0:
184,265,173060,5,2,0:0:0:0:
207,180,173193,1,0,0:0:0:0:
99,288,173327,1,8,0:0:0:0:
246,327,173461,1,0,0:0:0:0:
122,203,173595,2,0,P|121:161|141:121,1,88,2|0,0:0|0:0,0:0:0:0:
230,95,173863,1,8,0:0:0:0:
230,95,174131,6,0,P|266:115|291:152,1,88,6|0,0:0|0:0,0:0:0:0:
122,203,174399,2,0,P|101:236|98:285,1,88,8|0,0:0|0:0,0:0:0:0:
207,180,174667,1,2,0:0:0:0:
184,265,174801,1,0,0:0:0:0:
145,118,174935,2,0,P|144:76|164:36,1,88,8|0,0:0|0:0,0:0:0:0:
269,242,175202,6,0,P|308:243|353:219,1,88,2|0,0:0|0:0,0:0:0:0:
354,219,175403,1,0,0:0:0:0:
356,216,175470,2,0,P|333:250|331:303,1,88,8|0,0:0|0:0,0:0:0:0:
393,366,175738,1,2,0:0:0:0:
393,366,176006,5,8,0:0:0:0:
416,281,176140,1,0,0:0:0:0:
246,327,176274,1,6,0:0:0:0:
246,327,176542,5,8,0:0:0:0:
184,265,176676,1,0,0:0:0:0:
354,219,176810,1,2,0:0:0:0:
354,219,177077,5,8,0:0:0:0:
377,134,177211,1,0,0:0:0:0:
207,180,177345,1,2,0:0:0:0:
315,72,177480,1,0,0:0:0:0:
230,95,177613,1,8,0:0:0:0:
377,134,177747,1,0,0:0:0:0:
145,118,177881,1,2,0:0:0:0:
145,118,178149,5,8,0:0:0:0:
168,33,178283,1,0,0:0:0:0:
292,157,178417,6,0,L|353:218,1,88,6|0,0:0|0:0,0:0:0:0:
416,281,178685,1,8,0:0:0:0:
439,196,178818,1,0,0:0:0:0:
246,327,178952,6,0,P|206:351|161:350,1,88,2|0,0:0|0:0,0:0:0:0:
184,265,179220,1,8,0:0:0:0:
331,304,179354,1,0,0:0:0:0:
207,180,179488,6,0,P|206:133|229:94,1,88,2|0,0:0|0:0,0:0:0:0:
230,94,179689,1,0,0:0:0:0:
234,90,179756,2,0,P|275:70|320:73,1,88,8|0,0:0|0:0,0:0:0:0:
439,196,180024,6,0,P|440:243|417:282,2,88,2|0|8,0:0|0:0|0:0,0:0:0:0:
269,242,180560,5,6,0:0:0:0:
269,242,180827,5,8,0:0:0:0:
184,265,180961,1,0,0:0:0:0:
315,72,181095,1,2,0:0:0:0:
315,72,181363,5,8,0:0:0:0:
230,95,181497,1,0,0:0:0:0:
439,196,181631,1,2,0:0:0:0:
377,134,181765,1,0,0:0:0:0:
416,281,181899,1,8,0:0:0:0:
462,111,182033,1,0,0:0:0:0:
331,304,182167,2,0,P|290:327|245:326,1,88,2|0,0:0|0:0,0:0:0:0:
184,265,182435,1,8,0:0:0:0:
184,265,182702,6,0,L|208:173,1,88,6|0,0:0|0:0,0:0:0:0:
230,95,182970,1,8,0:0:0:0:
230,95,183104,1,0,0:0:0:0:
122,203,183238,5,2,0:0:0:0:
292,157,183372,1,0,0:0:0:0:
60,141,183506,2,0,P|40:172|37:226,1,88,8|0,0:0|0:0,0:0:0:0:
161,350,183774,6,0,P|197:351|246:327,1,88,2|0,0:0|0:0,0:0:0:0:
246,327,183975,1,0,0:0:0:0:
249,325,184042,2,0,P|266:293|268:239,1,88,8|0,0:0|0:0,0:0:0:0:
230,95,184310,1,2,0:0:0:0:
230,95,184577,5,8,0:0:0:0:
207,180,184711,1,0,0:0:0:0:
400,49,184845,1,6,0:0:0:0:
400,49,185113,5,0,0:0:0:0:
377,134,185247,1,0,0:0:0:0:
168,33,185381,1,8,0:0:0:0:
168,33,185649,5,0,0:0:0:0:
145,118,185783,1,0,0:0:0:0:
315,72,185917,1,2,0:0:0:0:
230,95,186051,1,0,0:0:0:0:
292,157,186185,1,0,0:0:0:0:
168,33,186318,1,0,0:0:0:0:
269,242,186452,1,8,0:0:0:0:
269,242,186720,5,0,0:0:0:0:
292,157,186854,1,0,0:0:0:0:
122,203,186988,6,0,L|63:218,1,61.5999981201172,2|0,0:0|0:0,0:0:0:0:
184,265,187256,2,0,L|242:249,1,61.5999981201172
60,141,187524,2,0,L|1:156,1,61.5999981201172
246,327,187792,2,0,L|304:311,1,61.5999981201172
145,118,188060,6,0,P|108:116|77:128,1,70.4
269,242,188327,2,0,P|302:245|355:217,1,79.1999975830079
122,203,188595,1,8,0:0:0:0:
122,203,188863,6,0,P|153:206|198:188,1,70.4
400,49,189131,6,0,P|439:72|461:109,1,88,6|0,0:0|0:0,0:0:0:0:
439,196,189399,1,8,0:0:0:0:
377,134,189533,1,0,0:0:0:0:
246,327,189667,6,0,P|206:349|164:351,1,88,2|0,0:0|0:0,0:0:0:0:
99,288,189935,1,8,0:0:0:0:
99,288,190069,1,0,0:0:0:0:
269,242,190202,1,2,0:0:0:0:
246,327,190336,1,0,0:0:0:0:
207,180,190470,1,8,0:0:0:0:
331,304,190604,1,0,0:0:0:0:
122,203,190738,6,0,P|121:157|142:119,1,88,2|0,0:0|0:0,0:0:0:0:
230,95,191006,1,8,0:0:0:0:
230,95,191274,6,0,L|314:72,1,88,2|0,0:0|0:0,0:0:0:0:
292,157,191542,1,8,0:0:0:0:
400,49,191676,1,0,0:0:0:0:
354,219,191810,6,0,L|331:303,1,88,2|0,0:0|0:0,0:0:0:0:
246,327,192077,1,8,0:0:0:0:
246,327,192211,1,0,0:0:0:0:
207,180,192345,1,2,0:0:0:0:
269,242,192479,1,0,0:0:0:0:
99,288,192613,1,8,0:0:0:0:
292,157,192747,1,0,0:0:0:0:
161,350,192881,6,0,B|130:370|130:370|78:374,1,88,2|0,0:0|0:0,0:0:0:0:
14,311,193149,1,8,0:0:0:0:
14,311,193417,6,0,P|53:288|96:286,1,88,6|0,0:0|0:0,0:0:0:0:
161,350,193685,1,8,0:0:0:0:
79,373,193819,1,0,0:0:0:0:
207,180,193952,6,0,P|246:157|289:155,1,88,2|0,0:0|0:0,0:0:0:0:
354,219,194220,1,8,0:0:0:0:
354,219,194354,1,0,0:0:0:0:
184,265,194488,1,2,0:0:0:0:
207,180,194622,1,0,0:0:0:0:
246,327,194756,1,8,0:0:0:0:
145,118,194890,1,0,0:0:0:0:
331,304,195024,6,0,P|375:305|414:283,1,88,2|0,0:0|0:0,0:0:0:0:
439,196,195292,1,8,0:0:0:0:
439,196,195560,6,0,L|377:134,1,88,6|0,0:0|0:0,0:0:0:0:
315,72,195827,1,8,0:0:0:0:
462,111,195961,1,0,0:0:0:0:
292,157,196095,6,0,L|208:180,1,88,2|0,0:0|0:0,0:0:0:0:
122,203,196363,1,8,0:0:0:0:
122,203,196497,1,0,0:0:0:0:
331,304,196631,1,2,0:0:0:0:
269,242,196765,1,0,0:0:0:0:
246,327,196899,1,8,0:0:0:0:
354,219,197033,1,0,0:0:0:0:
184,265,197167,6,0,L|100:288,1,88,2|0,0:0|0:0,0:0:0:0:
37,226,197435,1,8,0:0:0:0:
37,226,197702,6,0,P|36:180|57:143,1,88,6|0,0:0|0:0,0:0:0:0:
99,288,197970,1,8,0:0:0:0:
122,203,198104,1,0,0:0:0:0:
246,327,198238,6,0,P|290:328|329:306,1,88,2|0,0:0|0:0,0:0:0:0:
354,219,198506,1,8,0:0:0:0:
354,219,198640,1,0,0:0:0:0:
184,265,198774,1,2,0:0:0:0:
207,180,198908,1,0,0:0:0:0:
246,327,199042,1,8,0:0:0:0:
99,288,199176,1,0,0:0:0:0:
292,157,199310,6,0,P|331:134|373:132,1,88,2|0,0:0|0:0,0:0:0:0:
439,196,199577,1,8,0:0:0:0:
439,196,199845,6,0,P|439:241|419:279,1,88,6|0,0:0|0:0,0:0:0:0:
354,219,200113,1,8,0:0:0:0:
462,111,200247,1,0,0:0:0:0:
331,304,200381,6,0,P|292:327|249:328,1,88,2|0,0:0|0:0,0:0:0:0:
184,265,200649,1,8,0:0:0:0:
184,265,200783,1,0,0:0:0:0:
377,134,200917,1,2,0:0:0:0:
354,219,201051,1,0,0:0:0:0:
315,72,201185,1,8,0:0:0:0:
416,281,201318,1,0,0:0:0:0:
230,95,201452,6,0,P|186:94|147:116,1,88,2|0,0:0|0:0,0:0:0:0:
122,203,201720,1,8,0:0:0:0:
122,203,201988,6,0,B|138:236|138:236|190:269,1,88,6|0,0:0|0:0,0:0:0:0:
207,180,202256,1,0,0:0:0:0:
37,226,202390,1,0,0:0:0:0:
269,242,202524,6,0,B|289:211|289:211|292:150,1,88,8|0,0:0|0:0,0:0:0:0:
230,95,202792,1,0,0:0:0:0:
230,95,202926,1,0,0:0:0:0:
246,327,203060,1,2,0:0:0:0:
181,263,203193,1,0,0:0:0:0:
331,304,203327,1,0,0:0:0:0:
161,350,203461,1,0,0:0:0:0:
292,157,203595,6,0,B|322:136|322:136|383:133,1,88,8|0,0:0|0:0,0:0:0:0:
439,196,203863,1,0,0:0:0:0:
439,196,204131,6,0,L|416:280,1,88,6|0,0:0|0:0,0:0:0:0:
354,219,204399,1,0,0:0:0:0:
478,343,204533,1,0,0:0:0:0:
269,242,204667,6,0,L|188:203,1,88,8|0,0:0|0:0,0:0:0:0:
145,118,204935,1,0,0:0:0:0:
145,118,205068,1,0,0:0:0:0:
354,219,205202,1,2,0:0:0:0:
269,242,205336,1,0,0:0:0:0:
377,134,205470,1,0,0:0:0:0:
246,327,205604,1,0,0:0:0:0:
315,72,205738,6,0,P|338:55|367:47,2,58.6666666666667
230,95,206006,2,0,P|207:112|173:121,2,58.6666666666667
292,157,206274,6,0,P|292:202|270:242,1,88,2|0,0:0|0:0,0:0:0:0:
184,265,206542,1,8,0:0:0:0:
122,203,206676,1,2,0:0:0:0:
272,239,206810,2,0,P|319:237|355:212,1,88,2|0,0:0|0:0,0:0:0:0:
377,134,207077,1,8,0:0:0:0:
293,156,207211,1,0,0:0:0:0:
246,327,207345,6,0,P|207:349|161:350,1,88
184,265,207613,1,8,0:0:0:0:
331,304,207747,1,8,0:0:0:0:
99,288,207881,2,0,P|60:266|38:227,1,88,2|0,0:0|0:0,0:0:0:0:
270,245,208149,2,0,P|309:267|331:306,1,88,8|0,0:0|0:0,0:0:0:0:
122,203,208417,6,0,P|121:158|144:119,1,88,2|0,0:0|0:0,0:0:0:0:
230,95,208685,1,8,0:0:0:0:
207,180,208818,1,2,0:0:0:0:
315,72,208952,2,0,P|353:49|398:49,1,88,2|0,0:0|0:0,0:0:0:0:
292,157,209220,2,0,P|253:179|208:179,1,88,10|0,0:0|0:0,0:0:0:0:
230,95,209488,5,2,0:0:0:0:
377,134,209622,1,0,0:0:0:0:
184,265,209756,1,8,0:0:0:0:
211,179,209890,1,8,0:0:0:0:
246,327,210024,1,2,0:0:0:0:
145,118,210292,1,8,0:0:0:0:
331,304,210560,6,0,P|376:304|415:281,1,88,2|0,0:0|0:0,0:0:0:0:
354,219,210827,1,8,0:0:0:0:
269,242,210961,1,2,0:0:0:0:
315,72,211095,2,0,P|353:49|398:49,1,88,2|0,0:0|0:0,0:0:0:0:
292,157,211363,1,8,0:0:0:0:
230,95,211497,1,0,0:0:0:0:
184,265,211631,6,0,P|145:287|100:287,1,88,2|0,0:0|0:0,0:0:0:0:
122,203,211899,1,8,0:0:0:0:
246,327,212033,1,8,0:0:0:0:
207,180,212167,2,0,P|187:143|147:118,1,88,2|0,0:0|0:0,0:0:0:0:
315,72,212435,2,0,P|354:93|376:132,1,88,8|0,0:0|0:0,0:0:0:0:
184,265,212702,6,0,B|156:282|156:282|98:288,1,88
122,203,212970,1,8,0:0:0:0:
14,311,213104,1,2,0:0:0:0:
60,141,213238,2,0,B|88:124|88:124|146:118,1,88,2|0,0:0|0:0,0:0:0:0:
207,180,213506,1,10,0:0:0:0:
37,226,213640,1,0,0:0:0:0:
184,265,213774,6,0,L|225:275,3,44,2|0|0|0,0:0|0:0|0:0|0:0,0:0:0:0:
184,265,214042,2,0,P|147:245|120:193,1,88,10|0,0:0|0:0,0:0:0:0:
292,157,214310,5,10,0:0:0:0:
207,180,214443,1,0,0:0:0:0:
230,95,214577,1,0,0:0:0:0:
145,118,214711,1,0,0:0:0:0:
269,242,214845,5,6,0:0:0:0:
269,242,215113,5,8,0:0:0:0:
184,265,215247,1,2,0:0:0:0:
230,95,215381,1,2,0:0:0:0:
230,95,215649,5,10,0:0:0:0:
292,157,215783,1,0,0:0:0:0:
122,203,215917,1,0,0:0:0:0:
145,118,216051,1,0,0:0:0:0:
207,180,216185,1,10,0:0:0:0:
60,141,216318,1,8,0:0:0:0:
168,33,216452,2,0,P|226:88|211:175,1,176,2|8,0:0|0:0,0:0:0:0:
122,203,216988,5,2,0:0:0:0:
122,203,217256,5,8,0:0:0:0:
145,118,217390,1,2,0:0:0:0:
269,242,217524,1,2,0:0:0:0:
269,242,217792,5,10,0:0:0:0:
184,265,217926,1,0,0:0:0:0:
230,95,218060,1,0,0:0:0:0:
292,157,218194,1,0,0:0:0:0:
207,180,218327,1,10,0:0:0:0:
315,72,218461,1,8,0:0:0:0:
269,242,218595,2,0,P|318:300|410:288,1,176,2|8,0:0|0:0,0:0:0:0:
439,196,219131,5,2,0:0:0:0:
439,196,219399,5,8,0:0:0:0:
462,111,219533,1,2,0:0:0:0:
354,219,219667,1,2,0:0:0:0:
354,219,219935,5,10,0:0:0:0:
416,281,220068,1,0,0:0:0:0:
246,327,220202,1,0,0:0:0:0:
269,242,220336,1,0,0:0:0:0:
331,304,220470,1,10,0:0:0:0:
184,265,220604,1,8,0:0:0:0:
354,219,220738,2,0,P|379:147|323:73,1,176,2|8,0:0|0:0,0:0:0:0:
230,95,221274,5,2,0:0:0:0:
230,95,221542,5,8,0:0:0:0:
292,157,221676,1,2,0:0:0:0:
122,203,221810,1,2,0:0:0:0:
122,203,222077,5,10,0:0:0:0:
145,118,222211,1,0,0:0:0:0:
269,242,222345,1,0,0:0:0:0:
184,265,222479,1,0,0:0:0:0:
207,180,222613,1,0,0:0:0:0:
292,157,222747,1,0,0:0:0:0:
246,327,222881,5,0,0:0:0:0:
184,265,223015,1,0,0:0:0:0:
331,304,223149,1,0,0:0:0:0:
161,350,223283,1,0,0:0:0:0:
354,219,223417,1,0,0:0:0:0:
