osu file format v14

[General]
AudioFilename: audio.mp3
AudioLeadIn: 0
PreviewTime: 59398
Countdown: 0
SampleSet: Soft
StackLeniency: 0.6
Mode: 0
LetterboxInBreaks: 0
WidescreenStoryboard: 1

[Editor]
DistanceSpacing: 0.4
BeatDivisor: 4
GridSize: 4
TimelineZoom: 2

[Metadata]
Title:Koi no Uta (feat. Yuzaki Tsukasa (CV: Kito Akari)) (TV Size)
TitleUnicode:恋のうた (feat. 由崎司 (CV: 鬼頭明里)) (TV Size)
Artist:Yunomi
ArtistUnicode:Yunomi
Creator:hypercyte
Version:Normal
Source:Tonikaku Kawaii
Tags:トニカクカワイイ nao tomori naotoshi tonikaku cawaii tonikawa over the moon for you tonikawa fly me to the moon nasa electronic oriental future bass japanese anime opening op kitou kito akari 鬼頭 明里 hypercute
BeatmapID:2644260
BeatmapSetID:1271261

[Difficulty]
HPDrainRate:3
CircleSize:3.5
OverallDifficulty:4
ApproachRate:6
SliderMultiplier:1.2
SliderTickRate:1

[Events]
//Background and Video events
0,0,"81841510_p0.jpg",0,0
Video,-555,"tonikawa op rf 22.mp4"
//Break Periods
//Storyboard Layer 0 (Background)
//Storyboard Layer 1 (Fail)
//Storyboard Layer 2 (Pass)
//Storyboard Layer 3 (Foreground)
//Storyboard Layer 4 (Overlay)
//Storyboard Sound Samples

[TimingPoints]
-5102,375,4,2,4,44,1,0
523,-100,4,2,4,44,0,0
804,-117.647058823529,4,2,4,5,0,0
898,-117.647058823529,4,2,4,44,0,0
5304,-117.647058823529,4,2,4,5,0,0
5398,-117.647058823529,4,2,4,44,0,0
6460,-117.647058823529,4,2,4,5,0,0
6523,-117.647058823529,4,2,4,44,0,0
6804,-117.647058823529,4,2,4,5,0,0
6898,-117.647058823529,4,2,4,44,0,0
10710,-117.647058823529,4,2,4,5,0,0
10741,-117.647058823529,4,2,4,44,0,0
12429,-117.647058823529,4,2,4,5,0,0
12523,-117.647058823529,4,2,4,44,0,0
13648,-117.647058823529,4,2,42,44,0,0
13741,-117.647058823529,4,2,4,5,0,0
13835,-117.647058823529,4,2,4,44,0,0
15148,-117.647058823529,4,2,42,44,0,0
15241,-117.647058823529,4,2,4,5,0,0
15335,-117.647058823529,4,2,4,44,0,0
16648,-117.647058823529,4,2,42,44,0,0
16710,-117.647058823529,4,2,4,44,0,0
18148,-117.647058823529,4,2,42,44,0,0
18210,-117.647058823529,4,2,4,44,0,0
18335,-117.647058823529,4,2,4,5,0,0
18523,-117.647058823529,4,2,4,44,0,0
19648,-117.647058823529,4,2,42,44,0,0
19741,-117.647058823529,4,2,4,5,0,0
19835,-117.647058823529,4,2,4,44,0,0
21148,-117.647058823529,4,2,42,44,0,0
21335,-117.647058823529,4,2,4,44,0,0
22835,-117.647058823529,4,2,42,44,0,0
22929,-117.647058823529,4,2,4,5,0,0
23023,-117.647058823529,4,2,4,44,0,0
24710,-117.647058823529,4,2,4,5,0,0
24898,-117.647058823529,4,2,4,44,0,0
25273,-117.647058823529,4,2,42,44,0,0
25335,-117.647058823529,4,2,4,44,0,0
28648,-117.647058823529,4,2,42,44,0,0
28741,-117.647058823529,4,2,4,5,0,0
28835,-117.647058823529,4,2,4,44,0,0
29210,-117.647058823529,4,2,4,44,0,0
29398,-117.647058823529,4,2,4,44,0,0
30148,-117.647058823529,4,2,42,44,0,0
30241,-117.647058823529,4,2,4,5,0,0
30335,-117.647058823529,4,2,4,44,0,0
31648,-117.647058823529,4,2,42,44,0,0
31741,-117.647058823529,4,2,4,5,0,0
31835,-117.647058823529,4,2,4,44,0,0
32960,-117.647058823529,4,2,42,44,0,0
33054,-117.647058823529,4,2,4,5,0,0
33148,-117.647058823529,4,2,4,44,0,0
33335,-117.647058823529,4,2,42,44,0,0
33398,-117.647058823529,4,2,4,5,0,0
33460,-117.647058823529,4,2,4,44,0,0
34648,-117.647058823529,4,2,42,44,0,0
34710,-117.647058823529,4,2,4,5,0,0
34741,-117.647058823529,4,2,4,44,0,0
36898,-100,4,2,40,50,0,0
48898,-100,4,2,40,60,0,0
54898,-100,4,2,40,50,0,0
55648,-100,4,2,40,60,0,0
56398,-100,4,2,40,70,0,0
57148,-100,4,2,40,80,0,0
57898,-100,4,2,40,74,0,0
58554,-100,4,2,40,84,0,0
58835,-100,4,2,40,74,0,0
60898,-100,4,2,44,54,0,0
72898,-100,4,2,44,50,0,1
75898,-100,4,2,44,55,0,1
78898,-100,4,2,44,60,0,1
81898,-100,4,2,44,65,0,1
84054,-100,4,2,44,54,0,0
84241,-100,4,2,44,44,0,0
85179,-100,4,2,44,5,0,0

[Colours]
Combo1 : 216,193,247
Combo2 : 250,124,190
Combo3 : 213,146,241
Combo4 : 252,169,237

[HitObjects]
108,183,898,6,0,B|166:154|200:220|187:223|232:282|287:239,1,204.000003890991,2|2,0:3|0:0,0:0:0:0:
343,164,2023,1,2,0:0:0:0:
282,81,2398,1,2,0:3:0:0:
110,191,3148,6,0,P|70:180|59:114,1,102.000001945496,2|2,0:0|0:0,0:0:0:0:
111,42,3898,2,0,B|187:47|187:47|235:71|235:71|327:77,1,204.000003890991,2|2,0:3|0:0,0:0:0:0:
402,34,5023,1,2,0:0:0:0:
470,109,5398,1,2,0:3:0:0:
426,201,5773,1,2,0:3:0:0:
230,141,6523,5,2,0:0:0:0:
136,181,6898,2,0,P|116:220|217:320,1,204.000003890991,2|2,0:3|0:0,0:0:0:0:
303,284,8023,1,2,0:0:0:0:
298,182,8398,1,2,0:3:0:0:
446,42,9148,6,0,P|493:60|500:112,1,102.000001945496,2|2,0:0|0:0,0:0:0:0:
428,177,9898,2,0,B|371:212|328:166|343:151|297:95|233:127,1,204.000003890991,2|2,0:3|0:3,0:0:0:0:
193,205,11023,1,2,0:0:0:0:
113,140,11398,1,2,0:3:0:0:
376,295,12523,5,2,0:0:0:0:
299,227,12898,2,0,B|270:169|336:134|339:147|394:114|372:45,1,204.000003890991,2|2,0:3|0:2,0:0:0:0:
282,13,14023,1,2,0:0:0:0:
196,68,14398,1,2,0:3:0:0:
0,54,15148,6,0,P|40:65|51:131,1,102.000001945496,2|2,0:3|0:0,0:0:0:0:
84,216,15898,2,0,P|145:191|182:223,1,102.000001945496,2|2,0:3|0:0,0:0:0:0:
222,295,16648,1,2,0:2:0:0:
311,344,17023,1,2,0:0:0:0:
385,274,17398,2,0,P|440:250|486:281,2,102.000001945496,2|0|2,0:3|0:0|0:0,0:0:0:0:
307,207,18523,5,2,0:0:0:0:
355,117,18898,2,0,P|300:58|202:126,1,204.000003890991,2|2,0:3|0:0,0:0:0:0:
187,210,20023,1,2,0:0:0:0:
261,280,20398,1,2,0:3:0:0:
455,218,21148,6,0,P|442:289|435:337,1,102.000001945496,2|2,0:2|0:0,0:0:0:0:
343,357,21898,2,0,P|263:345|221:340,1,102.000001945496,0|2,0:3|0:0,0:0:0:0:
169,269,22648,1,2,0:3:0:0:
92,336,23023,1,2,0:0:0:0:
13,271,23398,1,2,0:3:0:0:
192,44,24898,6,0,P|271:43|285:71,2,102.000001945496,2|0|2,3:3|0:0|0:0,0:0:0:0:
173,91,25835,1,0,0:0:0:0:
253,154,26210,2,0,P|275:250|277:271,1,102.000001945496,2|2,0:0|0:0,0:0:0:0:
259,301,26773,1,2,0:0:0:0:
175,359,27148,1,2,0:0:0:0:
97,293,27523,1,2,0:0:0:0:
138,199,27898,6,0,P|131:131|129:74,1,102.000001945496,2|0,3:3|0:0,0:0:0:0:
215,43,28648,1,2,0:0:0:0:
215,43,28835,2,0,P|271:37|303:86,1,102.000001945496,2|2,0:0|0:0,0:0:0:0:
290,118,29398,1,2,0:0:0:0:
228,199,29773,1,2,0:3:0:0:
281,285,30148,1,2,0:0:0:0:
448,169,30898,6,0,P|448:98|411:83,2,102.000001945496,2|2|2,3:3|0:0|0:0,0:0:0:0:
411,204,31835,1,2,0:0:0:0:
315,169,32210,2,0,P|236:169|194:170,1,102.000001945496,2|2,0:0|0:0,0:0:0:0:
161,170,32773,1,2,0:0:0:0:
77,111,33148,1,2,0:0:0:0:
1,179,33523,1,2,0:0:0:0:
80,242,33898,6,0,P|83:292|141:320,1,102.000001945496,2|0,3:3|0:0,0:0:0:0:
219,285,34648,1,2,0:0:0:0:
219,285,34835,2,0,P|299:293|378:302,1,153.000002918243,2|0,0:0|0:0,0:0:0:0:
438,224,35773,1,2,0:0:0:0:
365,152,36148,1,2,0:0:0:0:
163,22,36898,6,0,P|90:44|28:63,1,120,12|8,0:0|0:0,0:0:0:0:
12,139,37554,2,0,P|5:203|37:240,1,90,2|2,0:0|0:0,0:0:0:0:
71,247,38023,1,10,0:0:0:0:
190,277,38398,2,0,L|319:245,2,120,8|8|8,0:1|0:0|0:1,0:0:0:0:
111,367,39523,1,10,0:0:0:0:
17,291,39898,6,0,P|4:241|37:178,1,120,12|8,0:0|0:0,0:0:0:0:
114,144,40554,2,0,P|189:163|223:174,1,90,2|2,0:0|0:0,0:0:0:0:
257,186,41023,1,10,0:0:0:0:
373,156,41398,2,0,P|386:106|333:72,2,120,12|8|8,0:0|0:0|0:1,0:0:0:0:
321,183,42335,1,2,0:0:0:0:
321,183,42523,1,8,0:0:0:0:
209,227,42898,6,0,P|116:215|76:209,1,120,10|8,0:0|0:0,0:0:0:0:
15,160,43554,2,0,P|11:103|88:59,1,150,2|10,0:0|0:1,0:0:0:0:
129,96,44210,1,2,0:0:0:0:
129,96,44398,2,0,P|195:87|269:81,2,120,8|8|0,0:0|0:0|0:0,0:0:0:0:
83,206,45523,1,10,0:0:0:0:
177,279,45898,6,0,B|219:287|246:267|237:262|266:242|303:248,1,120,8|10,0:0|0:1,0:0:0:0:
371,283,46554,2,0,P|383:226|395:184,1,90,2|4,0:0|0:3,0:0:0:0:
417,141,47023,1,4,0:3:0:0:
320,69,47398,1,4,0:3:0:0:
320,69,47585,2,0,L|256:86,1,60,4|4,0:3|0:3,0:0:0:0:
197,147,48054,2,0,P|145:166|103:144,1,90,4|8,0:3|0:3,0:0:0:0:
86,101,48523,1,8,0:1:0:0:
13,196,48898,6,0,P|36:254|43:274,1,60,14|2,0:0|0:0,0:0:0:0:
64,304,49273,2,0,L|160:266,1,90,4|4,0:3|0:3,0:0:0:0:
204,200,49835,1,8,0:3:0:0:
204,200,50023,2,0,L|281:174,1,60,10|10,0:0|0:1,0:0:0:0:
318,162,50398,2,0,P|377:191|369:259,2,120,10|4|8,0:0|0:3|0:0,0:0:0:0:
211,108,51523,1,10,0:0:0:0:
292,19,51898,6,0,L|367:29,1,60,14|2,0:0|0:0,0:0:0:0:
408,44,52273,2,0,P|421:89|382:121,1,90,4|8,0:3|0:3,0:0:0:0:
309,147,52835,1,4,0:3:0:0:
309,147,53023,2,0,P|280:199|315:256,1,120,10|4,0:0|0:3,0:0:0:0:
387,336,53773,2,0,L|500:312,2,90,4|8|10,0:3|0:3|0:1,0:0:0:0:
329,353,54523,1,10,0:0:0:0:
230,284,54898,5,10,0:0:0:0:
123,339,55273,1,8,0:0:0:0:
50,243,55648,2,0,L|65:177,1,60,8|8,0:0|0:0,0:0:0:0:
115,154,56023,2,0,L|101:95,1,60,10|10,0:0|0:0,0:0:0:0:
80,39,56398,6,0,P|127:1|185:28,1,120,10|10,0:0|0:0,0:0:0:0:
252,113,57148,2,0,L|224:180,1,60,8|10,0:0|0:0,0:0:0:0:
237,227,57523,2,0,P|266:255|297:249,1,60,10|10,0:0|0:0,0:0:0:0:
339,231,57898,6,0,P|412:246|422:303,1,120,4|4,3:0|3:0,0:0:0:0:
366,350,58554,2,0,P|309:349|270:349,1,90,8|8,0:3|0:0,0:0:0:0:
215,350,59023,1,8,0:0:0:0:
215,350,59210,1,8,0:0:0:0:
149,228,60898,6,0,B|165:175|165:175|160:157|160:157|177:100,1,120,12|2,0:0|0:0,0:0:0:0:
221,36,61554,2,0,P|278:29|305:121,1,150,2|2,0:0|3:0,0:0:0:0:
267,141,62210,1,8,0:0:0:0:
267,141,62398,2,0,P|275:195|283:275,1,120,2|10,0:0|0:0,0:0:0:0:
232,334,63054,2,0,P|158:329|119:327,1,90,2|2,0:0|0:0,0:0:0:0:
35,182,63898,6,0,P|35:112|83:87,1,120,2|2,0:0|3:3,0:0:0:0:
161,100,64554,2,0,P|196:168|285:175,1,150,2|8,0:3|0:3,0:0:0:0:
319,162,65210,1,0,0:0:0:0:
319,162,65398,1,2,0:0:0:0:
409,240,65773,1,10,0:0:0:0:
479,184,66054,2,0,P|459:120|451:85,1,90,2|4,0:0|0:3,0:0:0:0:
289,23,66898,6,0,P|211:28|189:67,1,120,10|10,0:0|0:0,0:0:0:0:
114,104,67554,2,0,P|125:179|137:257,1,150,2|8,0:0|0:3,0:0:0:0:
117,309,68210,1,4,0:3:0:0:
117,309,68398,2,0,P|88:359|12:347,1,120,2|10,0:0|0:0,0:0:0:0:
5,274,69054,1,2,0:0:0:0:
42,192,69335,1,4,0:3:0:0:
0,10,69898,6,0,B|16:21|16:21|126:24,1,120,8|8,0:0|0:1,0:0:0:0:
162,62,70460,1,4,0:3:0:0:
162,62,70648,1,4,0:3:0:0:
245,147,71023,2,0,P|293:150|390:161,1,120,8|8,0:0|0:1,0:0:0:0:
419,182,71585,2,0,P|440:233|387:274,1,120,8|8,0:0|0:1,0:0:0:0:
339,263,72148,1,8,0:0:0:0:
232,319,72523,1,8,0:1:0:0:
161,221,72898,6,0,L|78:225,1,60,10|2,0:0|0:0,0:0:0:0:
40,226,73273,2,0,P|-8:194|-1:151,1,90,10|10,0:0|0:1,0:0:0:0:
67,117,73835,1,4,0:3:0:0:
67,117,74023,2,0,P|132:118|148:120,1,60,10|10,0:1|0:0,0:0:0:0:
185,103,74398,1,10,0:0:0:0:
291,158,74773,2,0,L|395:142,1,90,10|10,0:1|0:1,0:0:0:0:
458,99,75335,2,0,P|479:136|472:165,1,60,10|10,0:0|0:0,0:0:0:0:
430,262,75898,5,10,0:0:0:0:
430,262,76085,1,10,0:1:0:0:
430,262,76273,2,0,P|369:245|337:269,1,90,10|10,0:0|0:1,0:0:0:0:
298,330,76835,2,0,P|224:308|171:300,1,120,4|10,0:3|0:1,0:0:0:0:
130,268,77398,1,10,0:0:0:0:
179,158,77773,1,10,0:0:0:0:
128,83,78054,2,0,P|58:82|38:114,1,90,10|10,0:1|0:0,0:0:0:0:
37,151,78523,1,10,0:1:0:0:
130,226,78898,6,0,P|135:307|139:365,1,120,10|10,0:0|0:0,0:0:0:0:
227,355,79554,2,0,P|258:340|304:339,1,60,10|2,0:0|0:0,0:0:0:0:
371,355,80023,1,10,0:0:0:0:
371,355,80210,1,10,0:1:0:0:
371,355,80398,2,0,L|494:325,1,120,10|10,0:0|0:0,0:0:0:0:
494,236,81054,2,0,P|490:161|468:145,1,90,10|10,3:2|0:0,0:0:0:0:
430,126,81523,1,10,1:0:0:0:
322,178,81898,6,0,L|244:173,2,60,10|10|10,0:0|0:1|0:0,0:0:0:0:
390,235,82554,2,0,P|396:306|373:324,1,90,10|10,0:1|0:1,0:0:0:0:
330,332,83023,1,10,0:0:0:0:
330,332,83210,1,10,0:0:0:0:
330,332,83398,2,0,L|188:306,1,120,10|10,0:0|0:1,0:0:0:0:
124,291,84054,1,10,0:1:0:0:
