osu file format v14

[General]
AudioFilename: audio.mp3
AudioLeadIn: 0
PreviewTime: 59514
Countdown: 0
SampleSet: Soft
StackLeniency: 0.7
Mode: 0
LetterboxInBreaks: 0
WidescreenStoryboard: 0

[Editor]
Bookmarks: 358,483,545,670,733,858,920,1045,1108,1139,1483,1576,1670,1826,1858,2076,2139,2170,2201,2233,2358,2420,2545,2608,2733,2795,2920,2983,3014,3358,3483,3545,3670,3733,3858,3920,4045,4108,4139,4483,4576,4670,4826,4858,5170,5233,5326,5420,5576,5608,5733,5795,5920,5983,6014,6358,6483,6545,6670,6733,6858,6920,7045,7108,7139,7483,7576,7670,7826,7858,8076,8139,8170,8201,8233,8358,8420,8545,8608,8733,8795,8920,8983,9014,9358,9514,9545,9670,9733,9858,9920,10045,10108,10451,10483,10608,10670,10858,11108,11358,11639,12358,23983,202858,202951,203045,203139,203233,203326,203420,203514,203608,203701,203795,203889,203983,204076,204170,204264,204358,204451,204545,204639,204733,204826,204920,205014,205108,205201,205295,205389,205483,205576,205670,205764,205858,205951,206045,206139,206233,206326,206420,206514,206608,206701,206795,206889,206983,207076,207170,207264,207358,207451,207545,207639,207733,207826,207920,208014,208108,208201,208295,208389,208483,208576,208670,208764,208858,208951,209045,209139,209233,209326,209420,209514,209608,209701,209795,209889,209983,210076,210170,210264,210358,210451,210545,210639,210733,210826,210920,211014,211108,211201,211295,211389,211483,211576,211670,211764,211858,211951,212045,212139,212233,212326,212420,212514,212608,212701,212795,212889,212983,213076,213170,213264,213358,213451,213545,213639,213733,213826,213920,214014,214108,214201,214295,214389,214483,214576,214670,214764,214858,214951,215045,215139,215233,215326,215420,215514,215608,215701,215795,215889,215983,216076,216170,216264,216358,216451,216545,216639,216733,216826,216920,217014,217108,217201,217295,217389,217483,217576,217670,217764,217858,217951,218045,218139,218233,218326,218420,218514,218608,218701,218795,218889,218983,219076,219170,219264,219358,219451,219545,219639,219733,219826,219920,220014,220108,220201,220295,220389,220483,220576,220670,220764,220858,220951,221045,221139,221233,221326,221420,221514,221608,221701,221795,221889,221983,222076,222170,222264,222358,222451,222545,222639,222733,222826,222920,223014,223108,223201,223295,223389,223483,223576,223670,223764,223858,223951,224045,224139,224233,224326,224420,224514,224608,224701,224795,224889,224983,225076,225170,225264,225358,225451,225545,225639,225733,225826,225920,226014,226108,226201,226295,226389,226483,226576,226670,226764,226858,226951,227045,227139,227233,227326,227420,227514,227608,227701,227795,227889,227983,228076,228170,228264,228358,228451,228545,228639,228733,228826,228920,229014,229108,229201,229295,229389,229483,229576,229670,229764,229858,229951,230045,230139,230233,230326,230420,230514,230608,230701,230795,230889,230983,231076,231170,231264,231358,231451,231545,231639,231733,231826,231920,232014,232108,232201,232295,232389,232483,232576,232670,232764,232858,232951,233045,233139,233233,233326,233420,233514,233608,233701,233795,233889,233983,234076,234170,234264,234358,234451,234545,234639,234733,234826,234920,235014,235108,235201
DistanceSpacing: 3.6
BeatDivisor: 12
GridSize: 4
TimelineZoom: 3.299999

[Metadata]
Title:Jellyfish (feat. Roller girl)
TitleUnicode:ジェリーフィッシュ (feat. ローラーガール)
Artist:Yunomi
ArtistUnicode:Yunomi
Creator:HonKAn
Version:KAn
Source:
Tags:
BeatmapID:1616927
BeatmapSetID:768892

[Difficulty]
HPDrainRate:8
CircleSize:4
OverallDifficulty:8
ApproachRate:9.6
SliderMultiplier:1
SliderTickRate:1

[Events]
//Background and Video events
0,0,"68267330_p1_master1200.png",0,0
//Break Periods
//Storyboard Layer 0 (Background)
//Storyboard Layer 1 (Fail)
//Storyboard Layer 2 (Pass)
//Storyboard Layer 3 (Foreground)
//Storyboard Sound Samples

[TimingPoints]
358,375,4,2,1,50,1,0
358,-76.9230769230769,4,2,1,50,0,0
483,-76.9230769230769,4,2,1,5,0,0
545,-90.9090909090909,4,2,1,45,0,0
670,-90.9090909090909,4,2,1,5,0,0
733,-111.111111111111,4,2,1,38,0,0
858,-111.111111111111,4,2,1,5,0,0
920,-142.857142857143,4,2,1,31,0,0
1045,-142.857142857143,4,2,1,5,0,0
1108,-62.5,4,2,1,45,0,0
1139,-62.5,4,2,1,5,0,0
1483,-200,4,2,1,50,0,0
1576,-200,4,2,1,5,0,0
1670,-142.857142857143,4,2,1,45,0,0
1826,-52.6315789473684,4,2,1,5,0,0
1858,-52.6315789473684,4,2,1,50,0,0
2076,-52.6315789473684,4,2,1,5,0,0
2139,-35.7142857142857,4,2,1,35,0,0
2170,-35.7142857142857,4,2,1,25,0,0
2201,-35.7142857142857,4,2,1,40,0,0
2233,-52.6315789473684,4,2,1,50,0,0
2358,-52.6315789473684,4,2,1,5,0,0
2420,-71.4285714285714,4,2,1,40,0,0
2545,-71.4285714285714,4,2,1,5,0,0
2608,-83.3333333333333,4,2,1,45,0,0
2733,-83.3333333333333,4,2,1,5,0,0
2795,-125,4,2,1,35,0,0
2920,-125,4,2,1,5,0,0
2983,-62.5,4,2,1,45,0,0
3014,-62.5,4,2,1,5,0,0
3358,-76.9230769230769,4,2,1,50,0,0
3483,-76.9230769230769,4,2,1,5,0,0
3545,-90.9090909090909,4,2,1,45,0,0
3670,-90.9090909090909,4,2,1,5,0,0
3733,-111.111111111111,4,2,1,38,0,0
3858,-111.111111111111,4,2,1,5,0,0
3920,-142.857142857143,4,2,1,31,0,0
4045,-142.857142857143,4,2,1,5,0,0
4108,-62.5,4,2,1,45,0,0
4139,-62.5,4,2,1,5,0,0
4483,-200,4,2,1,50,0,0
4576,-200,4,2,1,25,0,0
4670,-142.857142857143,4,2,1,45,0,0
4826,-142.857142857143,4,2,1,5,0,0
4858,-62.5,4,2,1,50,0,0
5170,-62.5,4,2,1,5,0,0
5233,-100,4,2,1,35,0,0
5326,-100,4,2,1,45,0,0
5420,-71.4285714285714,4,2,1,50,0,0
5576,-71.4285714285714,4,2,1,5,0,0
5608,-83.3333333333333,4,2,1,40,0,0
5733,-83.3333333333333,4,2,1,5,0,0
5795,-125,4,2,1,35,0,0
5920,-125,4,2,1,5,0,0
5983,-62.5,4,2,1,45,0,0
6014,-62.5,4,2,1,5,0,0
6358,-76.9230769230769,4,2,1,50,0,0
6483,-76.9230769230769,4,2,1,5,0,0
6545,-90.9090909090909,4,2,1,45,0,0
6670,-90.9090909090909,4,2,1,5,0,0
6733,-111.111111111111,4,2,1,38,0,0
6858,-111.111111111111,4,2,1,5,0,0
6920,-142.857142857143,4,2,1,31,0,0
7045,-142.857142857143,4,2,1,5,0,0
7108,-62.5,4,2,1,45,0,0
7139,-62.5,4,2,1,5,0,0
7483,-200,4,2,1,50,0,0
7576,-200,4,2,1,5,0,0
7670,-142.857142857143,4,2,1,45,0,0
7826,-142.857142857143,4,2,1,5,0,0
7858,-52.6315789473684,4,2,1,50,0,0
8076,-52.6315789473684,4,2,1,5,0,0
8139,-35.7142857142857,4,2,1,35,0,0
8170,-35.7142857142857,4,2,1,25,0,0
8201,-35.7142857142857,4,2,1,40,0,0
8233,-52.6315789473684,4,2,1,50,0,0
8358,-52.6315789473684,4,2,1,5,0,0
8420,-71.4285714285714,4,2,1,40,0,0
8545,-71.4285714285714,4,2,1,5,0,0
8608,-83.3333333333333,4,2,1,45,0,0
8733,-83.3333333333333,4,2,1,5,0,0
8795,-125,4,2,1,35,0,0
8920,-125,4,2,1,5,0,0
8983,-62.5,4,2,1,45,0,0
9014,-62.5,4,2,1,5,0,0
9358,-55.5555555555556,4,2,1,50,0,0
9514,-55.5555555555556,4,2,1,5,0,0
9545,-100,4,2,1,30,0,0
9670,-100,4,2,1,5,0,0
9733,-52.6315789473684,4,2,1,40,0,0
9858,-52.6315789473684,4,2,1,5,0,0
9920,-52.6315789473684,4,2,1,40,0,0
10045,-52.6315789473684,4,2,1,5,0,0
10108,-62.5,4,2,1,50,0,0
10451,-62.5,4,2,1,5,0,0
10483,-50,4,2,1,50,0,0
10608,-50,4,2,1,5,0,0
10670,-58.8235294117647,4,2,1,30,0,0
10858,-33.3333333333333,4,2,1,50,0,0
11608,-33.3333333333333,4,2,1,5,0,0

[HitObjects]
312,160,358,6,0,P|340:172|356:172,1,43.3333313496908
412,184,545,2,0,P|384:186|372:192,1,36.6666677856446
308,256,733,2,0,P|327:259|338:268,1,29.9999990844727
400,296,920,2,0,P|388:297|380:304,1,23.3333326212565
324,368,1108,6,0,L|328:380,1,13.3333333333333
107,85,1483,6,0,L|93:81,1,12.5
192,100,1670,2,0,L|224:104,1,29.1666657765707
236,100,1858,2,0,B|260:92|276:96|292:104|292:104|292:104|292:104|312:112|336:112|352:96,1,110.833330373764
426,54,2139,6,0,P|429:39|436:23,2,23.3333326212565
435,86,2233,6,0,P|453:111|448:155,1,63.3333316421509
429,259,2420,2,0,P|421:232|431:208,1,46.6666652425131
512,155,2608,2,0,L|465:161,1,39.9999987792969
358,213,2795,2,0,L|387:216,1,26.6666666666667
478,281,2983,6,0,L|459:281,1,13.3333333333333
216,280,3358,6,0,P|224:256|224:232,1,43.3333313496908
200,172,3545,2,0,P|200:196|192:212,1,36.6666677856446
124,284,3733,2,0,P|130:267|124:251,1,29.9999990844727
80,180,3920,2,0,P|80:192|76:204,1,23.3333326212565
16,260,4108,6,0,L|-5:262,1,13.3333333333333
322,43,4483,6,0,L|310:42,1,12.5
392,87,4670,2,0,L|421:84,1,29.1666657765707
432,96,4858,2,0,B|416:98|404:110|404:110|427:111|439:116|439:116|470:113|470:113|506:118,1,133.333333333333
408,302,5233,5,0,0:0:0:0:
330,325,5326,1,0,0:0:0:0:
264,273,5420,2,0,P|253:250|258:211,1,58.3333315531413
258,212,5608,2,0,P|263:199|260:170,1,39.9999987792969
231,106,5795,2,0,P|226:91|230:76,1,26.6666666666667
267,13,5983,6,0,L|269:-10,1,13.3333333333333
276,163,6358,6,0,P|275:188|287:211,1,43.3333313496908
301,278,6545,2,0,L|307:236,1,36.6666677856446
424,172,6733,2,0,P|425:189|415:200,1,29.9999990844727
382,258,6920,2,0,L|385:233,1,23.3333326212565
357,337,7108,6,0,L|359:352,1,13.3333333333333
67,210,7483,6,0,L|53:212,1,12.5
89,136,7670,2,0,P|78:133|60:135,1,29.1666657765707
49,145,7858,2,0,B|73:137|89:141|105:149|105:149|105:149|105:149|125:157|149:157|165:141,1,110.833330373764
226,195,8139,6,0,P|221:210|224:220,2,23.3333326212565
245,170,8233,6,0,P|276:153|309:159,1,63.3333316421509
419,193,8420,2,0,P|388:196|372:207,1,46.6666652425131
282,268,8608,2,0,P|310:267|324:278,1,39.9999987792969
414,306,8795,2,0,P|401:306|388:319,1,26.6666666666667
326,371,8983,6,0,L|330:396,1,13.3333333333333
175,158,9358,6,0,P|155:121|164:89,1,74.9999977111817
171,64,9545,2,0,L|164:28,1,33.3333333333333
243,103,9733,6,0,P|270:88|312:93,1,63.3333316421509
123,149,9920,2,0,P|97:131|55:131,1,63.3333316421509
213,212,10108,2,0,B|240:246|226:285|226:285|210:320|236:356,1,146.666666666667
247,358,10483,6,0,P|258:321|241:292,1,66.6666666666667
177,269,10670,1,0,0:0:0:0:
452,196,10858,6,0,B|426:254|359:261|327:253|311:249|281:226|281:226|278:225|278:225|280:227|280:227|282:223|282:223|280:227|280:227|282:223|282:223|282:223|282:223|279:226|279:226|281:222|281:222|279:225|279:225|281:222|281:222|278:226|278:226|281:222|281:222|279:224|279:224|280:222|280:222|279:225|279:225|280:222|280:222|279:226|279:226|282:222|282:222|279:225|279:225|282:224|282:224|280:226|280:226|281:223|281:223|279:226|279:226|282:223|282:223|279:225|279:225|282:222|282:222|279:225|279:225|281:223|281:223|279:225|279:225|281:222|281:222|279:225|279:225|281:223|281:223|278:225|278:225|281:223|281:223|279:226|279:226|281:223|281:223|279:226|279:226|281:222|281:222|279:225|279:225|280:224|280:224|279:226|279:226|281:223|279:225|279:225|280:223|280:223|279:224|279:224|280:223|280:223|280:226|280:226|280:223|280:223|279:225|279:225|280:223|280:223|279:224|279:224|280:223|280:223|279:224|279:224|279:223|279:223|279:225|279:225|280:222|280:222|279:224|279:224|280:223|280:223|279:225|279:225|279:223|279:223|279:224|279:224|281:223|281:223|278:225|278:225|280:224|280:224|279:225|279:225|282:223|282:223|280:225|280:225|279:225|279:225|282:224|282:224|279:225|279:225|279:223|279:223|278:225|278:225|279:224|279:224|279:225|279:225|279:223|279:223|282:225|282:225|279:226|279:226|279:224|279:224|279:225|279:225|280:224|280:224|279:224|279:224|279:224|279:224|279:224|279:224|279:225|279:225|280:224|280:224|278:224|278:224|279:224|279:224|278:225|278:225|278:225|278:225|279:224|279:224|278:224|278:224|277:225|277:225|277:225|277:225|278:225|278:225|277:227|277:227|277:225|277:225|278:224|278:224|279:225|279:225|278:224|278:224|279:225|279:225|278:224|278:224|279:224|279:224|281:222|281:222|276:225|276:225|277:224|277:224|278:224|278:224|281:224|281:224|279:224|279:224|278:223|278:223|278:223|278:223|277:223|277:223|279:224|279:224|279:223|279:223|279:224|279:224|283:225|283:225|278:223|278:223|278:224|278:224|279:224|279:224|278:224|278:224|278:224|278:224|278:224|278:224|279:224|279:224|279:224|279:224|278:223|278:223|280:222|280:222|277:224|277:224|279:224|279:224|278:224|278:224|278:225|278:225|279:225|279:225|280:224|280:224|278:224|278:224|277:224|277:224|277:224|277:224|277:224|277:224|278:224|278:224|278:224|278:224|278:225|278:225|278:224|278:224|277:223|277:223|278:223|278:223|277:223|277:223|278:223|278:223|277:223|277:223|279:223|279:223|281:221|281:221|278:223|278:223|280:223|280:223|278:223|278:223|280:222|280:222|277:223|277:223|281:222|281:222|279:222|279:222|277:222|277:222|280:222|280:222|276:222|276:222|278:222|278:222|279:222|279:222|279:222|279:222|279:223|279:223|278:222|278:222|278:224|278:224|277:223|277:223|279:223|279:223|280:225|280:225|276:221|281:222|281:222|278:222|278:222|279:223|279:223|278:223|278:223|279:224|279:224|277:222|277:222|277:222|277:222|277:222|277:222|280:222|280:222|279:223|279:223|280:223|280:223|276:222|276:222|277:220|277:220|280:223|280:223|281:225|281:225|279:223|279:223|263:210|249:212|233:221,1,625.000023841859
