osu file format v14

[General]
AudioFilename: audio.mp3
AudioLeadIn: 0
PreviewTime: 41874
Countdown: 0
SampleSet: None
StackLeniency: 0.2
Mode: 0
LetterboxInBreaks: 0
WidescreenStoryboard: 0

[Editor]
Bookmarks: 14483,28396,56222,70135,84048,97961,111874,118830,125787,132743,139700,167526
DistanceSpacing: 1.3
BeatDivisor: 8
GridSize: 32
TimelineZoom: 1.7

[Metadata]
Title:Game Over
TitleUnicode:ゲームオーバ
Artist:Yunomi
ArtistUnicode:Yunomi
Creator:Scarsnic
Version:
Source:
Tags:
BeatmapID:2059028
BeatmapSetID:984083

[Difficulty]
HPDrainRate:5.5
CircleSize:4
OverallDifficulty:8.3
ApproachRate:9.6
SliderMultiplier:3
SliderTickRate:1

[Events]
//Background and Video events
0,0,"fdsfdsafdgdfgfdg.jpg",0,0
//Break Periods
2,70335,76566
//Storyboard Layer 0 (Background)
//Storyboard Layer 1 (Fail)
//Storyboard Layer 2 (Pass)
//Storyboard Layer 3 (Foreground)
//Storyboard Sound Samples

[TimingPoints]
570,434.782608695652,4,2,1,45,1,0
570,-125,4,2,1,45,0,0
3069,-125,4,2,1,5,0,0
3178,-125,4,2,1,45,0,0
3939,-125,4,2,1,5,0,0
4048,-125,4,2,1,45,0,0
5787,-100,4,2,1,45,0,0
6330,-125,4,2,1,45,0,0
6874,-71.4285714285714,4,2,1,45,0,0
6983,-71.4285714285714,4,2,1,5,0,0
7091,-71.4285714285714,4,2,1,45,0,0
7200,-71.4285714285714,4,2,1,5,0,0
7309,-71.4285714285714,4,2,1,45,0,0
7417,-71.4285714285714,4,2,1,5,0,0
7526,-125,4,2,1,50,0,0
9265,-83.3333333333333,4,2,1,50,0,0
9591,-125,4,2,1,50,0,0
10352,-71.4285714285714,4,2,1,50,0,0
10461,-71.4285714285714,4,2,1,5,0,0
10461,-71.4285714285714,4,2,1,5,0,0
10461,-71.4285714285714,4,2,1,5,0,0
10569,-71.4285714285714,4,2,1,50,0,0
10678,-71.4285714285714,4,2,1,5,0,0
10787,-71.4285714285714,4,2,1,50,0,0
10896,-71.4285714285714,4,2,1,5,0,0
11004,-125,4,2,1,55,0,0
12743,-71.4285714285714,4,2,1,55,0,0
13178,-125,4,2,1,55,0,0
13830,-71.4285714285714,4,2,1,55,0,0
13939,-71.4285714285714,4,2,1,5,0,0
14048,-71.4285714285714,4,2,1,55,0,0
14156,-71.4285714285714,4,2,1,5,0,0
14265,-71.4285714285714,4,2,1,55,0,0
14374,-71.4285714285714,4,2,1,5,0,0
14483,-100,4,2,1,55,0,0
16222,-71.4285714285714,4,2,1,55,0,0
16656,-100,4,2,1,55,0,0
17309,-71.4285714285714,4,2,1,55,0,0
17417,-71.4285714285714,4,2,1,5,0,0
17526,-71.4285714285714,4,2,1,55,0,0
17635,-71.4285714285714,4,2,1,5,0,0
17743,-71.4285714285714,4,2,1,55,0,0
17852,-71.4285714285714,4,2,1,5,0,0
17961,-100,4,2,1,55,0,0
19700,-71.4285714285714,4,2,1,55,0,0
20135,-100,4,2,1,55,0,0
20787,-71.4285714285714,4,2,1,55,0,0
20896,-71.4285714285714,4,2,1,5,0,0
21004,-71.4285714285714,4,2,1,55,0,0
21113,-71.4285714285714,4,2,1,5,0,0
21222,-71.4285714285714,4,2,1,55,0,0
21330,-71.4285714285714,4,2,1,5,0,0
21439,-100,4,2,1,55,0,0
24265,-200,4,2,1,55,0,0
24374,-200,4,2,1,5,0,0
24483,-200,4,2,1,55,0,0
24591,-200,4,2,1,5,0,0
24700,-200,4,2,1,55,0,0
24809,-200,4,2,1,5,0,0
24917,-200,4,2,1,55,0,0
28396,-76.9230769230769,4,3,1,55,0,0
34483,-100,4,3,1,55,0,0
34917,-200,4,3,1,55,0,0
35352,-76.9230769230769,4,3,1,55,0,0
42091,-90.9090909090909,4,1,1,45,0,0
44700,-62.5,4,2,1,45,0,0
44917,-90.9090909090909,4,1,1,45,0,0
51656,-62.5,4,1,1,45,0,0
51874,-90.9090909090909,4,1,1,45,0,0
58613,-62.5,4,1,1,45,0,0
58830,-90.9090909090909,4,1,1,45,0,0
66656,-333.333333333333,4,1,1,45,0,0
82309,-100,4,1,1,45,0,0
82526,-333.333333333333,4,1,1,45,0,0
82635,-100,4,1,1,45,0,0
83178,-250,4,1,1,45,0,0
83504,-250,4,1,1,5,0,0
83613,-250,4,1,1,45,0,0
83939,-250,4,1,1,5,0,0
84048,-76.9230769230769,4,3,1,55,0,0
89265,-62.5,4,3,1,45,0,0
90569,-76.9230769230769,4,3,1,55,0,0
104483,-333.333333333333,4,3,1,55,0,0
104809,-333.333333333333,4,3,1,5,0,0
104917,-76.9230769230769,4,3,1,55,0,0
111874,-100,4,2,1,55,0,0
112091,-142.857142857143,4,2,1,55,0,0
118830,-90.9090909090909,4,1,1,55,0,0
122309,-333.333333333333,4,1,1,55,0,0
125787,-142.857142857143,4,1,1,55,0,0
138903,-142.857142857143,4,1,1,5,0,0
138975,-142.857142857143,4,1,1,55,0,0
139048,-142.857142857143,4,1,1,5,0,0
139120,-142.857142857143,4,1,1,55,0,0
139193,-142.857142857143,4,1,1,5,0,0
139265,-83.3333333333333,4,1,1,55,0,0
139700,-66.6666666666667,4,2,1,55,0,1
140026,-66.6666666666667,4,2,1,5,0,1
140135,-142.857142857143,4,2,1,55,0,1
143178,-66.6666666666667,4,2,1,55,0,1
143504,-66.6666666666667,4,2,1,5,0,1
143613,-142.857142857143,4,2,1,55,0,1
146439,-66.6666666666667,4,2,1,55,0,1
146548,-66.6666666666667,4,2,1,5,0,1
146656,-66.6666666666667,4,2,1,55,0,1
146983,-66.6666666666667,4,2,1,5,0,1
147091,-142.857142857143,4,2,1,40,0,1
147309,-250.000000000001,4,2,1,40,0,1
147526,-142.857142857143,4,2,1,55,0,1
147961,-142.857142857143,4,2,1,70,0,1
148178,-100,4,2,1,70,0,1
148396,-50,4,2,1,95,0,1
148450,-50,4,2,1,5,0,1
148613,-142.857142857143,4,2,1,55,0,1
149048,-142.857142857143,4,2,1,40,0,1
149265,-142.857142857143,4,2,1,70,0,1
149700,-142.857142857143,4,2,1,55,0,1
150135,-100,4,2,1,55,0,1
151548,-333.333333333333,4,2,1,55,0,1
151602,-333.333333333333,4,2,1,5,0,1
151656,-333.333333333333,4,2,1,55,0,1
151711,-333.333333333333,4,2,1,5,0,1
151765,-333.333333333333,4,2,1,55,0,1
151819,-333.333333333333,4,2,1,5,0,1
151874,-66.6666666666667,4,2,1,55,0,1
152200,-66.6666666666667,4,2,1,5,0,1
152309,-142.857142857143,4,2,1,55,0,1
153178,-285.714285714286,4,2,1,55,0,1
153613,-66.6666666666667,4,2,1,55,0,1
154048,-142.857142857143,4,2,1,55,0,1
156874,-66.6666666666667,4,2,1,55,0,1
156983,-66.6666666666667,4,2,1,5,0,1
156983,-66.6666666666667,4,2,1,5,0,1
157091,-66.6666666666667,4,2,1,55,0,1
157417,-66.6666666666667,4,2,1,5,0,1
157526,-142.857142857143,4,2,1,55,0,1
160352,-66.6666666666667,4,2,1,55,0,1
160461,-66.6666666666667,4,2,1,5,0,1
160569,-66.6666666666667,4,2,1,55,0,1
160678,-66.6666666666667,4,2,1,5,0,1
160787,-333.333333333333,4,2,1,55,0,1
160841,-66.6666666666667,4,2,1,5,0,1
160896,-333.333333333333,4,2,1,55,0,1
160950,-66.6666666666667,4,2,1,5,0,1
161004,-80,4,2,1,55,0,1
161330,-142.857142857143,4,2,1,55,0,1
162309,-66.6666666666667,4,2,1,55,0,1
162635,-142.857142857143,4,2,1,55,0,1
163613,-66.6666666666667,4,2,1,55,0,1
164374,-66.6666666666667,4,2,1,5,0,1
164483,-142.857142857143,4,2,1,55,0,1
165787,-83.3333333333333,4,2,1,55,0,1
166222,-100,4,2,1,55,0,1
166656,-200,4,2,1,55,0,1
167526,-100,4,2,1,45,0,0

[Colours]
Combo1 : 210,0,0
Combo2 : 170,85,0
Combo3 : 119,0,0
Combo4 : 255,128,64

[HitObjects]
125,155,570,6,0,L|244:144,1,120,4|0,0:0|0:0,0:0:0:0:
300,214,896,1,0,0:0:0:0:
315,205,1004,2,0,L|434:215,1,120
490,280,1330,1,0,0:0:0:0:
505,271,1439,1,0,0:0:0:0:
365,310,1656,1,0,0:0:0:0:
481,141,1874,1,0,0:0:0:0:
469,134,1983,1,0,0:0:0:0:
457,127,2091,2,0,L|397:132,1,60
245,144,2309,5,0,0:0:0:0:
355,300,2526,1,0,0:0:0:0:
160,325,2743,2,0,B|138:276|138:276|149:150,1,180
175,74,3178,1,0,0:0:0:0:
245,144,3396,1,0,0:0:0:0:
333,99,3613,1,0,0:0:0:0:
402,168,3830,2,0,P|430:162|442:136,1,60
256,25,4048,6,0,L|245:144,1,120,6|2,0:0|0:0,0:0:0:0:
237,228,4374,1,2,0:0:0:0:
236,238,4428,1,2,0:0:0:0:
235,248,4483,2,0,L|240:307,1,60,2|2,0:0|0:0,0:0:0:0:
320,309,4700,2,0,L|314:368,1,60,2|0,0:0|0:0,0:0:0:0:
143,365,4917,5,2,0:0:0:0:
97,347,5026,1,2,0:0:0:0:
50,361,5135,1,2,0:0:0:0:
54,312,5243,1,2,0:0:0:0:
36,266,5352,2,0,P|48:240|70:218,1,60,2|0,0:0|0:0,0:0:0:0:
79,106,5569,2,0,P|50:106|22:117,1,60,2|0,0:0|0:0,0:0:0:0:
187,218,5787,6,0,B|165:177|165:177|174:73,2,150,4|0|2,0:0|0:0|0:0,0:0:0:0:
300,195,6330,1,2,0:0:0:0:
315,155,6439,2,0,L|255:160,1,60,2|0,0:0|0:0,0:0:0:0:
395,251,6656,1,2,0:0:0:0:
420,245,6765,1,2,0:0:0:0:
445,239,6874,6,0,B|450:181|450:181|419:145,1,104.999996795654,0|0,1:1|1:1,1:1:0:0:
315,155,7091,2,0,L|419:145,1,104.999996795654,0|0,1:1|1:1,1:1:0:0:
425,325,7309,2,0,B|367:330|367:330|331:299,1,104.999996795654,0|0,1:1|1:1,1:1:0:0:
165,325,7526,6,0,L|171:265,1,60,2|0,0:0|0:0,0:0:0:0:
203,145,7743,1,2,0:0:0:0:
227,135,7852,1,2,0:0:0:0:
130,200,7961,1,2,0:0:0:0:
70,155,8069,1,2,0:0:0:0:
1,184,8178,2,0,L|6:244,1,60,2|0,0:0|0:0,0:0:0:0:
15,340,8396,5,2,0:0:0:0:
30,350,8504,2,0,B|47:357|47:357|88:353,1,60,2|0,0:0|0:0,0:0:0:0:
171,265,8722,1,2,0:0:0:0:
186,255,8830,2,0,B|203:247|203:247|244:251,1,60,2|0,0:0|0:0,0:0:0:0:
378,343,9048,1,2,0:0:0:0:
378,343,9265,6,0,P|400:268|322:264,1,179.999994506836,4|2,0:0|0:0,0:0:0:0:
277,335,9591,1,2,0:0:0:0:
244,251,9700,1,2,0:0:0:0:
280,168,9809,1,2,0:0:0:0:
246,83,9917,2,0,L|175:86,1,60,2|0,0:0|0:0,0:0:0:0:
45,87,10135,1,2,0:0:0:0:
70,93,10244,1,2,0:0:0:0:
95,99,10353,6,0,P|102:149|72:191,1,104.999996795654,0|0,1:1|1:1,1:1:0:0:
5,215,10569,2,0,P|52:234|74:280,1,104.999996795654,0|0,1:1|1:1,1:1:0:0:
71,368,10787,2,0,P|93:322|141:303,1,104.999996795654,0|0,1:1|1:1,1:1:0:0:
230,280,11004,6,0,L|110:268,1,120,6|0,0:0|0:0,0:0:0:0:
72,191,11330,1,2,0:0:0:0:
82,190,11384,1,2,0:0:0:0:
92,189,11439,2,0,L|151:194,1,60,2|2,0:0|0:0,0:0:0:0:
244,251,11656,2,0,L|303:245,1,60,2|2,0:0|0:0,0:0:0:0:
375,187,11874,5,2,0:0:0:0:
365,155,11983,1,2,0:0:0:0:
265,70,12091,1,2,0:0:0:0:
340,85,12200,1,2,0:0:0:0:
415,100,12309,2,0,L|474:94,1,60,2|0,0:0|0:0,0:0:0:0:
285,175,12526,2,0,L|225:169,1,60,2|0,0:0|0:0,0:0:0:0:
65,124,12743,6,0,B|142:119|193:201|193:201|196:105|265:70,1,314.999990386963,4|0,0:0|0:0,0:0:0:0:
343,235,13178,1,2,0:0:0:0:
285,175,13287,1,2,0:0:0:0:
365,155,13396,2,0,L|424:160,1,60,2|0,0:0|0:0,0:0:0:0:
437,260,13613,1,2,0:0:0:0:
480,105,13722,1,2,0:0:0:0:
490,95,13830,6,0,B|508:132|508:132|503:195,1,104.999996795654,0|0,1:1|1:1,1:1:0:0:
428,263,14048,2,0,B|431:222|431:222|421:197|421:197|424:160,1,104.999996795654,0|0,1:1|1:1,1:1:0:0:
343,235,14265,2,0,B|339:275|339:275|349:300|349:300|346:337,1,104.999996795654,0|0,1:1|1:1,1:1:0:0:
190,76,14483,6,0,L|264:69,1,75,12|0,0:0|0:0,0:0:0:0:
435,35,14700,1,0,0:0:0:0:
455,30,14809,1,0,0:0:0:0:
320,11,14917,5,8,0:0:0:0:
360,105,15026,1,0,0:0:0:0:
285,175,15135,2,0,L|210:168,1,75
60,75,15352,1,8,0:0:0:0:
52,57,15461,2,0,P|73:29|105:44,1,75
155,235,15678,5,8,0:0:0:0:
130,135,15787,2,0,P|95:138|90:172,1,75
40,320,16004,2,0,P|74:316|79:282,1,75,8|0,0:0|0:0,0:0:0:0:
221,169,16222,6,0,P|242:267|163:328,1,209.999993591309,4|0,0:0|0:0,0:0:0:0:
155,235,16548,1,0,0:0:0:0:
265,69,16656,5,8,0:0:0:0:
299,145,16765,1,0,0:0:0:0:
333,221,16874,2,0,B|364:218|364:218|403:198,2,75,0|0|8,0:0|0:0|0:0,0:0:0:0:
380,75,17200,1,0,0:0:0:0:
395,65,17309,6,0,L|404:169,1,104.999996795654,0|8,0:0|0:0,0:0:0:0:
440,310,17526,2,0,P|390:295|342:314,1,104.999996795654,4|0,0:0|0:0,0:0:0:0:
230,375,17743,2,0,L|239:270,1,104.999996795654,8|0,0:0|0:0,0:0:0:0:
188,90,17961,6,0,P|160:156|89:172,1,150,12|2,0:0|0:0,0:0:0:0:
35,250,18287,1,2,0:0:0:0:
45,249,18341,1,2,0:0:0:0:
54,246,18396,2,0,P|89:256|127:253,1,75,10|2,0:0|0:0,0:0:0:0:
235,190,18613,2,0,P|272:187|308:197,1,75,2|2,0:0|0:0,0:0:0:0:
395,330,18831,5,8,0:0:0:0:
410,345,18940,1,0,0:0:0:0:
393,226,19048,5,0,0:0:0:0:
325,290,19157,1,8,0:0:0:0:
415,316,19266,2,0,L|489:311,1,75,8|0,0:0|0:0,0:0:0:0:
257,354,19483,2,0,L|182:347,1,75
80,255,19700,6,0,B|56:215|64:171|64:171|12:219|32:275|32:275|48:331|2:376,1,314.999990386963,12|0,0:0|0:0,0:0:0:0:
182,347,20135,5,8,0:0:0:0:
174,271,20244,1,0,0:0:0:0:
165,194,20353,2,0,L|239:187,1,75
330,180,20569,1,8,0:0:0:0:
235,90,20679,1,0,0:0:0:0:
225,80,20787,6,0,P|230:31|278:24,1,104.999996795654,0|0,1:1|1:1,1:1:0:0:
390,120,21004,2,0,P|344:138|315:98,1,104.999996795654,4|0,1:3|1:1,1:1:0:0:
485,45,21222,2,0,P|455:5|410:23,1,104.999996795654,0|0,1:1|1:1,1:1:0:0:
459,226,21439,5,8,0:0:0:0:
344,269,21656,1,8,0:0:0:0:
423,305,21874,1,8,0:0:0:0:
274,319,22091,1,8,0:0:0:0:
240,188,22309,1,8,0:0:0:0:
138,356,22526,5,8,0:0:0:0:
118,286,22634,1,8,0:0:0:0:
189,304,22743,1,8,0:0:0:0:
0,365,22961,1,8,0:0:0:0:
330,180,23178,5,8,0:0:0:0:
240,188,23396,1,8,0:0:0:0:
169,228,23613,1,8,0:0:0:0:
260,120,23830,1,8,0:0:0:0:
226,45,24048,1,8,0:0:0:0:
140,130,24265,6,0,L|177:133,1,37.5,0|0,1:0|1:0,1:0:0:0:
260,120,24483,2,0,L|297:116,1,37.5,0|0,1:0|1:0,1:0:0:0:
380,130,24700,2,0,L|417:133,1,37.5,0|0,1:0|1:0,1:0:0:0:
495,230,24917,5,4,0:2:0:0:
445,285,25026,1,4,0:2:0:0:
371,288,25135,1,4,0:2:0:0:
317,238,25243,1,4,0:2:0:0:
246,222,25352,2,0,L|244:203,1,18.75,4|4,0:2|0:2,0:0:0:0:
242,242,25461,1,4,0:2:0:0:
238,262,25569,1,4,0:2:0:0:
256,192,25624,12,8,26656,0:1:0:0:
350,115,27091,5,0,0:0:0:0:
330,195,27200,1,0,0:0:0:0:
259,237,27309,1,0,0:0:0:0:
179,216,27417,1,0,0:0:0:0:
245,125,27526,6,0,P|229:102|205:87,2,56.25
125,145,27961,2,0,L|107:127,1,25,4|0,0:2|0:0,0:0:0:0:
35,80,28106,2,0,L|52:62,1,25
30,175,28251,2,0,L|12:192,1,25
20,365,28396,5,4,0:0:0:0:
112,272,28504,2,0,L|209:280,1,97.4999955368044,4|0,0:0|0:0,0:0:0:0:
310,295,28722,1,4,0:0:0:0:
295,119,28830,1,8,0:0:0:0:
265,125,28939,2,0,P|241:167|248:214,1,97.4999955368044,4|0,0:0|0:0,0:0:0:0:
392,274,29156,1,4,0:0:0:0:
386,128,29265,2,0,B|389:95|368:64|368:64|381:37,1,97.4999955368044,4|0,0:0|0:0,0:0:0:0:
265,125,29483,6,0,L|457:157,1,194.999991073609,4|8,0:0|0:0,0:0:0:0:
457,157,29809,2,0,P|480:199|473:246,1,97.4999955368044
392,274,30026,1,0,0:0:0:0:
275,40,30135,5,4,0:0:0:0:
256,28,30244,2,0,L|264:125,1,97.4999955368044,4|0,0:0|0:0,0:0:0:0:
104,175,30461,2,0,L|112:272,1,97.4999955368044,4|8,0:0|0:0,0:0:0:0:
0,40,30678,1,4,0:0:0:0:
15,30,30896,5,4,0:0:0:0:
0,165,31004,2,0,B|58:159|58:159|113:139|113:139|189:152,2,194.999991073609,4|4|8,0:0|0:0|0:0,0:0:0:0:
10,270,31548,1,0,0:0:0:0:
0,285,31765,1,0,0:0:0:0:
225,300,31874,5,4,0:0:0:0:
210,281,31983,2,0,L|112:272,1,97.4999955368044,4|0,0:0|0:0,0:0:0:0:
310,355,32200,2,0,B|316:282|316:282|302:262,1,97.4999955368044,4|8,0:0|0:0,0:0:0:0:
420,300,32417,2,0,B|413:227|413:227|396:209,1,97.4999955368044,4|0,0:0|0:0,0:0:0:0:
300,95,32635,1,4,0:0:0:0:
220,190,32743,2,0,L|317:182,1,97.4999955368044,4|0,0:0|0:0,0:0:0:0:
455,35,32961,6,0,P|465:119|380:114,1,194.999991073609,4|8,0:0|0:0,0:0:0:0:
500,20,33287,2,0,L|494:117,1,97.4999955368044
490,215,33504,1,0,0:0:0:0:
300,95,33613,5,8,0:2:0:0:
210,281,33722,2,0,L|113:272,1,97.4999955368044,8|0,0:2|0:0,0:0:0:0:
132,84,33939,1,4,0:0:0:0:
123,181,34048,1,8,0:0:0:0:
220,190,34156,2,0,L|317:198,1,97.4999955368044,4|0,0:0|0:0,0:0:0:0:
398,208,34374,1,4,0:0:0:0:
311,322,34483,6,0,P|294:294|325:290,1,75,4|0,0:0|0:0,0:0:0:0:
435,350,34700,2,0,P|460:330|432:315,1,75
490,215,34917,1,2,0:0:0:0:
481,197,35026,2,0,L|443:200,1,37.5,0|0,0:0|0:0,0:0:0:0:
325,185,35243,1,0,0:0:0:0:
165,250,35352,5,4,0:0:0:0:
305,160,35460,2,0,L|296:62,1,97.4999955368044,4|0,0:0|0:0,0:0:0:0:
195,115,35678,1,4,0:0:0:0:
400,0,35787,1,8,0:0:0:0:
383,15,35896,2,0,L|391:111,1,97.4999955368044,4|0,0:0|0:0,0:0:0:0:
398,208,36112,1,4,0:0:0:0:
305,160,36221,2,0,B|260:148|260:148|210:160,1,97.4999955368044,4|0,0:0|0:0,0:0:0:0:
180,310,36439,6,0,L|195:115,1,194.999991073609,4|8,0:0|0:0,0:0:0:0:
195,116,36765,2,0,L|101:142,1,97.4999955368044
101,142,36982,1,0,0:0:0:0:
115,40,37091,1,4,0:0:0:0:
161,212,37199,2,0,P|119:233|70:231,1,97.4999955368044,4|0,0:0|0:0,0:0:0:0:
213,25,37417,2,0,P|256:46|282:87,1,97.4999955368044,4|8,0:0|0:0,0:0:0:0:
265,245,37634,1,4,0:0:0:0:
255,265,37852,5,4,0:0:0:0:
167,152,37961,2,0,B|204:157|237:135|237:135|269:113|308:126|308:126|283:88,2,194.999991073609,4|4|8,0:0|0:0|0:0,0:0:0:0:
85,100,38504,1,0,0:0:0:0:
95,80,38721,1,0,0:0:0:0:
35,235,38830,5,4,0:0:0:0:
1,25,38939,1,4,0:0:0:0:
15,10,39156,2,0,L|23:107,1,97.4999955368044,4|8,0:0|0:0,0:0:0:0:
70,225,39374,2,0,L|167:233,1,97.4999955368044,4|0,0:0|0:0,0:0:0:0:
275,140,39591,1,4,0:0:0:0:
330,215,39699,2,0,B|328:234|328:234|336:247|336:247|335:261,2,48.7499977684022,4|0|0,0:0|0:0|0:0,0:0:0:0:
245,120,39917,6,0,B|318:130|318:130|353:102|353:102|428:113,1,194.999991073609,4|8,0:0|0:0,0:0:0:0:
505,210,40243,2,0,L|408:196,1,97.4999955368044
295,50,40460,1,0,0:0:0:0:
245,240,40569,5,4,0:0:0:0:
130,95,40678,2,0,L|227:103,1,97.4999955368044,4|0,0:0|0:0,0:0:0:0:
429,114,40895,1,4,0:0:0:0:
330,215,41004,1,8,0:0:0:0:
496,307,41112,2,0,L|505:209,1,97.4999955368044,4|0,0:0|0:0,0:0:0:0:
510,10,41330,1,4,0:0:0:0:
495,25,41439,2,0,L|397:15,1,97.4999955368044,4|0,0:0|0:0,0:0:0:0:
246,45,41656,2,0,L|294:49,2,48.7499977684022
130,95,41874,1,0,0:0:0:0:
275,320,42091,5,0,0:0:0:0:
205,255,42200,1,0,0:0:0:0:
299,213,42309,2,0,L|292:295,1,82.5000025177003,4|0,0:0|0:0,0:0:0:0:
181,363,42526,5,0,0:0:0:0:
110,297,42635,1,0,0:0:0:0:
205,255,42744,2,0,L|198:337,1,82.5000025177003,4|0,0:0|0:0,0:0:0:0:
40,225,42961,1,4,0:0:0:0:
115,195,43069,1,0,0:0:0:0:
12,227,43178,6,0,P|50:159|127:170,1,165.000005035401,0|4,0:0|0:0,0:0:0:0:
155,80,43504,1,0,0:0:0:0:
215,180,43613,2,0,L|297:172,1,82.5000025177003,4|0,0:0|0:0,0:0:0:0:
405,87,43830,1,0,0:0:0:0:
430,81,43939,1,0,0:0:0:0:
381,174,44048,5,4,0:0:0:0:
406,180,44157,1,0,0:0:0:0:
340,255,44265,1,0,0:0:0:0:
435,260,44374,1,4,0:0:0:0:
505,196,44483,2,0,L|496:113,1,82.5000025177003,4|0,0:0|0:0,0:0:0:0:
280,70,44700,2,0,P|319:97|316:49,1,120,4|0,0:0|0:0,0:0:0:0:
205,0,44917,1,0,0:0:0:0:
13,228,45135,1,4,0:0:0:0:
13,228,45352,1,4,0:0:0:0:
255,281,45569,5,0,0:0:0:0:
187,228,45678,1,0,0:0:0:0:
115,277,45787,2,0,B|116:255|116:255|112:224|112:224|115:195,1,82.5000025177003,4|0,0:0|0:0,0:0:0:0:
145,65,46004,5,0,0:0:0:0:
77,118,46113,1,0,0:0:0:0:
5,69,46222,2,0,B|6:90|6:90|2:121|2:121|5:150,1,82.5000025177003,4|0,0:0|0:0,0:0:0:0:
219,90,46439,2,0,B|222:61|222:61|218:30|218:30|220:9,1,82.5000025177003,4|0,0:0|0:0,0:0:0:0:
215,205,46656,1,0,0:0:0:0:
187,228,46874,6,0,L|286:236,1,82.5000025177003,4|0,0:0|0:0,0:0:0:0:
429,223,47091,1,4,0:0:0:0:
349,229,47200,1,0,0:0:0:0:
393,295,47309,1,0,0:0:0:0:
314,301,47417,1,0,0:0:0:0:
305,164,47526,6,0,L|469:149,1,165.000005035401,4|0,0:0|0:0,0:0:0:0:
230,140,47852,1,0,0:0:0:0:
345,85,47961,2,0,L|509:70,1,165.000005035401,4|0,0:0|0:0,0:0:0:0:
510,70,48396,1,0,0:0:0:0:
220,9,48613,1,4,0:0:0:0:
220,9,48830,1,4,0:0:0:0:
96,206,49048,5,0,0:0:0:0:
182,212,49157,1,0,0:0:0:0:
230,140,49266,2,0,P|191:126|150:131,1,82.5000025177003,4|0,0:0|0:0,0:0:0:0:
10,150,49483,5,0,0:0:0:0:
4,64,49592,1,0,0:0:0:0:
76,16,49701,2,0,P|89:54|84:95,1,82.5000025177003,4|0,0:0|0:0,0:0:0:0:
55,301,49917,2,0,B|75:278|75:278|126:272,1,82.5000025177003,4|0,0:0|0:0,0:0:0:0:
11,299,50135,2,0,B|51:253|51:253|154:242,1,165.000005035401,4|4,0:0|0:0,0:0:0:0:
200,170,50461,1,0,0:0:0:0:
239,245,50569,1,8,0:2:0:0:
285,173,50678,1,0,0:0:0:0:
245,97,50787,5,0,0:0:0:0:
331,101,50896,1,0,0:0:0:0:
292,25,51004,2,0,L|209:32,1,82.5000025177003,4|0,0:0|0:0,0:0:0:0:
34,203,51222,1,0,0:0:0:0:
40,110,51331,1,4,0:0:0:0:
117,162,51439,2,0,L|199:169,1,82.5000025177003,4|0,0:0|0:0,0:0:0:0:
320,315,51657,2,0,B|330:328|330:328|326:291|326:291|337:248|337:248|321:262,1,120,4|0,0:0|0:0,0:0:0:0:
285,173,51874,1,0,0:0:0:0:
120,355,52091,5,4,0:0:0:0:
154,242,52309,1,4,0:0:0:0:
188,129,52526,1,0,0:0:0:0:
335,240,52743,6,0,L|170:254,1,165.000005035401,4|0,0:0|0:0,0:0:0:0:
275,155,53069,1,4,0:0:0:0:
360,255,53178,2,0,L|195:269,1,165.000005035401,4|4,0:0|0:0,0:0:0:0:
195,269,53613,1,0,0:0:0:0:
255,67,53830,5,4,0:0:0:0:
360,255,54048,1,4,0:0:0:0:
405,120,54265,1,0,0:0:0:0:
111,182,54483,6,0,B|83:134|104:90|104:90|82:63|82:63|116:60,1,165.000005035401,4|0,0:0|0:0,0:0:0:0:
187,129,54809,1,4,0:0:0:0:
95,205,54917,2,0,B|67:157|88:113|88:113|66:86|66:86|100:83,1,165.000005035401,4|4,0:0|0:0,0:0:0:0:
322,189,55352,5,0,0:2:0:0:
251,166,55461,1,0,0:2:0:0:
251,91,55569,1,0,0:2:0:0:
322,68,55678,1,0,0:2:0:0:
365,128,55787,1,0,0:2:0:0:
339,337,56004,5,0,0:2:0:0:
267,313,56112,1,0,0:2:0:0:
267,239,56222,2,0,L|185:246,1,82.5000025177003,4|0,0:2|0:2,0:2:0:0:
50,245,56439,5,0,0:2:0:0:
116,316,56548,1,0,0:2:0:0:
158,221,56657,2,0,L|76:228,1,82.5000025177003,4|0,0:2|0:2,0:2:0:0:
10,80,56874,5,0,0:2:0:0:
34,152,56982,1,0,0:2:0:0:
107,152,57092,2,0,L|271:137,1,165.000005035401,4|0,0:2|0:2,0:2:0:0:
215,55,57417,1,4,0:2:0:0:
185,185,57526,2,0,L|267:177,1,82.5000025177003,8|0,0:2|0:2,0:2:0:0:
400,65,57743,1,4,0:2:0:0:
375,59,57852,1,0,0:2:0:0:
350,53,57961,6,0,L|345:135,1,82.5000025177003,4|0,0:2|0:2,0:2:0:0:
405,275,58178,1,0,0:2:0:0:
430,269,58287,1,0,0:2:0:0:
455,263,58396,6,0,L|450:180,1,82.5000025177003,4|0,0:2|0:2,0:2:0:0:
214,252,58613,2,0,P|271:268|326:248,1,120,0|0,0:2|0:2,0:2:0:0:
438,98,58830,1,4,0:2:0:0:
107,152,59048,1,8,0:2:0:0:
112,132,59156,1,8,0:2:0:0:
117,112,59265,1,8,0:2:0:0:
0,105,59483,5,4,0:2:0:0:
18,174,59592,1,0,0:2:0:0:
36,243,59700,2,0,L|118:235,1,82.5000025177003,4|0,0:2|0:2,0:2:0:0:
185,315,59917,1,8,0:2:0:0:
256,325,60026,1,0,0:2:0:0:
327,335,60135,2,0,L|409:327,1,82.5000025177003,4|0,0:2|0:2,0:2:0:0:
510,230,60352,1,0,0:2:0:0:
439,240,60461,1,0,0:2:0:0:
368,250,60570,6,0,B|346:219|346:219|357:92,1,165.000005035401,4|0,0:2|0:2,0:2:0:0:
425,45,60896,1,4,0:2:0:0:
499,76,61004,1,8,0:2:0:0:
435,125,61113,1,0,0:2:0:0:
327,18,61222,1,0,0:2:0:0:
278,81,61330,1,0,0:2:0:0:
247,6,61439,6,0,L|232:170,1,165.000005035401,4|0,0:2|0:2,0:2:0:0:
232,170,61874,2,0,L|125:43,1,165.000005035401,4|0,0:2|0:2,0:2:0:0:
126,44,62309,2,0,L|111:208,1,165.000005035401,4|0,0:2|0:2,0:2:0:0:
35,265,62635,1,8,0:2:0:0:
168,284,62743,1,8,0:2:0:0:
185,299,62961,2,0,P|181:263|146:272,1,82.5000025177003,8|0,0:2|0:2,0:2:0:0:
100,345,63178,6,0,B|258:332|258:332|301:349|301:349|343:345,1,247.500007553101,4|0,0:2|0:2,0:2:0:0:
424,360,63613,1,12,0:2:0:0:
414,285,63722,1,0,0:2:0:0:
315,255,63830,1,0,0:2:0:0:
305,180,63939,1,0,0:2:0:0:
295,105,64048,2,0,L|377:97,1,82.5000025177003,4|0,0:2|0:2,0:2:0:0:
455,140,64265,5,0,0:2:0:0:
460,165,64374,1,4,0:2:0:0:
490,55,64483,1,8,0:2:0:0:
495,30,64592,1,0,0:2:0:0:
350,10,64700,1,4,0:2:0:0:
268,18,64809,1,0,0:2:0:0:
186,26,64917,6,0,L|192:108,1,82.5000025177003,4|0,0:2|0:2,0:2:0:0:
170,240,65135,1,0,0:2:0:0:
88,186,65244,1,0,0:2:0:0:
174,128,65353,2,0,L|181:210,1,82.5000025177003,8|0,0:2|0:2,0:2:0:0:
290,275,65569,2,0,L|282:357,1,82.5000025177003,0|0,0:2|0:2,0:2:0:0:
390,205,65787,1,4,0:2:0:0:
400,65,66004,1,4,0:2:0:0:
375,59,66113,1,8,0:2:0:0:
350,53,66222,6,0,L|345:135,1,82.5000025177003,4|0,0:2|0:2,0:2:0:0:
205,230,66439,2,0,L|197:147,1,82.5000025177003,4|0,0:2|0:2,0:2:0:0:
30,90,66656,6,0,L|46:105,1,22.4999993133545,4|0,0:2|0:2,0:2:0:0:
70,185,66874,2,0,L|89:174,1,22.4999993133545,0|0,0:2|0:2,0:2:0:0:
194,75,67091,6,0,L|171:72,1,22.4999993133545,8|0,0:2|0:2,0:2:0:0:
105,24,67309,2,0,L|95:44,1,22.4999993133545,0|0,0:2|0:2,0:2:0:0:
180,220,67526,6,0,L|185:175,1,44.999998626709,4|0,0:2|0:2,0:2:0:0:
215,305,67852,1,4,0:2:0:0:
230,290,67961,2,0,L|252:288,1,22.4999993133545,8|8,0:2|0:2,0:2:0:0:
325,255,68178,2,0,L|333:275,1,22.4999993133545,4|4,0:2|0:2,0:2:0:0:
475,170,68396,6,0,L|458:185,1,22.4999993133545,4|0,0:2|0:2,0:2:0:0:
435,265,68614,2,0,L|415:254,1,22.4999993133545,0|0,0:2|0:2,0:2:0:0:
311,155,68831,6,0,L|333:152,1,22.4999993133545,8|8,0:2|0:2,0:2:0:0:
400,104,69049,2,0,L|409:124,1,22.4999993133545,0|0,0:2|0:2,0:2:0:0:
393,337,69265,6,0,L|360:340,2,29.9999990844727,4|0|0,0:2|0:2|0:2,0:2:0:0:
512,330,69700,1,8,0:2:0:0:
256,192,70135,5,4,0:2:0:0:
145,275,77091,5,8,0:2:0:0:
110,70,77417,1,8,0:2:0:0:
90,65,77526,1,8,0:2:0:0:
188,126,77743,1,8,0:2:0:0:
280,45,77961,5,8,0:2:0:0:
350,225,78287,1,8,0:2:0:0:
370,220,78396,1,8,0:2:0:0:
455,290,78613,1,8,0:2:0:0:
512,175,78831,5,8,0:2:0:0:
279,154,79156,1,8,0:2:0:0:
259,159,79265,1,8,0:2:0:0:
387,132,79482,1,8,0:2:0:0:
295,295,79700,1,8,0:2:0:0:
160,75,79917,6,0,L|177:89,1,22.4999993133545
129,169,80135,2,0,L|167:165,1,22.4999993133545
172,257,80352,2,0,L|197:227,1,22.4999993133545
356,201,80569,5,8,0:2:0:0:
284,201,80678,1,8,0:2:0:0:
248,138,80787,1,8,0:2:0:0:
284,76,80896,1,8,0:2:0:0:
391,13,81004,5,8,0:2:0:0:
356,76,81113,1,8,0:2:0:0:
392,138,81222,1,8,0:2:0:0:
356,201,81330,1,8,0:2:0:0:
392,263,81439,2,0,L|391:279,4,16.8749994850159,8|0|0|0|0,0:2|0:2|0:2|0:2|0:2,0:2:0:0:
305,305,81874,2,0,L|304:316,6,11.2499996566773,8|0|0|0|0|0|0,0:2|0:2|0:2|0:2|0:2|0:2|0:2,0:2:0:0:
205,370,82309,6,0,L|199:295,1,75,4|0,0:1|0:0,0:0:0:0:
245,225,82526,2,0,L|245:243,1,11.2499996566773,2|2,0:2|0:2,0:2:0:0:
162,221,82635,1,2,0:2:0:0:
207,152,82743,1,2,0:2:0:0:
294,154,82852,1,2,0:2:0:0:
339,79,82961,1,2,0:2:0:0:
296,2,83069,1,2,0:2:0:0:
166,76,83178,6,0,B|117:76|117:76|86:41,1,90
153,2,83613,2,0,B|202:2|202:2|233:37,1,90
310,95,84048,6,0,L|276:287,1,194.999991073609,4|0,0:0|0:0,0:0:0:0:
145,325,84374,1,4,0:0:0:0:
115,230,84483,2,0,B|140:214|140:214|207:220,1,97.4999955368044,8|0,0:0|0:0,0:0:0:0:
180,115,84700,2,0,L|82:105,1,97.4999955368044,4|0,0:0|0:0,0:0:0:0:
30,190,84917,6,0,L|224:206,1,194.999991073609,4|0,0:0|0:0,0:0:0:0:
370,315,85243,1,4,0:0:0:0:
286,379,85352,2,0,B|270:353|270:353|276:286,1,97.4999955368044,8|0,0:0|0:0,0:0:0:0:
330,105,85569,2,0,B|345:130|345:130|339:197,1,97.4999955368044,4|0,0:0|0:0,0:0:0:0:
185,85,85787,6,0,B|241:97|241:97|325:64|325:64|371:73,1,194.999991073609,4|0,0:0|0:0,0:0:0:0:
339,198,86113,1,4,0:0:0:0:
275,30,86222,2,0,L|370:48,1,97.4999955368044,8|0,0:0|0:0,0:0:0:0:
207,220,86439,2,0,L|111:201,1,97.4999955368044,4|0,0:0|0:0,0:0:0:0:
15,35,86656,6,0,P|108:26|163:101,1,194.999991073609,4|0,0:0|0:0,0:0:0:0:
75,235,86982,1,4,0:0:0:0:
59,214,87091,2,0,L|68:117,1,97.4999955368044,8|0,0:0|0:0,0:0:0:0:
207,220,87308,2,0,L|198:316,1,97.4999955368044,4|0,0:0|0:0,0:0:0:0:
155,384,87526,6,0,L|171:190,1,194.999991073609,4|0,0:0|0:0,0:0:0:0:
75,235,87852,1,4,0:0:0:0:
198,317,87961,2,0,L|294:325,1,97.4999955368044,8|0,0:0|0:0,0:0:0:0:
436,190,88178,2,0,L|339:198,1,97.4999955368044,4|0,0:0|0:0,0:0:0:0:
370,365,88396,6,0,B|379:318|379:318|346:234|346:234|358:178,1,194.999991073609,4|0,0:0|0:0,0:0:0:0:
450,25,88721,1,4,0:0:0:0:
500,103,88830,2,0,P|454:118|407:108,1,97.4999955368044,8|0,0:0|0:0,0:0:0:0:
305,25,89048,2,0,P|257:15|212:30,1,97.4999955368044,4|0,0:0|0:0,0:0:0:0:
223,194,89265,6,0,B|172:177|169:121|169:121|121:116|121:116|108:171|58:178,1,240,2|0,0:0|0:0,0:0:0:0:
135,258,89591,1,2,0:0:0:0:
58,179,89700,6,0,B|100:176|118:126|118:126|145:106|145:106|170:132|170:132|175:176|223:194,1,240,2|0,0:0|0:0,0:0:0:0:
135,258,90026,1,2,0:0:0:0:
222,194,90135,6,0,B|171:177|168:121|168:121|120:116|120:116|107:171|57:178,1,240,2|0,0:0|0:0,0:0:0:0:
150,30,90461,1,4,0:0:0:0:
250,120,90569,2,0,L|347:111,1,97.4999955368044,8|0,0:0|0:0,0:0:0:0:
485,30,90787,2,0,L|387:21,1,97.4999955368044
205,215,91004,6,0,L|399:198,1,194.999991073609,4|0,0:0|0:0,0:0:0:0:
465,345,91330,1,4,0:0:0:0:
485,325,91439,2,0,P|494:277|479:232,1,97.4999955368044,8|0,0:0|0:0,0:0:0:0:
315,325,91656,2,0,L|217:316,1,97.4999955368044,4|0,0:0|0:0,0:0:0:0:
11,198,91874,6,0,L|205:214,1,194.999991073609,4|0,0:0|0:0,0:0:0:0:
110,384,92199,1,4,0:0:0:0:
10,365,92308,2,0,B|-6:339|-6:339|0:272,1,97.4999955368044,8|0,0:0|0:0,0:0:0:0:
70,115,92526,2,0,L|167:123,1,97.4999955368044,4|0,0:0|0:0,0:0:0:0:
346,245,92743,6,0,P|301:251|289:208,1,97.4999955368044,6|0,0:0|0:0,0:0:0:0:
425,80,92961,1,2,0:0:0:0:
355,165,93069,1,6,0:0:0:0:
245,45,93178,2,0,L|341:61,1,97.4999955368044,10|0,0:0|0:0,0:0:0:0:
451,181,93396,2,0,L|355:165,1,97.4999955368044,6|0,0:0|0:0,0:0:0:0:
165,5,93613,6,0,L|357:38,1,194.999991073609,6|0,0:0|0:0,0:0:0:0:
475,45,93938,1,4,0:0:0:0:
455,62,94047,2,0,L|447:159,1,97.4999955368044,8|0,0:0|0:0,0:0:0:0:
289,208,94265,2,0,L|296:305,1,97.4999955368044,4|0,0:0|0:0,0:0:0:0:
415,375,94483,6,0,B|363:343|363:343|229:355,1,194.999991073609,4|0,0:0|0:0,0:0:0:0:
80,355,94808,1,4,0:0:0:0:
170,280,94917,2,0,L|364:261,1,194.999991073609,8|4,0:0|0:0,0:0:0:0:
92,168,95352,6,0,B|104:224|104:224|71:308|71:308|80:355,1,194.999991073609,4|0,0:0|0:0,0:0:0:0:
160,315,95677,1,4,0:0:0:0:
41,291,95786,2,0,L|5:100,1,194.999991073609,8|4,0:0|0:0,0:0:0:0:
305,155,96222,6,0,P|254:226|184:174,1,194.999991073609,4|0,0:0|0:0,0:0:0:0:
304,53,96547,1,4,0:0:0:0:
404,124,96656,2,0,P|317:139|305:52,1,194.999991073609,8|4,0:0|0:0,0:0:0:0:
512,152,97091,6,0,L|493:346,1,194.999991073609,4|0,0:0|0:0,0:0:0:0:
405,384,97416,1,8,0:0:0:0:
416,288,97526,1,8,0:0:0:0:
215,380,97743,1,4,0:0:0:0:
125,110,97961,6,0,B|206:117|206:117|228:145|228:145|305:153,1,194.999991073609,4|0,0:0|0:0,0:0:0:0:
205,270,98287,1,0,0:0:0:0:
185,280,98396,2,0,B|156:253|156:253|150:228|150:228|159:197,2,97.4999955368044,8|0|0,0:0|0:0|0:0,0:0:0:0:
120,365,98722,1,0,0:0:0:0:
110,340,98830,2,0,B|88:316|88:316|63:308|63:308|25:320,1,97.4999955368044,4|0,0:0|0:0,0:0:0:0:
75,170,99048,2,0,B|66:208|66:208|47:226|47:226|15:232,1,97.4999955368044
0,55,99265,1,8,0:0:0:0:
15,70,99374,2,0,B|48:83|48:83|109:77,1,97.4999955368044
196,175,99591,1,0,0:0:0:0:
211,160,99700,6,0,B|244:146|244:146|305:152,1,97.4999955368044,4|0,0:0|0:0,0:0:0:0:
325,70,99917,2,0,B|357:84|357:84|396:131,1,97.4999955368044
455,70,100135,1,8,0:0:0:0:
469,86,100243,2,0,B|482:119|482:119|476:180,1,97.4999955368044
365,300,100461,1,0,0:0:0:0:
440,355,100569,2,0,B|458:324|458:324|463:263,1,97.4999955368044,4|0,0:0|0:0,0:0:0:0:
280,338,100787,2,0,L|182:346,1,97.4999955368044
10,290,101004,1,8,0:0:0:0:
33,273,101113,2,0,B|65:259|65:259|126:265,1,97.4999955368044
115,150,101330,1,0,0:0:0:0:
200,230,101439,6,0,L|394:213,1,194.999991073609,4|0,0:0|0:0,0:0:0:0:
470,130,101765,1,0,0:0:0:0:
384,95,101874,2,0,P|377:142|396:187,2,97.4999955368044,8|0|0,0:0|0:0|0:0,0:0:0:0:
458,39,102200,1,0,0:0:0:0:
290,55,102309,2,0,L|192:46,1,97.4999955368044,4|0,0:0|0:0,0:0:0:0:
65,150,102526,2,0,L|162:141,1,97.4999955368044
315,265,102743,1,8,0:0:0:0:
290,251,102852,2,0,L|281:153,1,97.4999955368044
280,35,103069,1,0,0:0:0:0:
140,245,103178,5,6,0:0:0:0:
83,165,103287,1,2,0:0:0:0:
3,345,103396,1,2,0:0:0:0:
43,255,103504,1,2,0:0:0:0:
130,370,103613,2,0,L|227:361,2,97.4999955368044,10|0|0,0:0|0:0|0:0,0:0:0:0:
315,384,103939,1,0,0:0:0:0:
327,368,104048,2,0,L|424:359,1,97.4999955368044,4|0,0:0|0:0,0:0:0:0:
510,275,104265,2,0,L|412:266,1,97.4999955368044
263,200,104483,6,0,B|292:186|292:186|281:153,1,67.4999979400635,2|0,0:2|0:0,0:0:0:0:
150,135,104917,6,0,L|343:114,1,194.999991073609,4|0,0:0|0:0,0:0:0:0:
395,20,105243,1,0,0:0:0:0:
374,30,105352,2,0,B|276:38,2,97.4999955368044,8|0|0,0:0|0:0|0:0,0:0:0:0:
505,0,105678,1,0,0:0:0:0:
495,25,105787,2,0,B|503:121,1,97.4999955368044,4|0,0:0|0:0,0:0:0:0:
430,280,106004,2,0,B|421:183,1,97.4999955368044
277,38,106222,1,8,0:0:0:0:
291,60,106330,2,0,B|299:156,1,97.4999955368044
224,265,106547,1,0,0:0:0:0:
238,250,106656,6,0,P|280:242|282:286,1,97.4999955368044,4|0,0:0|0:0,0:0:0:0:
180,340,106874,2,0,P|137:347|135:303,1,97.4999955368044
135,210,107091,1,8,0:0:0:0:
121,195,107200,2,0,P|78:187|76:231,1,97.4999955368044
215,160,107417,1,0,0:0:0:0:
130,100,107526,2,0,L|138:2,1,97.4999955368044,4|0,0:0|0:0,0:0:0:0:
235,175,107743,2,0,L|333:167,1,97.4999955368044
440,45,107960,1,8,0:0:0:0:
416,67,108069,2,0,L|318:75,1,97.4999955368044
220,40,108286,1,0,0:0:0:0:
224,265,108395,6,0,L|418:248,1,194.999991073609,4|0,0:0|0:0,0:0:0:0:
510,300,108721,1,0,0:0:0:0:
511,169,108830,2,0,B|485:151|485:151|419:157,2,97.4999955368044,8|0|0,0:0|0:0|0:0,0:0:0:0:
420,345,109156,1,0,0:0:0:0:
395,360,109265,2,0,L|297:369,1,97.4999955368044,4|0,0:0|0:0,0:0:0:0:
170,384,109483,2,0,L|72:375,1,97.4999955368044
5,270,109699,1,8,0:0:0:0:
23,247,109808,2,0,L|121:255,1,97.4999955368044
224,265,110025,1,0,0:0:0:0:
110,100,110135,6,0,L|304:116,1,194.999991073609,4|0,0:0|0:0,0:0:0:0:
364,173,110461,2,0,P|386:131|380:84,1,97.4999955368044
461,84,110678,2,0,P|447:38|409:8,1,97.4999955368044
305,117,110896,1,0,0:0:0:0:
260,35,111004,2,0,L|162:26,2,97.4999955368044
257,197,111330,1,8,0:2:0:0:
212,115,111439,1,8,0:0:0:0:
130,160,111548,1,8,0:2:0:0:
48,205,111656,1,8,0:2:0:0:
45,225,111765,1,8,0:2:0:0:
42,245,111874,6,0,B|93:249|93:249|129:284|129:284|177:289,1,150,4|2,0:1|0:0,0:0:0:0:
230,350,112200,1,0,0:0:0:0:
257,274,112309,1,0,0:0:0:0:
335,380,112526,1,2,0:0:0:0:
362,304,112743,1,0,0:0:0:0:
340,185,112960,1,2,0:0:0:0:
355,189,113069,1,0,0:0:0:0:
280,110,113178,1,2,0:0:0:0:
284,95,113287,2,0,L|209:101,1,52.4999983978272
140,190,113504,1,2,0:0:0:0:
136,175,113613,6,0,L|210:181,1,52.4999983978272
315,260,113830,1,2,0:0:0:0:
265,200,113939,1,0,0:0:0:0:
238,273,114048,2,0,L|242:325,1,52.4999983978272,2|0,0:0|0:0,0:0:0:0:
360,372,114265,2,0,L|364:319,1,52.4999983978272,2|0,0:0|0:0,0:0:0:0:
375,145,114483,5,0,0:0:0:0:
400,235,114700,1,2,0:0:0:0:
465,120,114917,1,2,0:0:0:0:
285,120,115135,1,0,0:0:0:0:
274,104,115352,6,0,L|169:114,1,104.999996795654
89,129,115678,1,0,0:0:0:0:
117,53,115787,1,0,0:0:0:0:
62,205,116004,5,0,0:0:0:0:
141,191,116113,1,0,0:0:0:0:
192,252,116222,2,0,L|187:306,1,52.4999983978272
345,250,116439,5,0,0:0:0:0:
269,222,116548,1,0,0:0:0:0:
208,273,116657,2,0,L|203:327,1,52.4999983978272
315,375,116874,1,0,0:0:0:0:
330,380,116983,1,0,0:0:0:0:
363,266,117091,5,8,0:0:0:0:
430,345,117200,1,8,0:0:0:0:
445,185,117309,1,4,0:0:0:0:
296,187,117526,5,8,0:0:0:0:
363,266,117635,1,8,0:0:0:0:
378,106,117744,1,4,0:0:0:0:
229,108,117960,5,8,0:0:0:0:
210,105,118069,1,8,0:0:0:0:
378,106,118178,1,8,0:0:0:0:
296,187,118287,1,8,0:0:0:0:
310,25,118396,1,8,0:0:0:0:
190,287,118613,5,0,0:0:0:0:
120,222,118722,1,0,0:0:0:0:
214,180,118831,2,0,L|296:187,1,82.5000025177003,4|0,0:2|0:2,0:2:0:0:
485,275,119048,1,0,0:2:0:0:
433,195,119157,1,0,0:2:0:0:
375,281,119266,2,0,L|293:273,1,82.5000025177003,4|0,0:2|0:2,0:2:0:0:
105,325,119483,5,0,0:2:0:0:
200,280,119591,1,0,0:2:0:0:
100,214,119700,5,4,0:2:0:0:
90,195,119809,1,0,0:2:0:0:
165,125,119917,1,0,0:2:0:0:
175,106,120026,1,0,0:2:0:0:
295,113,120135,2,0,L|377:105,1,82.5000025177003,4|0,0:2|0:2,0:2:0:0:
495,10,120352,1,0,0:2:0:0:
480,6,120461,1,0,0:2:0:0:
465,2,120569,6,0,L|375:9,1,82.5000025177003,4|0,0:2|0:2,0:2:0:0:
251,204,120787,1,0,0:2:0:0:
330,218,120896,1,0,0:2:0:0:
381,157,121004,6,0,L|463:164,1,82.5000025177003,4|0,0:2|0:2,0:2:0:0:
295,113,121222,2,0,L|187:122,1,82.5000025177003,0|0,0:2|0:2,0:2:0:0:
43,156,121439,2,0,L|126:164,1,82.5000025177003,4|0,0:2|0:2,0:2:0:0:
251,204,121656,1,0,0:2:0:0:
175,285,121765,1,0,0:2:0:0:
195,305,121874,2,0,B|221:316|221:316|274:312,1,82.5000025177003,4|0,0:2|0:2,0:2:0:0:
425,250,122091,2,0,B|398:238|398:238|345:242,1,82.5000025177003,0|0,0:2|0:2,0:2:0:0:
251,204,122309,6,0,L|254:159,1,44.999998626709,0|0,0:2|0:2,0:2:0:0:
325,105,122635,1,0,0:0:0:0:
310,90,122744,6,0,L|287:87,1,22.4999993133545,8|0,0:2|0:2,0:2:0:0:
230,30,122962,2,0,L|220:50,1,22.4999993133545,0|0,0:2|0:2,0:2:0:0:
171,168,123178,6,0,L|126:164,1,44.999998626709,0|0,0:2|0:2,0:2:0:0:
60,223,123504,1,0,0:0:0:0:
48,206,123613,6,0,L|49:182,1,22.4999993133545,8|0,0:2|0:2,0:2:0:0:
3,117,123831,2,0,L|24:110,1,22.4999993133545,0|0,0:2|0:2,0:2:0:0:
135,30,124049,6,0,L|139:74,1,44.999998626709,4|0,0:2|0:2,0:2:0:0:
126,164,124374,1,0,0:0:0:0:
255,159,124483,5,0,0:2:0:0:
210,90,124591,1,0,0:0:0:0:
172,163,124700,1,0,0:0:0:0:
217,233,124809,1,0,0:0:0:0:
301,229,124917,2,0,L|330:225,2,29.9999990844727
179,307,125352,5,0,0:0:0:0:
346,298,125569,1,0,0:0:0:0:
397,76,125787,6,0,L|292:85,1,104.999996795654
225,145,126113,1,0,0:0:0:0:
215,160,126222,2,0,L|110:170,1,104.999996795654
45,120,126548,1,0,0:0:0:0:
25,135,126656,2,0,L|29:187,1,52.4999983978272
35,295,126874,1,0,0:0:0:0:
55,280,126983,1,0,0:0:0:0:
105,345,127091,2,0,L|209:354,1,104.999996795654
209,354,127526,5,0,0:0:0:0:
325,360,127743,1,0,0:0:0:0:
200,260,127961,2,0,L|304:269,1,104.999996795654
500,290,128396,2,0,L|395:299,1,104.999996795654
310,260,128722,1,0,0:0:0:0:
387,206,128830,2,0,L|376:101,1,104.999996795654
310,25,129156,1,0,0:0:0:0:
295,40,129265,6,0,L|304:144,1,104.999996795654
210,115,129700,2,0,L|219:219,1,104.999996795654
310,260,130135,2,0,L|299:374,1,104.999996795654
210,384,130461,1,0,0:0:0:0:
148,317,130569,2,0,L|151:264,1,52.4999983978272
95,145,130787,2,0,L|134:179,1,52.4999983978272
227,306,131004,5,0,0:0:0:0:
304,144,131222,1,0,0:0:0:0:
185,105,131439,2,0,B|171:70|171:70|177:2,2,104.999996795654
315,136,132091,1,0,0:0:0:0:
325,90,132200,1,0,0:0:0:0:
335,44,132309,1,0,0:0:0:0:
219,219,132526,2,0,L|166:222,1,52.4999983978272
30,175,132743,5,0,0:0:0:0:
33,211,132852,1,0,0:0:0:0:
36,247,132961,1,0,0:0:0:0:
39,283,133069,1,0,0:0:0:0:
115,275,133178,5,0,0:0:0:0:
112,311,133287,1,0,0:0:0:0:
109,347,133396,1,0,0:0:0:0:
106,383,133504,1,0,0:0:0:0:
185,355,133613,5,0,0:0:0:0:
220,346,133722,1,0,0:0:0:0:
256,350,133831,1,0,0:0:0:0:
288,366,133939,1,0,0:0:0:0:
375,350,134048,5,0,0:0:0:0:
325,290,134156,1,0,0:0:0:0:
311,213,134265,1,0,0:0:0:0:
337,139,134374,1,0,0:0:0:0:
396,87,134483,6,0,L|448:91,1,52.4999983978272
460,240,134700,2,0,L|512:235,1,52.4999983978272
375,350,134917,5,0,0:0:0:0:
325,290,135025,1,0,0:0:0:0:
311,213,135134,1,0,0:0:0:0:
337,139,135243,1,0,0:0:0:0:
233,212,135352,5,0,0:0:0:0:
156,224,135460,1,0,0:0:0:0:
82,198,135569,1,0,0:0:0:0:
30,138,135678,1,0,0:0:0:0:
30,286,135787,5,0,0:0:0:0:
107,298,135895,1,0,0:0:0:0:
181,272,136004,1,0,0:0:0:0:
233,212,136113,1,0,0:0:0:0:
248,134,136222,6,0,L|245:107,6,26.2499991989136
330,80,136656,2,0,L|327:106,6,26.2499991989136
485,205,137091,6,0,L|487:178,6,26.2499991989136
403,151,137525,2,0,L|405:177,6,26.2499991989136
460,50,137961,5,0,0:0:0:0:
215,265,138830,6,0,L|205:231,1,34.9999989318848
285,210,138975,2,0,L|281:175,1,34.9999989318848
360,140,139120,2,0,L|363:105,1,34.9999989318848
195,125,139265,2,0,P|210:47|283:76,1,179.999994506836
423,231,139700,6,0,B|359:227|359:227|295:251|295:251|311:287|311:287|327:251|327:251|263:227|263:227|205:230,1,337.500012874604,4|0,0:3|0:0,0:0:0:0:
55,185,140134,5,4,0:0:0:0:
88,182,140243,1,0,0:0:0:0:
121,180,140352,2,0,L|115:127,1,52.4999983978272
90,320,140569,5,4,0:0:0:0:
57,317,140678,1,0,0:0:0:0:
24,315,140787,2,0,L|29:262,1,52.4999983978272
70,50,141004,5,4,0:0:0:0:
100,52,141113,1,0,0:0:0:0:
130,54,141222,1,0,0:0:0:0:
160,56,141330,1,0,0:0:0:0:
234,134,141439,5,4,0:0:0:0:
236,104,141548,1,0,0:0:0:0:
238,74,141657,1,0,0:0:0:0:
240,44,141765,1,0,0:0:0:0:
310,110,141874,5,4,0:0:0:0:
340,112,141983,1,0,0:0:0:0:
370,114,142092,1,0,0:0:0:0:
400,116,142200,1,0,0:0:0:0:
370,195,142303,6,0,L|317:191,1,52.4999983978272,4|0,0:0|0:0,0:0:0:0:
242,267,142526,2,0,L|205:230,1,52.4999983978272
88,182,142743,5,4,0:0:0:0:
90,195,142852,1,0,0:0:0:0:
92,208,142961,1,0,0:0:0:0:
94,221,143069,1,0,0:0:0:0:
96,234,143178,6,0,B|52:220|52:220|42:145|42:145|82:144|82:144|93:107|93:107|132:142|178:145|219:119,1,337.500012874604,4|0,0:3|0:0,0:0:0:0:
310,50,143613,5,4,0:0:0:0:
312,80,143722,1,0,0:0:0:0:
314,110,143830,1,0,0:0:0:0:
375,160,143939,1,0,0:0:0:0:
300,210,144048,5,4,0:0:0:0:
302,240,144157,1,0,0:0:0:0:
304,270,144265,1,0,0:0:0:0:
366,320,144374,1,0,0:0:0:0:
249,327,144483,5,4,0:0:0:0:
190,310,144591,1,0,0:0:0:0:
149,263,144700,1,0,0:0:0:0:
146,201,144809,1,0,0:0:0:0:
46,265,144917,5,4,0:0:0:0:
105,248,145025,1,0,0:0:0:0:
146,201,145134,1,0,0:0:0:0:
149,139,145243,1,0,0:0:0:0:
249,203,145352,5,4,0:0:0:0:
190,186,145460,1,0,0:0:0:0:
149,139,145569,1,0,0:0:0:0:
146,77,145678,1,0,0:0:0:0:
230,25,145787,5,4,0:0:0:0:
260,23,145896,1,0,0:0:0:0:
290,21,146005,1,0,0:0:0:0:
320,19,146113,1,0,0:0:0:0:
395,75,146222,5,4,0:0:0:0:
400,100,146330,1,0,0:0:0:0:
325,165,146439,2,0,B|384:191|384:191|432:188,1,112.500004291535,4|0,0:3|0:0,0:0:0:0:
495,340,146656,6,0,B|390:331|390:331|344:279|344:279|276:288|276:288|195:239,1,337.500012874604,8|0,0:1|0:0,0:0:0:0:
175,95,147091,5,8,0:1:0:0:
210,100,147200,1,8,0:1:0:0:
245,105,147309,2,0,L|274:107,1,30,8|8,0:1|0:1,0:0:0:0:
60,85,147526,5,8,0:1:0:0:
100,40,147635,1,8,0:1:0:0:
158,53,147743,2,0,L|210:56,1,52.4999983978272,8|8,0:1|0:1,0:0:0:0:
41,257,147961,5,8,0:1:0:0:
70,180,148069,1,8,0:1:0:0:
145,145,148178,2,0,L|219:151,1,75,8|8,0:1|0:1,0:0:0:0:
400,100,148396,2,0,L|386:173,1,75,8|0,0:1|0:0,0:0:0:0:
335,270,148613,5,0,0:0:0:0:
355,285,148722,1,0,0:0:0:0:
315,360,148830,5,4,0:0:0:0:
295,375,148939,1,0,0:0:0:0:
170,289,149048,5,8,0:1:0:0:
247,297,149156,1,8,0:1:0:0:
145,145,149265,5,8,0:1:0:0:
214,228,149374,1,8,0:1:0:0:
228,59,149482,1,8,0:1:0:0:
297,142,149591,1,8,0:1:0:0:
135,55,149700,5,4,0:0:0:0:
105,60,149809,1,0,0:0:0:0:
75,65,149917,2,0,L|79:117,1,52.4999983978272
25,300,150135,6,0,B|62:280|62:280|170:288,1,150,4|0,0:0|0:0,0:0:0:0:
237,363,150461,1,8,0:1:0:0:
304,290,150569,2,0,B|300:247|300:247|305:238|305:238|297:142,1,150,8|0,0:1|0:0,0:0:0:0:
330,384,150896,1,8,0:1:0:0:
397,311,151004,2,0,B|393:268|393:268|398:259|398:259|390:163,1,150,8|0,0:1|0:0,0:0:0:0:
385,85,151330,1,0,0:0:0:0:
320,20,151439,5,4,0:0:0:0:
455,6,151548,6,0,L|464:0,1,11.2499996566773,2|0,0:0|0:0,0:0:0:0:
461,26,151656,2,0,L|470:19,1,11.2499996566773,2|0,0:0|0:0,0:0:0:0:
468,47,151765,2,0,L|477:40,1,11.2499996566773,2|0,0:0|0:0,0:0:0:0:
365,90,151874,6,0,B|320:104|320:104|276:93|276:93|223:118|223:118|134:113|134:113|161:167|161:167|197:162,1,337.500012874604,4|0,0:0|0:0,0:0:0:0:
225,260,152309,1,6,0:0:0:0:
283,190,152417,1,2,0:0:0:0:
315,275,152526,2,0,L|262:280,1,52.4999983978272,10|0,0:0|0:0,0:0:0:0:
130,315,152743,1,8,0:0:0:0:
150,290,152852,2,0,L|144:237,1,52.4999983978272,10|8,0:0|0:0,0:0:0:0:
35,130,153069,1,10,0:0:0:0:
56,155,153178,6,0,L|108:150,1,52.4999983978272,6|6,0:0|0:0,0:0:0:0:
357,98,153613,6,0,B|292:83|248:121|248:121|196:100|196:100|148:119|148:119|35:130,1,337.500012874604,4|0,0:0|0:0,0:0:0:0:
0,225,154048,6,0,B|20:234|20:234|50:231,1,52.4999983978272,4|0,0:0|0:0,0:0:0:0:
195,195,154265,1,0,0:0:0:0:
205,265,154374,1,0,0:0:0:0:
215,335,154483,2,0,L|267:330,1,52.4999983978272,4|0,0:0|0:0,0:0:0:0:
300,205,154700,1,0,0:0:0:0:
375,200,154809,1,0,0:0:0:0:
450,195,154917,5,6,0:0:0:0:
455,215,155026,1,2,0:0:0:0:
369,72,155135,1,2,0:0:0:0:
334,138,155243,1,2,0:0:0:0:
409,134,155352,6,0,L|461:129,1,52.4999983978272,6|0,0:0|0:0,0:0:0:0:
185,60,155569,1,0,0:0:0:0:
243,14,155677,1,0,0:0:0:0:
253,88,155786,2,0,L|257:140,1,52.4999983978272,4|0,0:0|0:0,0:0:0:0:
140,210,156004,2,0,L|144:157,1,52.4999983978272
257,260,156222,6,0,L|204:264,1,52.4999983978272,4|0,0:0|0:0,0:0:0:0:
95,355,156439,2,0,L|147:358,1,52.4999983978272
290,350,156656,1,4,0:0:0:0:
317,331,156765,1,0,0:0:0:0:
345,313,156874,6,0,B|307:327|307:327|367:368,1,112.500004291535,4|0,0:0|0:0,0:0:0:0:
469,335,157091,6,0,B|447:276|469:204|469:204|411:221|362:208|362:208|412:221|438:263,1,337.500012874604,4|0,0:0|0:0,0:0:0:0:
292,308,157526,6,0,L|345:313,1,52.4999983978272,4|0,0:0|0:0,0:0:0:0:
380,130,157743,1,0,0:0:0:0:
325,190,157852,1,0,0:0:0:0:
245,172,157961,2,0,L|192:167,1,52.4999983978272,4|0,0:0|0:0,0:0:0:0:
95,35,158178,1,0,0:0:0:0:
163,78,158287,1,0,0:0:0:0:
90,115,158396,5,6,0:0:0:0:
159,160,158504,1,2,0:0:0:0:
137,239,158613,1,2,0:0:0:0:
55,242,158722,1,2,0:0:0:0:
26,164,158830,6,0,L|21:216,1,52.4999983978272,4|0,0:0|0:0,0:0:0:0:
245,90,159048,1,0,0:0:0:0:
325,70,159156,1,0,0:0:0:0:
340,80,159265,2,0,B|346:105|346:105|338:130,2,52.4999983978272,6|0|0,0:0|0:0|0:0,0:0:0:0:
345,220,159591,1,0,0:0:0:0:
362,212,159700,2,0,B|386:219|386:219|405:238,2,52.4999983978272,6|0|0,0:0|0:0|0:0,0:0:0:0:
430,115,160026,1,0,0:0:0:0:
432,134,160135,2,0,B|450:151|450:151|476:158,1,52.4999983978272,6|0,0:0|0:0,0:0:0:0:
410,35,160352,6,0,B|414:83|414:83|409:104|409:104|412:146,1,112.500004291535,4|0,0:0|0:0,0:0:0:0:
375,345,160569,6,0,P|423:362|451:318,1,112.500004291535,2|0,0:0|0:0,0:0:0:0:
335,255,160787,2,0,L|343:262,1,11.2499996566773,2|0,0:0|0:0,0:0:0:0:
260,315,160896,2,0,L|251:322,1,11.2499996566773,2|0,0:0|0:0,0:0:0:0:
244,220,161004,6,0,B|250:155|250:155|266:131,2,93.75,6|2|2,0:0|0:0|0:0,0:0:0:0:
160,283,161330,1,0,0:0:0:0:
40,125,161439,1,4,0:0:0:0:
55,145,161548,2,0,L|107:140,1,52.4999983978272,2|0,0:0|0:0,0:0:0:0:
215,25,161765,1,2,0:0:0:0:
230,45,161874,2,0,L|282:40,1,52.4999983978272,2|0,0:0|0:0,0:0:0:0:
90,0,162091,2,0,L|85:52,1,52.4999983978272,2|0,0:0|0:0,0:0:0:0:
145,255,162309,6,0,P|175:174|101:218,1,225.000008583069,4|2,0:0|0:0,0:0:0:0:
170,345,162635,1,2,0:0:0:0:
215,270,162743,1,6,0:0:0:0:
294,234,162852,1,2,0:0:0:0:
379,249,162961,2,0,L|431:253,1,52.4999983978272,2|0,0:0|0:0,0:0:0:0:
495,80,163178,1,4,0:0:0:0:
430,135,163287,2,0,L|377:130,1,52.4999983978272,2|0,0:0|0:0,0:0:0:0:
175,65,163504,1,2,0:0:0:0:
285,25,163613,6,0,L|295:144,1,112.500004291535,4|0,0:0|0:0,0:0:0:0:
270,210,163830,2,0,B|262:127|262:127|282:105,1,112.500004291535
495,80,164048,6,0,B|407:110|407:110|303:79|303:79|232:93|232:93|175:64,1,337.500012874604,4|0,0:0|0:0,0:0:0:0:
75,45,164483,1,4,0:0:0:0:
90,140,164591,1,4,0:0:0:0:
4,183,164700,1,8,0:0:0:0:
0,195,164809,1,8,0:0:0:0:
154,187,164917,5,4,0:0:0:0:
130,280,165026,1,8,0:0:0:0:
126,292,165135,1,8,0:0:0:0:
235,220,165243,1,4,0:0:0:0:
270,320,165352,1,8,0:0:0:0:
274,332,165461,1,8,0:0:0:0:
350,245,165569,1,8,0:0:0:0:
362,242,165678,1,8,0:0:0:0:
320,155,165787,6,0,P|358:134|398:149,1,89.9999972534181,2|0,0:0|0:0,0:0:0:0:
455,210,166004,1,0,0:0:0:0:
465,225,166113,1,0,0:0:0:0:
479,124,166222,2,0,P|460:92|431:70,1,75,2|0,0:0|0:0,0:0:0:0:
345,70,166439,1,0,0:0:0:0:
330,80,166548,1,0,0:0:0:0:
255,35,166656,6,0,L|217:38,3,37.5,2|0|0|0,0:0|0:0|0:0|0:0,0:0:0:0:
185,115,167091,2,0,L|147:111,3,37.5,2|0|0|0,0:0|0:0|0:0|0:0,0:0:0:0:
295,192,167526,5,2,0:0:0:0:
